<?xml version="1.0" standalone="no"?>
<!DOCTYPE svg PUBLIC "-//W3C//DTD SVG 1.1//EN" "http://www.w3.org/Graphics/SVG/1.1/DTD/svg11.dtd" >
<svg>
<metadata>
Created by FontForge 20090622 at Tue Feb  6 14:55:39 2018
 By deploy user
&#194;&#169; Copyright (c) 2010. All rights reserved. Fakt is a design by Thomas Thiemich, published by OurType. www.ourtype.com
</metadata>
<defs>
<font id="FaktPro-Blond" horiz-adv-x="352" >
  <font-face 
    font-family="Fakt Pro Bln"
    font-weight="350"
    font-stretch="normal"
    units-per-em="1000"
    panose-1="2 0 0 0 0 0 0 0 0 0"
    ascent="748"
    descent="-252"
    x-height="488"
    cap-height="688"
    bbox="-171 -313 1127 1012"
    underline-thickness="50"
    underline-position="-50"
    unicode-range="U+0020-U+FB04"
  />
<missing-glyph horiz-adv-x="712" 
d="M0 0v720h712v-720h-712zM232 184l126 129l126 -129l52 52l-127 130l127 130l-52 52l-126 -129l-126 129l-52 -52l126 -130l-126 -130z" />
    <glyph glyph-name="f_b" unicode="fb" horiz-adv-x="883" 
d="M387 0v673h-126q-49 0 -71 -24.5t-22 -77.5v-83h111v-55h-111v-433h-68v433h-97v55h97v86q0 158 155 158h200v-149q0 -134 -3 -182h3q45 98 172 98q93 0 153 -68t60 -183t-63 -187t-156 -72q-121 0 -166 98h-3v-87h-65zM455 244q0 -91 44.5 -143.5t112.5 -52.5t112.5 55
t44.5 145t-44.5 141t-112.5 51q-66 0 -110.5 -50.5t-46.5 -136.5v-9z" />
    <glyph glyph-name="f_f_b" unicode="ffb" horiz-adv-x="1170" 
d="M387 0v433h-219v-433h-68v433h-97v55h97v86q0 158 155 158h50v-59h-44q-49 0 -71 -24.5t-22 -77.5v-83h219v86q0 158 155 158h200v-149q0 -110 -3 -182h3q45 98 172 98q93 0 153 -68t60 -183t-63 -187t-156 -72q-121 0 -166 98h-3v-87h-65v673h-126q-49 0 -71 -24.5
t-22 -77.5v-83h129v-55h-129v-433h-68zM899 440q-66 0 -110.5 -50.5t-46.5 -136.5v-18q2 -87 46 -137t111 -50q68 0 112.5 55t44.5 145q0 89 -44.5 140.5t-112.5 51.5z" />
    <glyph glyph-name="f_f_h" unicode="ffh" horiz-adv-x="1152" 
d="M387 0v433h-219v-433h-68v433h-97v55h97v86q0 158 155 158h50v-59h-44q-49 0 -71 -24.5t-22 -77.5v-83h219v86q0 158 155 158h200v-146q0 -106 -3 -178h3q43 91 160 91q79 0 128 -48t49 -152v-299h-68v290q0 150 -123 150q-63 0 -104.5 -50t-41.5 -136v-254h-68v673h-126
q-49 0 -71 -24.5t-22 -77.5v-83h129v-55h-129v-433h-68z" />
    <glyph glyph-name="f_f_j" unicode="ffj" horiz-adv-x="822" 
d="M387 0v433h-219v-433h-68v433h-97v55h97v86q0 158 155 158h56v-59h-50q-49 0 -71 -24.5t-22 -77.5v-83h219v86q0 158 155 158h50v-59h-44q-49 0 -71 -24.5t-22 -77.5v-83h287v-584q0 -124 -125 -124h-30v59h24q33 0 48 18.5t15 58.5v517h-219v-433h-68zM671 636v96h74
v-96h-74z" />
    <glyph glyph-name="f_f_k" unicode="ffk" horiz-adv-x="1090" 
d="M387 0v433h-219v-433h-68v433h-97v55h97v86q0 158 155 158h50v-59h-44q-49 0 -71 -24.5t-22 -77.5v-83h219v86q0 158 155 158h200v-508l238 264h81l-182 -197l203 -291h-81l-168 241l-91 -99v-142h-68v673h-126q-49 0 -71 -24.5t-22 -77.5v-83h129v-55h-129v-433h-68z
" />
    <glyph glyph-name="f_f_t" unicode="fft" horiz-adv-x="890" 
d="M387 0v433h-219v-433h-68v433h-97v55h97v86q0 158 155 158h50v-59h-44q-49 0 -71 -24.5t-22 -77.5v-83h219v86q0 158 155 158h50v-59h-44q-49 0 -71 -24.5t-22 -77.5v-83h210v148h68v-148h133v-55h-133v-290q0 -45 19 -64.5t56 -19.5h58v-59h-64q-137 0 -137 140v293
h-210v-433h-68z" />
    <glyph glyph-name="f_h" unicode="fh" horiz-adv-x="865" 
d="M387 0v673h-126q-49 0 -71 -24.5t-22 -77.5v-83h111v-55h-111v-433h-68v433h-97v55h97v86q0 158 155 158h200v-147q0 -130 -3 -178h2q45 92 161 92q79 0 128 -48t49 -152v-299h-68v290q0 150 -123 150q-63 0 -104.5 -50t-41.5 -136v-254h-68z" />
    <glyph glyph-name="f_j" unicode="fj" horiz-adv-x="535" 
d="M300 -161h24q63 0 63 79v515h-219v-433h-68v433h-97v55h97v86q0 158 155 158h50v-59h-44q-49 0 -71 -24.5t-22 -77.5v-83h287v-582q0 -126 -125 -126h-30v59zM384 636v96h74v-96h-74z" />
    <glyph glyph-name="f_k" unicode="fk" horiz-adv-x="803" 
d="M387 0v673h-126q-49 0 -71 -24.5t-22 -77.5v-83h111v-55h-111v-433h-68v433h-97v55h97v86q0 158 155 158h200v-508l238 264h81l-182 -197l203 -291h-80l-169 241l-91 -99v-142h-68z" />
    <glyph glyph-name="f_t" unicode="ft" horiz-adv-x="603" 
d="M378 140v293h-210v-433h-68v433h-97v55h97v86q0 158 155 158h47v-59h-41q-49 0 -71 -24.5t-22 -77.5v-83h210v148h68v-148h133v-55h-133v-290q0 -45 19 -64.5t56 -19.5h58v-59h-64q-137 0 -137 140z" />
    <glyph glyph-name="fi" unicode="fi" horiz-adv-x="535" 
d="M387 0v433h-219v-433h-68v433h-97v55h97v86q0 158 155 158h50v-59h-44q-49 0 -71 -24.5t-22 -77.5v-83h287v-488h-68zM384 636v96h74v-96h-74z" />
    <glyph glyph-name="fl" unicode="fl" horiz-adv-x="535" 
d="M100 0v433h-97v55h97v86q0 158 155 158h200v-732h-68v673h-126q-49 0 -71 -24.5t-22 -77.5v-83h111v-55h-111v-433h-68z" />
    <glyph glyph-name="ff" unicode="ff" horiz-adv-x="583" 
d="M100 0v433h-97v55h97v86q0 158 155 158h50v-59h-44q-49 0 -71 -24.5t-22 -77.5v-83h219v86q0 158 155 158h53v-59h-47q-49 0 -71 -24.5t-22 -77.5v-83h124v-55h-124v-433h-68v433h-219v-433h-68z" />
    <glyph glyph-name="ffi" unicode="ffi" horiz-adv-x="822" 
d="M387 0v433h-219v-433h-68v433h-97v55h97v86q0 158 155 158h56v-59h-50q-49 0 -71 -24.5t-22 -77.5v-83h219v86q0 158 155 158h50v-59h-44q-49 0 -71 -24.5t-22 -77.5v-83h287v-488h-68v433h-219v-433h-68zM671 636v96h74v-96h-74z" />
    <glyph glyph-name="ffl" unicode="ffl" horiz-adv-x="819" 
d="M387 0v433h-219v-433h-68v433h-97v55h97v86q0 158 155 158h50v-59h-44q-49 0 -71 -24.5t-22 -77.5v-83h219v86q0 158 155 158h197v-732h-68v673h-123q-49 0 -71 -24.5t-22 -77.5v-83h129v-55h-129v-433h-68z" />
    <glyph glyph-name=".notdef" horiz-adv-x="712" 
d="M0 0v720h712v-720h-712zM232 184l126 129l126 -129l52 52l-127 130l127 130l-52 52l-126 -129l-126 129l-52 -52l126 -130l-126 -130z" />
    <glyph glyph-name=".null" horiz-adv-x="0" 
 />
    <glyph glyph-name="nonmarkingreturn" horiz-adv-x="333" 
 />
    <glyph glyph-name="space" unicode=" " horiz-adv-x="216" 
 />
    <glyph glyph-name="exclam" unicode="!" horiz-adv-x="256" 
d="M109 189l-21 315v184h80v-184l-21 -315h-38zM88 0v102h80v-102h-80z" />
    <glyph glyph-name="quotedbl" unicode="&#x22;" horiz-adv-x="384" 
d="M82 436l-12 165v87h68v-87l-12 -165h-44zM258 436l-12 165v87h68v-87l-12 -165h-44z" />
    <glyph glyph-name="numbersign" unicode="#" horiz-adv-x="606" 
d="M62 465v53h126l30 170h62l-30 -170h165l30 170h62l-30 -170h110v-53h-119l-42 -237h118v-53h-127l-30 -175h-62l30 175h-165l-30 -175h-62l30 175h-109v53h118l42 237h-117zM241 465l-42 -237h165l42 237h-165z" />
    <glyph glyph-name="dollar" unicode="$" horiz-adv-x="568" 
d="M46 188h68q4 -66 50 -104.5t116 -38.5q73 0 117 37t44 101q0 51 -31 78.5t-99 48.5l-98 29q-151 47 -151 177q0 74 50.5 123t132.5 58v107h68v-107q75 -9 126 -56.5t57 -120.5h-68q-7 60 -48 91.5t-101 31.5q-65 0 -105.5 -32t-40.5 -89q0 -52 29 -78t93 -46l97 -30
q83 -25 121.5 -68.5t38.5 -113.5q0 -82 -54.5 -134.5t-143.5 -60.5v-111h-68v111q-87 8 -141.5 60.5t-58.5 136.5z" />
    <glyph glyph-name="percent" unicode="%" horiz-adv-x="764" 
d="M176 336q-71 0 -107.5 50t-36.5 130t36.5 130t107.5 50q72 0 108 -50t36 -130t-36 -130t-108 -50zM176 383q41 0 63 35t22 98t-21.5 98t-63.5 35q-41 0 -63 -35t-22 -98q0 -62 22 -97.5t63 -35.5zM181 -12l349 712h53l-349 -712h-53zM588 -8q-71 0 -107.5 50t-36.5 130
t36.5 130t107.5 50t107.5 -50t36.5 -130t-36.5 -130t-107.5 -50zM588 39q41 0 63 35t22 98t-21.5 98t-63.5 35q-41 0 -63 -35t-22 -98q0 -62 22 -97.5t63 -35.5z" />
    <glyph glyph-name="ampersand" unicode="&#x26;" horiz-adv-x="696" 
d="M52 176q0 73 44 118.5t122 82.5q-50 51 -70.5 86t-20.5 77q0 66 50 112.5t132 46.5t131 -42.5t49 -109.5q0 -35 -13.5 -63.5t-41.5 -50.5t-53 -35.5t-66 -32.5l197 -199q38 72 38 167v11h62v-20q0 -110 -56 -202l121 -122h-81l-76 75q-81 -86 -222 -86q-116 0 -181 50.5
t-65 136.5zM298 45q116 0 181 72l-222 221q-65 -31 -101 -66.5t-36 -89.5q0 -64 48.5 -100.5t129.5 -36.5zM189 543q0 -32 20 -61.5t67 -77.5q73 33 110.5 64t37.5 79q0 42 -30.5 70.5t-84.5 28.5q-56 0 -88 -29.5t-32 -73.5z" />
    <glyph glyph-name="quotesingle" unicode="'" horiz-adv-x="208" 
d="M82 436l-12 165v87h68v-87l-12 -165h-44z" />
    <glyph glyph-name="parenleft" unicode="(" horiz-adv-x="275" 
d="M31 260q0 144 49.5 270t114.5 214h62q-58 -77 -109.5 -209.5t-51.5 -274.5q0 -141 52 -274.5t109 -213.5h-62q-65 87 -114.5 215.5t-49.5 272.5z" />
    <glyph glyph-name="parenright" unicode=")" horiz-adv-x="275" 
d="M18 -228q57 80 109 213.5t52 274.5q0 142 -51.5 274.5t-109.5 209.5h62q65 -88 114.5 -214t49.5 -270t-49.5 -272.5t-114.5 -215.5h-62z" />
    <glyph glyph-name="asterisk" unicode="*" horiz-adv-x="450" 
d="M197 696h56l-13 -141l129 57l17 -53l-137 -32l92 -104l-45 -32l-72 120l-71 -120l-44 32l91 105l-136 31l17 53l128 -55z" />
    <glyph glyph-name="plus" unicode="+" horiz-adv-x="568" 
d="M57 224v59h196v197h62v-197h196v-59h-196v-196h-62v196h-196z" />
    <glyph glyph-name="comma" unicode="," horiz-adv-x="244" 
d="M115 0h-36v112h86v-106l-42 -162h-40z" />
    <glyph glyph-name="hyphen" unicode="-" horiz-adv-x="396" 
d="M60 221v62h276v-62h-276z" />
    <glyph glyph-name="period" unicode="." horiz-adv-x="244" 
d="M79 0v112h86v-112h-86z" />
    <glyph glyph-name="slash" unicode="/" horiz-adv-x="401" 
d="M17 -12l308 712h59l-308 -712h-59z" />
    <glyph glyph-name="zero" unicode="0" horiz-adv-x="568" 
d="M284 -11q-120 0 -178.5 97.5t-58.5 257.5t58.5 257.5t178.5 97.5t178.5 -97.5t58.5 -257.5t-58.5 -257.5t-178.5 -97.5zM284 51q83 0 124.5 77t41.5 216t-41.5 216t-124.5 77q-84 0 -125 -77t-41 -216t41.5 -216t124.5 -77z" />
    <glyph glyph-name="one" unicode="1" horiz-adv-x="568" 
d="M96 484l-30 52l220 152h52v-629h175v-59h-429v59h186v545z" />
    <glyph glyph-name="two" unicode="2" horiz-adv-x="568" 
d="M61 0q2 75 22.5 128.5t53.5 88t90 72.5l76 50q73 47 92 68q39 40 39 99q0 56 -38 95t-106 39q-70 0 -111.5 -38.5t-46.5 -116.5h-62q3 58 22 101t51 67t68.5 35t78.5 11q93 0 152.5 -52t59.5 -141q0 -18 -3 -34t-6 -28.5t-11.5 -26.5t-13 -22.5t-17.5 -20.5t-18 -17.5
t-21.5 -17t-20.5 -14.5t-23 -15l-22 -14l-76 -50q-74 -49 -101.5 -90.5t-30.5 -96.5h371v-59h-448z" />
    <glyph glyph-name="three" unicode="3" horiz-adv-x="568" 
d="M51 205h65q0 -77 45 -117t119 -40t120 37.5t46 102.5q0 62 -48 101t-118 39h-52v59h52q60 0 100.5 35.5t40.5 93.5t-40.5 91t-100.5 33q-62 0 -101.5 -35t-39.5 -103h-62q0 91 56.5 144t146.5 53q92 0 149 -50t57 -132q0 -53 -33 -97.5t-80 -58.5v-4q61 -14 101 -61.5
t40 -112.5q0 -89 -66.5 -141.5t-167.5 -52.5q-105 0 -167 55t-62 161z" />
    <glyph glyph-name="four" unicode="4" horiz-adv-x="568" 
d="M34 182v49l338 458h55v-448h105v-59h-105v-182h-68v182h-325zM105 241h254v341z" />
    <glyph glyph-name="five" unicode="5" horiz-adv-x="568" 
d="M54 180h68q8 -55 49 -93.5t114 -38.5q69 0 116.5 44.5t47.5 121.5q0 76 -45.5 121.5t-117.5 45.5q-87 0 -147 -81l-63 3l20 385h381v-62h-319l-14 -248h3q50 62 148 62q96 0 159 -60.5t63 -159.5q0 -109 -67.5 -170t-164.5 -61q-101 0 -161.5 52.5t-69.5 138.5z" />
    <glyph glyph-name="six" unicode="6" horiz-adv-x="568" 
d="M53 328q0 99 21 173t57.5 116t80.5 62t95 20q93 0 145 -49.5t61 -133.5h-68q-7 57 -41 90.5t-97 33.5q-79 0 -131 -75t-52 -237v-1q19 51 72.5 82t116.5 31q97 0 156.5 -61.5t59.5 -161.5q0 -104 -67 -166t-162 -62q-111 0 -179 81t-68 258zM137 209q0 -69 46 -115
t114 -46q71 0 117.5 45t46.5 124q0 72 -45 118t-112 46q-73 0 -120 -47.5t-47 -124.5z" />
    <glyph glyph-name="seven" unicode="7" horiz-adv-x="568" 
d="M158 0l289 626h-392v62h466v-49l-292 -639h-71z" />
    <glyph glyph-name="eight" unicode="8" horiz-adv-x="568" 
d="M47 183q0 64 40.5 112t100.5 62v4q-48 14 -80.5 58t-32.5 98q0 82 58 132t151 50t151 -50t58 -132q0 -54 -32.5 -98t-80.5 -58v-4q60 -14 100.5 -62t40.5 -112q0 -90 -65.5 -142t-171.5 -52t-171.5 52t-65.5 142zM115 188q0 -65 47 -102.5t122 -37.5t122 37.5t47 102.5
q0 62 -48.5 101t-120.5 39t-120.5 -39t-48.5 -101zM284 387q62 0 103 35.5t41 93.5t-41 92.5t-103 34.5t-103 -34.5t-41 -92.5t41 -93.5t103 -35.5z" />
    <glyph glyph-name="nine" unicode="9" horiz-adv-x="568" 
d="M515 360q0 -195 -66.5 -283t-180.5 -88q-95 0 -148 49.5t-65 133.5h68q10 -55 45 -89.5t100 -34.5q176 0 176 312v1q-20 -51 -73 -82t-116 -31q-97 0 -156.5 61.5t-59.5 161.5q0 104 67 166t162 62q111 0 179 -81t68 -258zM431 479q0 64 -45.5 112.5t-114.5 48.5
t-116.5 -45.5t-47.5 -123.5q0 -72 45 -118t112 -46q73 0 120 47.5t47 124.5z" />
    <glyph glyph-name="colon" unicode=":" horiz-adv-x="244" 
d="M79 376v112h86v-112h-86zM79 0v112h86v-112h-86z" />
    <glyph glyph-name="semicolon" unicode=";" horiz-adv-x="244" 
d="M79 376v112h86v-112h-86zM115 0h-36v112h86v-106l-42 -162h-40z" />
    <glyph glyph-name="less" unicode="&#x3c;" horiz-adv-x="568" 
d="M73 225v59l422 180v-62l-353 -146l353 -146v-65z" />
    <glyph glyph-name="equal" unicode="=" horiz-adv-x="568" 
d="M57 329v59h454v-59h-454zM57 120v59h454v-59h-454z" />
    <glyph glyph-name="greater" unicode="&#x3e;" horiz-adv-x="568" 
d="M495 284v-59l-422 -180v62l355 146l-355 146v65z" />
    <glyph glyph-name="question" unicode="?" horiz-adv-x="485" 
d="M205 196v28q0 51 18 88.5t43.5 59.5t50.5 41.5t43 46.5t18 62q0 52 -36 85t-92 33q-69 0 -106.5 -43t-37.5 -113h-68q0 94 55.5 154.5t156.5 60.5q88 0 143.5 -47t55.5 -127q0 -45 -18 -79t-44 -55.5l-52 -41.5t-44 -49t-18 -67v-37h-68zM199 0v102h79v-102h-79z" />
    <glyph glyph-name="at" unicode="@" horiz-adv-x="1032" 
d="M305 126q0 118 155 144l106 17q38 6 51.5 14t13.5 26q0 116 -116 116q-57 0 -89.5 -27.5t-36.5 -79.5h-65q4 73 54.5 118t133.5 45q92 0 139.5 -46.5t47.5 -134.5v-167q0 -112 89 -112q56 0 94.5 59t38.5 174q0 172 -113.5 274.5t-287.5 102.5q-181 0 -295 -117.5
t-114 -298.5q0 -179 111 -295t285 -116q149 0 231 87h77q-107 -137 -308 -137q-198 0 -326.5 131t-128.5 330q0 201 131 333.5t337 132.5q199 0 329.5 -117.5t130.5 -309.5q0 -140 -57 -210t-141 -70q-112 0 -138 91q-48 -94 -179 -94q-75 0 -117.5 37.5t-42.5 99.5z
M631 200v62q-16 -19 -56 -25l-106 -17q-96 -16 -96 -91q0 -40 27.5 -63.5t76.5 -23.5q64 0 109 42.5t45 115.5z" />
    <glyph glyph-name="A" unicode="A" horiz-adv-x="631" 
d="M15 0l259 688h83l259 -688h-74l-73 198h-310l-73 -198h-71zM316 614h-4l-131 -355h265z" />
    <glyph glyph-name="B" unicode="B" horiz-adv-x="655" 
d="M88 0v688h276q107 0 160 -45t53 -129q0 -54 -30 -94t-87 -56v-3q67 -10 105.5 -54t38.5 -106q0 -90 -58 -145.5t-165 -55.5h-293zM381 327h-222v-265h222q75 0 113.5 37.5t38.5 100.5q0 57 -39 92t-113 35zM364 626h-205v-237h207q66 0 103 35.5t37 90.5q0 111 -142 111z
" />
    <glyph glyph-name="C" unicode="C" horiz-adv-x="708" 
d="M47 344q0 153 91 254t236 101q115 0 190.5 -60.5t98.5 -162.5h-73q-44 158 -216 158q-113 0 -183 -82t-70 -208q0 -124 69.5 -207t180.5 -83q173 0 219 158h73q-24 -102 -100 -162.5t-192 -60.5q-144 0 -234 100.5t-90 254.5z" />
    <glyph glyph-name="D" unicode="D" horiz-adv-x="696" 
d="M91 0v688h197q174 0 267.5 -94t93.5 -250t-93.5 -250t-267.5 -94h-197zM288 626h-126v-564h126q145 0 216 78.5t71 203.5t-71 203.5t-216 78.5z" />
    <glyph glyph-name="E" unicode="E" horiz-adv-x="606" 
d="M91 0v688h456v-62h-385v-244h309v-62h-309v-258h393v-62h-464z" />
    <glyph glyph-name="F" unicode="F" horiz-adv-x="570" 
d="M91 0v688h448v-62h-377v-269h301v-61h-301v-296h-71z" />
    <glyph glyph-name="G" unicode="G" horiz-adv-x="755" 
d="M629 0l-12 118h-1q-70 -129 -239 -129q-145 0 -237.5 101.5t-92.5 253.5q0 155 93.5 255t241.5 100q117 0 194 -59.5t99 -153.5h-74q-18 65 -74 106.5t-145 41.5q-117 0 -189 -81.5t-72 -208.5q0 -124 71.5 -207t184.5 -83q98 0 166 55t68 155v34h-230v62h295v-360h-47z
" />
    <glyph glyph-name="H" unicode="H" horiz-adv-x="716" 
d="M91 0v688h71v-308h392v308h71v-688h-71v318h-392v-318h-71z" />
    <glyph glyph-name="I" unicode="I" horiz-adv-x="253" 
d="M91 0v688h71v-688h-71z" />
    <glyph glyph-name="J" unicode="J" horiz-adv-x="513" 
d="M45 193v35h71v-29q0 -148 124 -148q55 0 89 36t34 112v489h71v-495q0 -105 -52.5 -154.5t-141.5 -49.5q-90 0 -142.5 49.5t-52.5 154.5z" />
    <glyph glyph-name="K" unicode="K" horiz-adv-x="646" 
d="M91 0v688h71v-401l370 401h84l-280 -298l294 -390h-80l-261 340l-127 -136v-204h-71z" />
    <glyph glyph-name="L" unicode="L" horiz-adv-x="541" 
d="M91 0v688h71v-626h351v-62h-422z" />
    <glyph glyph-name="M" unicode="M" horiz-adv-x="887" 
d="M91 0v688h86l267 -592h2l264 592h86v-688h-71l6 576h-3l-257 -576h-55l-257 567h-3l6 -567h-71z" />
    <glyph glyph-name="N" unicode="N" horiz-adv-x="723" 
d="M91 0v688h68l402 -568h3l-3 568h71v-688h-68l-402 565h-3l3 -565h-71z" />
    <glyph glyph-name="O" unicode="O" horiz-adv-x="754" 
d="M47 344q0 154 92 254.5t238 100.5q144 0 237 -100.5t93 -254.5t-93 -254.5t-237 -100.5q-146 0 -238 100.5t-92 254.5zM121 344q0 -126 71 -208t185 -82q113 0 184.5 82t71.5 208t-71.5 208t-184.5 82q-114 0 -185 -82t-71 -208z" />
    <glyph glyph-name="P" unicode="P" horiz-adv-x="626" 
d="M91 0v688h255q111 0 173 -59.5t62 -156.5q0 -98 -62.5 -160t-172.5 -62h-184v-250h-71zM349 626h-187v-314h187q77 0 119 45t42 115q0 69 -41.5 111.5t-119.5 42.5z" />
    <glyph glyph-name="Q" unicode="Q" horiz-adv-x="757" 
d="M47 344q0 154 92 254.5t238 100.5q144 0 237 -100.5t93 -254.5q0 -171 -112 -273l134 -138l-49 -49l-140 147q-73 -42 -163 -42q-146 0 -238 100.5t-92 254.5zM121 344q0 -126 71 -208t185 -82q113 0 184.5 82t71.5 208t-71.5 208t-184.5 82q-114 0 -185 -82t-71 -208z
" />
    <glyph glyph-name="R" unicode="R" horiz-adv-x="645" 
d="M91 0v688h258q112 0 171.5 -51.5t59.5 -146.5q0 -80 -42 -133.5t-120 -69.5l182 -287h-77l-181 281h-180v-281h-71zM352 626h-190v-283h190q76 0 116.5 40.5t40.5 106.5q0 64 -40.5 100t-116.5 36z" />
    <glyph glyph-name="S" unicode="S" horiz-adv-x="638" 
d="M59 192h71q0 -66 50.5 -105t136.5 -39q89 0 138 37.5t49 103.5q0 41 -24 67.5t-62.5 39t-85 20.5t-92.5 19t-84.5 28t-62.5 53t-24 90q0 85 68 139t178 54t177.5 -50.5t67.5 -139.5h-71q0 62 -48.5 96.5t-125.5 34.5q-76 0 -125 -34.5t-49 -93.5q0 -46 32.5 -74t81 -37
t105 -21t105 -27t81 -56t32.5 -105q0 -92 -69.5 -147.5t-191.5 -55.5q-121 0 -189.5 54t-68.5 149z" />
    <glyph glyph-name="T" unicode="T" horiz-adv-x="579" 
d="M8 628v60h563v-60h-246v-628h-71v628h-246z" />
    <glyph glyph-name="U" unicode="U" horiz-adv-x="688" 
d="M76 271v417h71v-417q0 -106 50 -161.5t147 -55.5q96 0 146.5 55.5t50.5 161.5v417h71v-417q0 -144 -71.5 -213t-196.5 -69t-196.5 69t-71.5 213z" />
    <glyph glyph-name="V" unicode="V" horiz-adv-x="609" 
d="M264 0l-254 688h74l220 -614h4l220 614h71l-256 -688h-79z" />
    <glyph glyph-name="W" unicode="W" horiz-adv-x="918" 
d="M199 0l-186 688h74l156 -614h4l172 614h86l172 -614h3l154 614h71l-183 -688h-89l-171 606h-3l-171 -606h-89z" />
    <glyph glyph-name="X" unicode="X" horiz-adv-x="585" 
d="M11 0l240 351l-232 337h80l192 -281l190 281h77l-228 -334l244 -354h-80l-204 297l-202 -297h-77z" />
    <glyph glyph-name="Y" unicode="Y" horiz-adv-x="594" 
d="M260 0v274l-247 414h80l202 -341h3l209 341h74l-250 -409v-279h-71z" />
    <glyph glyph-name="Z" unicode="Z" horiz-adv-x="575" 
d="M57 628v60h481v-46l-413 -582h409v-60h-497v46l413 582h-393z" />
    <glyph glyph-name="bracketleft" unicode="[" horiz-adv-x="318" 
d="M153 -172h147v-56h-209v972h209v-56h-147v-860z" />
    <glyph glyph-name="backslash" unicode="\" horiz-adv-x="401" 
d="M325 -12l-308 712h59l308 -712h-59z" />
    <glyph glyph-name="bracketright" unicode="]" horiz-adv-x="318" 
d="M18 -172h147v860h-147v56h209v-972h-209v56z" />
    <glyph glyph-name="asciicircum" unicode="^" horiz-adv-x="568" 
d="M60 352l191 336h68l191 -336h-71l-156 282l-155 -282h-68z" />
    <glyph glyph-name="underscore" unicode="_" horiz-adv-x="500" 
d="M0 -72h500v-53h-500v53z" />
    <glyph glyph-name="grave" unicode="`" horiz-adv-x="550" 
d="M251 568l-137 164h81l106 -164h-50z" />
    <glyph glyph-name="a" unicode="a" horiz-adv-x="517" 
d="M50 123q0 61 37.5 96.5t117.5 48.5l105 18q38 6 52 14.5t14 26.5q-3 116 -116 116q-57 0 -89.5 -28t-36.5 -79h-65q4 73 55 118t136 45q89 0 136.5 -46.5t47.5 -131.5v-321h-65v78h-3q-44 -89 -166 -89q-75 0 -117.5 36.5t-42.5 97.5zM376 207v55q-16 -19 -56 -25
l-103 -17q-99 -16 -99 -91q0 -39 26.5 -61.5t76.5 -22.5q67 0 111 41.5t44 120.5z" />
    <glyph glyph-name="b" unicode="b" horiz-adv-x="576" 
d="M80 0v732h68v-149q0 -110 -3 -182h3q45 98 172 98q93 0 153 -68t60 -183t-63 -187t-156 -72q-121 0 -166 98h-3v-87h-65zM148 244q0 -91 44.5 -143.5t112.5 -52.5t112.5 55t44.5 145q0 89 -44.5 140.5t-112.5 51.5q-66 0 -110.5 -50.5t-46.5 -136.5v-9z" />
    <glyph glyph-name="c" unicode="c" horiz-adv-x="511" 
d="M43 244q0 114 64 184.5t162 70.5q85 0 139 -47t66 -125h-68q-10 52 -45 82.5t-92 30.5q-66 0 -110.5 -54.5t-44.5 -141.5t44 -141.5t111 -54.5q57 0 92 30.5t45 82.5h68q-12 -78 -66 -125t-139 -47q-103 0 -164.5 69.5t-61.5 185.5z" />
    <glyph glyph-name="d" unicode="d" horiz-adv-x="576" 
d="M43 240q0 115 63 187t156 72q120 0 166 -98h3q-3 48 -3 182v149h68v-732h-65v88h-3q-45 -99 -172 -99q-93 0 -153 68t-60 183zM114 240q0 -90 44.5 -141t112.5 -51q66 0 110 50t47 137v18q-3 87 -47 137t-110 50q-68 0 -112.5 -55t-44.5 -145z" />
    <glyph glyph-name="e" unicode="e" horiz-adv-x="519" 
d="M43 244q0 112 64.5 183.5t160.5 71.5q93 0 151.5 -62t58.5 -170v-28h-364q2 -86 44.5 -138.5t113.5 -52.5q56 0 91 28t43 72h68q-10 -68 -66 -113.5t-136 -45.5q-109 0 -169 69t-60 186zM268 440q-57 0 -98.5 -40.5t-52.5 -109.5h292q-5 75 -42 112.5t-99 37.5z" />
    <glyph glyph-name="f" unicode="f" horiz-adv-x="296" 
d="M100 0v433h-97v55h97v86q0 158 155 158h53v-59h-47q-49 0 -71 -24.5t-22 -77.5v-83h124v-55h-124v-433h-68z" />
    <glyph glyph-name="g" unicode="g" horiz-adv-x="576" 
d="M55 -60h65q0 -52 40 -82t105 -30q166 0 166 193v66h-3q-47 -98 -172 -98q-93 0 -153 68t-60 183t63 187t156 72q120 0 166 -98h3v87h65v-467q0 -129 -63.5 -189t-167.5 -60q-93 0 -151.5 44.5t-58.5 123.5zM114 240q0 -90 44.5 -141t112.5 -51q66 0 110 50t47 137v18
q-3 87 -47 137t-110 50q-68 0 -112.5 -55t-44.5 -145z" />
    <glyph glyph-name="h" unicode="h" horiz-adv-x="558" 
d="M80 0v732h68v-146q0 -106 -3 -178h3q43 91 160 91q79 0 128 -48t49 -152v-299h-68v290q0 150 -123 150q-63 0 -104.5 -49t-41.5 -135v-256h-68z" />
    <glyph glyph-name="i" unicode="i" horiz-adv-x="228" 
d="M77 636v96h74v-96h-74zM80 0v488h68v-488h-68z" />
    <glyph glyph-name="j" unicode="j" horiz-adv-x="228" 
d="M77 636v96h74v-96h-74zM80 -84v572h68v-584q0 -124 -125 -124h-30v59h24q33 0 48 18.5t15 58.5z" />
    <glyph glyph-name="k" unicode="k" horiz-adv-x="496" 
d="M80 0v732h68v-508l238 264h81l-182 -197l203 -291h-81l-168 241l-91 -99v-142h-68z" />
    <glyph glyph-name="l" unicode="l" horiz-adv-x="228" 
d="M80 0v732h68v-732h-68z" />
    <glyph glyph-name="m" unicode="m" horiz-adv-x="863" 
d="M80 0v488h65v-80h3q21 44 62.5 67.5t92.5 23.5q116 0 153 -104q46 104 168 104q74 0 120 -47t46 -147v-305h-68v296q0 144 -112 144q-59 0 -100 -49.5t-41 -137.5v-253h-68v296q0 144 -112 144q-59 0 -100 -49.5t-41 -136.5v-254h-68z" />
    <glyph glyph-name="n" unicode="n" horiz-adv-x="558" 
d="M80 0v488h65v-80h3q43 91 160 91q79 0 128 -48t49 -152v-299h-68v290q0 150 -123 150q-63 0 -104.5 -49.5t-41.5 -136.5v-254h-68z" />
    <glyph glyph-name="o" unicode="o" horiz-adv-x="550" 
d="M43 244q0 114 65.5 184.5t166.5 70.5q106 0 169 -69.5t63 -185.5q0 -114 -65.5 -184.5t-166.5 -70.5q-106 0 -169 69.5t-63 185.5zM114 244q0 -88 45 -142t116 -54q70 0 115.5 54.5t45.5 141.5q0 89 -44.5 142.5t-116.5 53.5q-70 0 -115.5 -54.5t-45.5 -141.5z" />
    <glyph glyph-name="p" unicode="p" horiz-adv-x="576" 
d="M148 -95v-125h-68v708h65v-87h3q45 98 172 98q93 0 153 -68t60 -183t-63 -187t-156 -72q-121 0 -166 98h-3q3 -72 3 -182zM462 248q0 89 -44.5 140.5t-112.5 51.5q-66 0 -110.5 -50.5t-46.5 -136.5v-9q0 -91 44.5 -143.5t112.5 -52.5t112.5 55t44.5 145z" />
    <glyph glyph-name="q" unicode="q" horiz-adv-x="573" 
d="M428 -95q0 134 3 182h-3q-47 -98 -172 -98q-93 0 -153 68t-60 183t63 187t156 72q120 0 166 -98h3v87h65v-708h-68v125zM114 240q0 -90 44.5 -141t112.5 -51t112.5 52.5t44.5 143.5v9q-3 87 -47 137t-110 50q-68 0 -112.5 -55t-44.5 -145z" />
    <glyph glyph-name="r" unicode="r" horiz-adv-x="350" 
d="M80 0v488h65v-80h3q18 42 52 66.5t79 24.5q41 0 69 -20l-22 -61q-29 16 -61 16q-56 0 -86.5 -51t-30.5 -125v-258h-68z" />
    <glyph glyph-name="s" unicode="s" horiz-adv-x="481" 
d="M40 138h65q0 -47 38 -71.5t92 -24.5q63 0 97.5 24t34.5 68q0 34 -21 51t-66 25l-92 16q-137 22 -137 127q0 67 53 106.5t134 39.5q80 0 133 -36t53 -108h-65q0 44 -34 67.5t-87 23.5t-87 -23t-34 -64q0 -33 22.5 -50t69.5 -25l92 -16q65 -12 99.5 -40.5t34.5 -87.5
q0 -73 -55 -112t-145 -39q-87 0 -141 38.5t-54 110.5z" />
    <glyph glyph-name="t" unicode="t" horiz-adv-x="317" 
d="M92 140v293h-96v55h96v148h68v-148h133v-55h-133v-290q0 -46 18.5 -65t59.5 -19h55v-59h-64q-137 0 -137 140z" />
    <glyph glyph-name="u" unicode="u" horiz-adv-x="553" 
d="M72 189v299h68v-290q0 -150 122 -150q63 0 103 49t40 138v253h68v-488h-65v80h-3q-44 -91 -157 -91q-79 0 -127.5 48t-48.5 152z" />
    <glyph glyph-name="v" unicode="v" horiz-adv-x="460" 
d="M195 0l-187 488h74l150 -414h3l149 414h68l-183 -488h-74z" />
    <glyph glyph-name="w" unicode="w" horiz-adv-x="711" 
d="M153 0l-145 488h71l113 -417h4l121 417h80l121 -417h4l113 417h68l-145 -488h-82l-119 420h-3l-119 -420h-82z" />
    <glyph glyph-name="x" unicode="x" horiz-adv-x="449" 
d="M14 0l173 245l-170 243h80l131 -191l130 191h74l-171 -242l174 -246h-81l-133 195l-132 -195h-75z" />
    <glyph glyph-name="y" unicode="y" horiz-adv-x="460" 
d="M33 -169h27q84 0 122 105l18 49l-192 503h74l150 -414h3l149 414h68l-214 -571q-54 -144 -166 -144h-39v58z" />
    <glyph glyph-name="z" unicode="z" horiz-adv-x="433" 
d="M31 433v55h367v-46l-277 -387h281v-55h-367v40l281 393h-285z" />
    <glyph glyph-name="braceleft" unicode="{" horiz-adv-x="358" 
d="M142 -78v188q0 70 -23 97t-88 31v47q65 4 88 31.5t23 96.5v181q0 74 35 112t114 38h49v-53h-46q-48 0 -69 -22.5t-21 -71.5v-202q0 -55 -23.5 -86t-76.5 -46v-3q53 -15 76.5 -46t23.5 -86v-209q0 -49 21 -71.5t69 -22.5h46v-53h-49q-79 0 -114 38t-35 112z" />
    <glyph glyph-name="bar" unicode="|" horiz-adv-x="256" 
d="M97 -240v1000h62v-1000h-62z" />
    <glyph glyph-name="braceright" unicode="}" horiz-adv-x="358" 
d="M18 -175h46q48 0 69 22.5t21 71.5v209q0 55 23.5 86t77.5 46v3q-54 15 -77.5 46t-23.5 86v202q0 49 -21 71.5t-69 22.5h-46v53h49q79 0 114 -38t35 -112v-181q0 -69 23 -96.5t88 -31.5v-47q-65 -4 -88 -31t-23 -97v-188q0 -74 -35 -112t-114 -38h-49v53z" />
    <glyph glyph-name="asciitilde" unicode="~" horiz-adv-x="568" 
d="M63 186q0 70 33.5 106.5t85.5 36.5q48 0 111 -41t93 -41q60 0 60 84h59q0 -69 -33 -106t-83 -37q-38 0 -76 21t-71.5 42.5t-59.5 21.5q-60 0 -60 -87h-59z" />
    <glyph glyph-name="exclamdown" unicode="&#xa1;" horiz-adv-x="256" 
d="M88 386v102h80v-102h-80zM88 -16l21 315h38l21 -315v-184h-80v184z" />
    <glyph glyph-name="cent" unicode="&#xa2;" horiz-adv-x="568" 
d="M262 -11v106q-93 11 -147.5 79t-54.5 174q0 104 58 172.5t147 80.5v98h68v-98q74 -10 121 -55.5t57 -114.5h-68q-9 51 -47 82t-100 31q-71 0 -118 -54.5t-47 -141.5t47 -141.5t118 -54.5q62 0 100 31t47 82h68q-10 -70 -57.5 -115.5t-123.5 -54.5v-106h-68z" />
    <glyph glyph-name="sterling" unicode="&#xa3;" horiz-adv-x="568" 
d="M64 333v48h90q-33 84 -33 143q0 80 50 127.5t133 47.5q81 0 127.5 -45.5t51.5 -129.5h-68q-9 119 -114 119q-50 0 -81 -30.5t-31 -82.5q0 -51 39 -149h170v-48h-152q20 -62 20 -107q0 -54 -13 -100l24.5 -18t26.5 -19l23.5 -15t27 -14.5t23.5 -7.5t27 -4q40 0 58.5 29.5
t21.5 86.5h59q-13 -175 -142 -175q-29 0 -62 15.5t-50 28.5l-55 43q-43 -87 -127 -87q-47 0 -74 26t-27 65q0 47 31 75.5t80 28.5q38 0 80 -22q3 21 3 40q0 53 -29 131h-108zM109 30q56 0 80 80q-43 30 -77 30q-24 0 -41 -16t-17 -40q0 -23 15 -38.5t40 -15.5z" />
    <glyph glyph-name="currency" unicode="&#xa4;" horiz-adv-x="568" 
d="M127 152l-35 34l59 60q-33 47 -33 98q0 52 34 99l-59 61l34 34l60 -61q40 31 97 31q54 0 96 -31l60 61l35 -34l-60 -60q35 -47 35 -100q0 -50 -34 -98l59 -60l-34 -34l-59 59q-40 -31 -98 -31t-99 32zM284 230q48 0 79 31.5t31 82.5t-31 82.5t-79 31.5t-79 -31.5
t-31 -82.5t31 -82.5t79 -31.5z" />
    <glyph glyph-name="yen" unicode="&#xa5;" horiz-adv-x="568" 
d="M91 257v44h159v3l-230 384h77l188 -320h4l188 320h71l-230 -386v-1h159v-44h-159v-88h159v-44h-159v-125h-68v125h-159v44h159v88h-159z" />
    <glyph glyph-name="brokenbar" unicode="&#xa6;" horiz-adv-x="256" 
d="M97 336v352h62v-352h-62zM97 -164v352h62v-352h-62z" />
    <glyph glyph-name="section" unicode="&#xa7;" horiz-adv-x="560" 
d="M68 -72h65q4 -51 42.5 -77t98.5 -26q63 0 100 29t37 78q0 44 -26 66.5t-79 38.5l-92 28q-80 24 -116.5 64t-36.5 106q0 55 33.5 96.5t90.5 59.5q-104 43 -104 143q0 75 57.5 120.5t147.5 45.5q89 0 145 -39t61 -117h-65q-4 51 -42.5 77t-98.5 26q-63 0 -100 -29t-37 -78
q0 -44 26 -66.5t79 -38.5l92 -28q80 -24 116.5 -64t36.5 -106q0 -55 -33.5 -96.5t-90.5 -59.5q104 -43 104 -143q0 -75 -57.5 -120.5t-147.5 -45.5q-89 0 -145 39t-61 117zM319 349l-67 20q-59 -11 -92.5 -45t-33.5 -80q0 -50 27.5 -76t87.5 -44l63 -19q61 10 95.5 43
t34.5 80q0 50 -27 75.5t-88 45.5z" />
    <glyph glyph-name="dieresis" unicode="&#xa8;" horiz-adv-x="550" 
d="M340 605v90h68v-90h-68zM143 605v90h68v-90h-68z" />
    <glyph glyph-name="copyright" unicode="&#xa9;" horiz-adv-x="776" 
d="M38 348q0 151 99 251t251 100q149 0 249.5 -100.5t100.5 -250.5q0 -151 -99.5 -255t-250.5 -104t-250.5 104t-99.5 255zM94 348q0 -131 83 -221.5t211 -90.5q127 0 210.5 91t83.5 221q0 129 -82.5 215t-211.5 86t-211.5 -85.5t-82.5 -215.5zM219 348q0 75 46.5 125.5
t122.5 50.5q60 0 99 -31.5t50 -83.5h-55q-19 68 -94 68q-50 0 -81.5 -37.5t-31.5 -91.5t31.5 -91.5t81.5 -37.5q75 0 94 68h55q-11 -52 -50 -83.5t-99 -31.5q-76 0 -122.5 50.5t-46.5 125.5z" />
    <glyph glyph-name="ordfeminine" unicode="&#xaa;" horiz-adv-x="380" 
d="M150 336q-53 0 -83 26.5t-30 70.5q0 87 111 102l76 10q25 3 34.5 9t9.5 21q0 34 -20 54.5t-56 20.5q-35 0 -57 -18t-25 -53h-58q4 59 43 88t97 29q64 0 101 -31.5t37 -91.5v-229h-60v52h-2q-33 -60 -118 -60zM268 486v35q-10 -13 -36 -16l-69 -9q-64 -9 -64 -59
q0 -26 18 -41t49 -15q43 0 72.5 26.5t29.5 78.5z" />
    <glyph glyph-name="guillemotleft" unicode="&#xab;" horiz-adv-x="505" 
d="M249 252l145 204h56l-124 -204l124 -204h-56zM200 48l-145 204l145 204h56l-124 -204l124 -204h-56z" />
    <glyph glyph-name="logicalnot" unicode="&#xac;" horiz-adv-x="568" 
d="M57 224v59h454v-255h-62v196h-392z" />
    <glyph glyph-name="uni00AD" unicode="&#xad;" horiz-adv-x="396" 
d="M60 221v62h276v-62h-276z" />
    <glyph glyph-name="registered" unicode="&#xae;" horiz-adv-x="776" 
d="M38 348q0 151 99 251t251 100q149 0 249.5 -100.5t100.5 -250.5q0 -151 -99.5 -255t-250.5 -104t-250.5 104t-99.5 255zM94 348q0 -131 83 -221.5t211 -90.5q127 0 210.5 91t83.5 221q0 129 -82.5 215t-211.5 86t-211.5 -85.5t-82.5 -215.5zM253 176v344h157q59 0 91 -28
t32 -77q0 -37 -22 -64.5t-59 -38.5l90 -136h-61l-83 130h-89v-130h-56zM408 473h-99v-119h99q34 0 51.5 16.5t17.5 44.5q0 27 -18 42.5t-51 15.5z" />
    <glyph glyph-name="macron" unicode="&#xaf;" horiz-adv-x="550" 
d="M136 623v53h276v-53h-276z" />
    <glyph glyph-name="degree" unicode="&#xb0;" horiz-adv-x="356" 
d="M178 428q-59 0 -98.5 38.5t-39.5 96.5q0 59 39.5 97.5t98.5 38.5t98.5 -38.5t39.5 -97.5q0 -58 -39.5 -96.5t-98.5 -38.5zM178 649q-36 0 -59 -24t-23 -62q0 -37 23 -61.5t59 -24.5t59 24.5t23 61.5q0 38 -23 62t-59 24z" />
    <glyph glyph-name="plusminus" unicode="&#xb1;" horiz-adv-x="568" 
d="M57 305v59h196v182h62v-182h196v-59h-196v-182h-62v182h-196zM57 0v59h454v-59h-454z" />
    <glyph glyph-name="acute" unicode="&#xb4;" horiz-adv-x="550" 
d="M249 568l106 164h81l-137 -164h-50z" />
    <glyph glyph-name="mu" unicode="&#xb5;" horiz-adv-x="562" 
d="M417 0v80h-3q-44 -91 -157 -91q-72 0 -117 42q8 -80 8 -174v-77h-68v708h68v-290q0 -150 123 -150q62 0 102.5 48.5t40.5 135.5v256h67v-488h-64z" />
    <glyph glyph-name="paragraph" unicode="&#xb6;" horiz-adv-x="605" 
d="M434 0v688h68v-688h-68zM271 0v263q-104 5 -163.5 62.5t-59.5 149.5q0 97 65.5 155t178.5 58h47v-688h-68z" />
    <glyph glyph-name="periodcentered" unicode="&#xb7;" horiz-adv-x="244" 
d="M79 198v108h86v-108h-86z" />
    <glyph glyph-name="cedilla" unicode="&#xb8;" horiz-adv-x="550" 
d="M234 -78l28 78h26l-6 -40q44 -2 68 -26t24 -59q0 -40 -27.5 -65.5t-81.5 -25.5h-53v44h50q59 0 59 47t-60 47h-27z" />
    <glyph glyph-name="ordmasculine" unicode="&#xba;" horiz-adv-x="407" 
d="M203 337q-77 0 -123.5 48.5t-46.5 130.5q0 81 47.5 130.5t122.5 49.5q78 0 124.5 -49t46.5 -131q0 -81 -47.5 -130t-123.5 -49zM203 387q47 0 77 35.5t30 93.5q0 59 -29 94t-78 35q-47 0 -76.5 -35.5t-29.5 -93.5t29.5 -93.5t76.5 -35.5z" />
    <glyph glyph-name="guillemotright" unicode="&#xbb;" horiz-adv-x="505" 
d="M249 48l124 204l-124 204h56l145 -204l-145 -204h-56zM55 48l124 204l-124 204h55l146 -204l-146 -204h-55z" />
    <glyph glyph-name="onequarter" unicode="&#xbc;" horiz-adv-x="764" 
d="M439 73v38l192 234h50v-225h53v-47h-53v-73h-59v73h-183zM215 -12l348 712h54l-349 -712h-53zM71 565l-25 42l137 81h37v-294h98v-50h-263v50h106v223zM504 120h118v145z" />
    <glyph glyph-name="onehalf" unicode="&#xbd;" horiz-adv-x="764" 
d="M451 0q1 66 29.5 101t79.5 61l29 15q35 17 54 33t19 37q0 57 -72 57q-35 0 -57.5 -19t-24.5 -57h-56q2 63 41.5 93t96.5 30q60 0 95.5 -26.5t35.5 -75.5q0 -22 -8 -39.5t-27 -32t-32 -22.5t-40 -21l-29 -14q-66 -33 -66 -70h204v-50h-272zM195 -12l349 712h53l-348 -712
h-54zM71 565l-25 42l137 81h37v-294h98v-50h-263v50h106v223z" />
    <glyph glyph-name="threequarters" unicode="&#xbe;" horiz-adv-x="764" 
d="M439 73v38l192 234h50v-225h53v-47h-53v-73h-59v73h-183zM37 446h56q0 -32 23 -49t60 -17t60 15.5t23 45.5q0 29 -23 45t-60 16h-29v41h29q34 0 53.5 14t19.5 40t-20 40t-53 14q-32 0 -53 -16.5t-21 -45.5h-56q0 51 36.5 79t96.5 28q56 0 92 -26t36 -68q0 -29 -16.5 -50
t-44.5 -28v-2q32 -7 52.5 -30t20.5 -57q0 -47 -38 -73t-105 -26q-139 0 -139 110zM204 -12l349 712h53l-349 -712h-53zM504 120h118v145z" />
    <glyph glyph-name="questiondown" unicode="&#xbf;" horiz-adv-x="485" 
d="M209 386v102h79v-102h-79zM39 -37q0 45 18 79t44 55.5l52 41.5t44 49t18 67v37h68v-28q0 -51 -18 -88.5t-43.5 -59.5t-50.5 -41.5t-43 -46.5t-18 -62q0 -52 36 -85t92 -33q69 0 106.5 42.5t37.5 113.5h68q0 -94 -55.5 -154.5t-156.5 -60.5q-88 0 -143.5 47t-55.5 127z
" />
    <glyph glyph-name="Agrave" unicode="&#xc0;" horiz-adv-x="631" 
d="M15 0l259 688h83l259 -688h-74l-73 198h-310l-73 -198h-71zM316 614h-4l-131 -355h265zM290 768l-137 164h81l106 -164h-50z" />
    <glyph glyph-name="Aacute" unicode="&#xc1;" horiz-adv-x="631" 
d="M15 0l259 688h83l259 -688h-74l-73 198h-310l-73 -198h-71zM316 614h-4l-131 -355h265zM288 768l106 164h81l-137 -164h-50z" />
    <glyph glyph-name="Acircumflex" unicode="&#xc2;" horiz-adv-x="631" 
d="M15 0l259 688h83l259 -688h-74l-73 198h-310l-73 -198h-71zM316 614h-4l-131 -355h265zM155 768l128 164h62l128 -164h-65l-94 123l-94 -123h-65z" />
    <glyph glyph-name="Atilde" unicode="&#xc3;" horiz-adv-x="631" 
d="M15 0l259 688h83l259 -688h-74l-73 198h-310l-73 -198h-71zM316 614h-4l-131 -355h265zM159 800q2 43 24.5 71t62.5 28q30 0 77.5 -25.5t63.5 -25.5q38 0 46 52h38q-2 -43 -24.5 -71t-62.5 -28q-30 0 -77.5 25.5t-63.5 25.5q-38 0 -46 -52h-38z" />
    <glyph glyph-name="Adieresis" unicode="&#xc4;" horiz-adv-x="631" 
d="M15 0l259 688h83l259 -688h-74l-73 198h-310l-73 -198h-71zM316 614h-4l-131 -355h265zM379 805v90h68v-90h-68zM182 805v90h68v-90h-68z" />
    <glyph glyph-name="Aring" unicode="&#xc5;" horiz-adv-x="631" 
d="M15 0l259 688h83l259 -688h-74l-73 198h-310l-73 -198h-71zM316 614h-4l-131 -355h265zM314 767q-39 0 -67.5 26t-28.5 67t28.5 67t67.5 26t67.5 -26t28.5 -67t-28.5 -67t-67.5 -26zM314 802q24 0 41 16.5t17 41.5t-17 41.5t-41 16.5t-41 -16.5t-17 -41.5t17 -41.5
t41 -16.5z" />
    <glyph glyph-name="AE" unicode="&#xc6;" horiz-adv-x="1051" 
d="M11 0l501 688h480v-62h-385v-244h309v-62h-309v-258h393v-62h-464v164h-322l-119 -164h-84zM535 606l-276 -380h277v380h-1z" />
    <glyph glyph-name="Ccedilla" unicode="&#xc7;" horiz-adv-x="708" 
d="M330 -78l24 68q-137 6 -222 105t-85 249q0 153 91 254t236 101q115 0 190.5 -60.5t98.5 -162.5h-73q-44 158 -216 158q-113 0 -183 -82t-70 -208q0 -124 69.5 -207t180.5 -83q173 0 219 158h73q-23 -99 -96 -159t-185 -64l-4 -29q44 -2 68 -26t24 -59q0 -40 -27.5 -65.5
t-81.5 -25.5h-53v44h50q59 0 59 47t-60 47h-27z" />
    <glyph glyph-name="Egrave" unicode="&#xc8;" horiz-adv-x="606" 
d="M91 0v688h456v-62h-385v-244h309v-62h-309v-258h393v-62h-464zM296 768l-137 164h81l106 -164h-50z" />
    <glyph glyph-name="Eacute" unicode="&#xc9;" horiz-adv-x="606" 
d="M91 0v688h456v-62h-385v-244h309v-62h-309v-258h393v-62h-464zM294 768l106 164h81l-137 -164h-50z" />
    <glyph glyph-name="Ecircumflex" unicode="&#xca;" horiz-adv-x="606" 
d="M91 0v688h456v-62h-385v-244h309v-62h-309v-258h393v-62h-464zM161 768l128 164h62l128 -164h-65l-94 123l-94 -123h-65z" />
    <glyph glyph-name="Edieresis" unicode="&#xcb;" horiz-adv-x="606" 
d="M91 0v688h456v-62h-385v-244h309v-62h-309v-258h393v-62h-464zM385 805v90h68v-90h-68zM188 805v90h68v-90h-68z" />
    <glyph glyph-name="Igrave" unicode="&#xcc;" horiz-adv-x="253" 
d="M91 0v688h71v-688h-71zM102 768l-137 164h81l106 -164h-50z" />
    <glyph glyph-name="Iacute" unicode="&#xcd;" horiz-adv-x="253" 
d="M91 0v688h71v-688h-71zM100 768l106 164h81l-137 -164h-50z" />
    <glyph glyph-name="Icircumflex" unicode="&#xce;" horiz-adv-x="253" 
d="M91 0v688h71v-688h-71zM-33 768l128 164h62l128 -164h-65l-94 123l-94 -123h-65z" />
    <glyph glyph-name="Idieresis" unicode="&#xcf;" horiz-adv-x="253" 
d="M91 0v688h71v-688h-71zM191 805v90h68v-90h-68zM-6 805v90h68v-90h-68z" />
    <glyph glyph-name="Eth" unicode="&#xd0;" horiz-adv-x="696" 
d="M4 317v58h87v313h197q174 0 267.5 -94t93.5 -250t-93.5 -250t-267.5 -94h-197v317h-87zM288 626h-126v-251h162v-58h-162v-255h126q145 0 216 78.5t71 203.5t-71 203.5t-216 78.5z" />
    <glyph glyph-name="Ntilde" unicode="&#xd1;" horiz-adv-x="723" 
d="M91 0v688h68l402 -568h3l-3 568h71v-688h-68l-402 565h-3l3 -565h-71zM206 800q2 43 24.5 71t62.5 28q30 0 77.5 -25.5t63.5 -25.5q38 0 46 52h38q-2 -43 -24.5 -71t-62.5 -28q-30 0 -77.5 25.5t-63.5 25.5q-38 0 -46 -52h-38z" />
    <glyph glyph-name="Ograve" unicode="&#xd2;" horiz-adv-x="754" 
d="M47 344q0 154 92 254.5t238 100.5q144 0 237 -100.5t93 -254.5t-93 -254.5t-237 -100.5q-146 0 -238 100.5t-92 254.5zM121 344q0 -126 71 -208t185 -82q113 0 184.5 82t71.5 208t-71.5 208t-184.5 82q-114 0 -185 -82t-71 -208zM353 768l-137 164h81l106 -164h-50z" />
    <glyph glyph-name="Oacute" unicode="&#xd3;" horiz-adv-x="754" 
d="M47 344q0 154 92 254.5t238 100.5q144 0 237 -100.5t93 -254.5t-93 -254.5t-237 -100.5q-146 0 -238 100.5t-92 254.5zM121 344q0 -126 71 -208t185 -82q113 0 184.5 82t71.5 208t-71.5 208t-184.5 82q-114 0 -185 -82t-71 -208zM351 768l106 164h81l-137 -164h-50z" />
    <glyph glyph-name="Ocircumflex" unicode="&#xd4;" horiz-adv-x="754" 
d="M47 344q0 154 92 254.5t238 100.5q144 0 237 -100.5t93 -254.5t-93 -254.5t-237 -100.5q-146 0 -238 100.5t-92 254.5zM121 344q0 -126 71 -208t185 -82q113 0 184.5 82t71.5 208t-71.5 208t-184.5 82q-114 0 -185 -82t-71 -208zM218 768l128 164h62l128 -164h-65
l-94 123l-94 -123h-65z" />
    <glyph glyph-name="Otilde" unicode="&#xd5;" horiz-adv-x="754" 
d="M47 344q0 154 92 254.5t238 100.5q144 0 237 -100.5t93 -254.5t-93 -254.5t-237 -100.5q-146 0 -238 100.5t-92 254.5zM121 344q0 -126 71 -208t185 -82q113 0 184.5 82t71.5 208t-71.5 208t-184.5 82q-114 0 -185 -82t-71 -208zM222 800q2 43 24.5 71t62.5 28
q30 0 77.5 -25.5t63.5 -25.5q38 0 46 52h38q-2 -43 -24.5 -71t-62.5 -28q-30 0 -77.5 25.5t-63.5 25.5q-38 0 -46 -52h-38z" />
    <glyph glyph-name="Odieresis" unicode="&#xd6;" horiz-adv-x="754" 
d="M47 344q0 154 92 254.5t238 100.5q144 0 237 -100.5t93 -254.5t-93 -254.5t-237 -100.5q-146 0 -238 100.5t-92 254.5zM121 344q0 -126 71 -208t185 -82q113 0 184.5 82t71.5 208t-71.5 208t-184.5 82q-114 0 -185 -82t-71 -208zM442 805v90h68v-90h-68zM245 805v90h68
v-90h-68z" />
    <glyph glyph-name="multiply" unicode="&#xd7;" horiz-adv-x="568" 
d="M82 419l41 40l161 -163l162 163l41 -41l-162 -164l162 -163l-41 -40l-161 162l-162 -163l-41 41l162 164z" />
    <glyph glyph-name="Oslash" unicode="&#xd8;" horiz-adv-x="754" 
d="M59 -12l81 100q-93 101 -93 256q0 154 92.5 254.5t237.5 100.5q115 0 202 -70l57 71h59l-82 -102q94 -100 94 -254q0 -153 -94 -254t-236 -101q-116 0 -203 68l-55 -69h-60zM121 344q0 -120 64 -200l351 433q-68 57 -159 57q-114 0 -185 -82t-71 -208zM633 344
q0 118 -65 199l-350 -432q66 -57 159 -57q113 0 184.5 82t71.5 208z" />
    <glyph glyph-name="Ugrave" unicode="&#xd9;" horiz-adv-x="688" 
d="M76 271v417h71v-417q0 -106 50 -161.5t147 -55.5q96 0 146.5 55.5t50.5 161.5v417h71v-417q0 -144 -71.5 -213t-196.5 -69t-196.5 69t-71.5 213zM320 768l-137 164h81l106 -164h-50z" />
    <glyph glyph-name="Uacute" unicode="&#xda;" horiz-adv-x="688" 
d="M76 271v417h71v-417q0 -106 50 -161.5t147 -55.5q96 0 146.5 55.5t50.5 161.5v417h71v-417q0 -144 -71.5 -213t-196.5 -69t-196.5 69t-71.5 213zM318 768l106 164h81l-137 -164h-50z" />
    <glyph glyph-name="Ucircumflex" unicode="&#xdb;" horiz-adv-x="688" 
d="M76 271v417h71v-417q0 -106 50 -161.5t147 -55.5q96 0 146.5 55.5t50.5 161.5v417h71v-417q0 -144 -71.5 -213t-196.5 -69t-196.5 69t-71.5 213zM185 768l128 164h62l128 -164h-65l-94 123l-94 -123h-65z" />
    <glyph glyph-name="Udieresis" unicode="&#xdc;" horiz-adv-x="688" 
d="M76 271v417h71v-417q0 -106 50 -161.5t147 -55.5q96 0 146.5 55.5t50.5 161.5v417h71v-417q0 -144 -71.5 -213t-196.5 -69t-196.5 69t-71.5 213zM409 805v90h68v-90h-68zM212 805v90h68v-90h-68z" />
    <glyph glyph-name="Yacute" unicode="&#xdd;" horiz-adv-x="594" 
d="M260 0v274l-247 414h80l202 -341h3l209 341h74l-250 -409v-279h-71zM271 768l106 164h81l-137 -164h-50z" />
    <glyph glyph-name="Thorn" unicode="&#xde;" horiz-adv-x="626" 
d="M91 0v688h71v-115h184q111 0 173 -59.5t62 -156.5q0 -98 -62.5 -160t-172.5 -62h-184v-135h-71zM349 512h-187v-315h187q77 0 119 45t42 115q0 69 -41.5 112t-119.5 43z" />
    <glyph glyph-name="germandbls" unicode="&#xdf;" horiz-adv-x="550" 
d="M74 0v511q0 116 56.5 174t150.5 58q85 0 130 -42t45 -104q0 -35 -17 -64t-37 -45t-37 -37t-17 -43t17.5 -41t42.5 -36t50 -37.5t42.5 -52.5t17.5 -73q0 -80 -53.5 -124t-137.5 -44h-79v56h79q54 0 88.5 27.5t34.5 78.5q0 34 -17 59t-41 41.5l-48 33.5t-41 43.5t-17 62.5
q0 33 17 60.5t37 42.5t37 39t17 53q0 38 -29.5 64t-86.5 26q-136 0 -136 -176v-511h-68z" />
    <glyph glyph-name="agrave" unicode="&#xe0;" horiz-adv-x="517" 
d="M50 123q0 61 37.5 96.5t117.5 48.5l105 18q38 6 52 14.5t14 26.5q-3 116 -116 116q-57 0 -89.5 -28t-36.5 -79h-65q4 73 55 118t136 45q89 0 136.5 -46.5t47.5 -131.5v-321h-65v78h-3q-44 -89 -166 -89q-75 0 -117.5 36.5t-42.5 97.5zM376 207v55q-16 -19 -56 -25
l-103 -17q-99 -16 -99 -91q0 -39 26.5 -61.5t76.5 -22.5q67 0 111 41.5t44 120.5zM241 568l-137 164h81l106 -164h-50z" />
    <glyph glyph-name="aacute" unicode="&#xe1;" horiz-adv-x="517" 
d="M50 123q0 61 37.5 96.5t117.5 48.5l105 18q38 6 52 14.5t14 26.5q-3 116 -116 116q-57 0 -89.5 -28t-36.5 -79h-65q4 73 55 118t136 45q89 0 136.5 -46.5t47.5 -131.5v-321h-65v78h-3q-44 -89 -166 -89q-75 0 -117.5 36.5t-42.5 97.5zM376 207v55q-16 -19 -56 -25
l-103 -17q-99 -16 -99 -91q0 -39 26.5 -61.5t76.5 -22.5q67 0 111 41.5t44 120.5zM223 568l106 164h81l-137 -164h-50z" />
    <glyph glyph-name="acircumflex" unicode="&#xe2;" horiz-adv-x="517" 
d="M50 123q0 61 37.5 96.5t117.5 48.5l105 18q38 6 52 14.5t14 26.5q-3 116 -116 116q-57 0 -89.5 -28t-36.5 -79h-65q4 73 55 118t136 45q89 0 136.5 -46.5t47.5 -131.5v-321h-65v78h-3q-44 -89 -166 -89q-75 0 -117.5 36.5t-42.5 97.5zM376 207v55q-16 -19 -56 -25
l-103 -17q-99 -16 -99 -91q0 -39 26.5 -61.5t76.5 -22.5q67 0 111 41.5t44 120.5zM98 568l128 164h62l128 -164h-65l-94 123l-94 -123h-65z" />
    <glyph glyph-name="atilde" unicode="&#xe3;" horiz-adv-x="517" 
d="M50 123q0 61 37.5 96.5t117.5 48.5l105 18q38 6 52 14.5t14 26.5q-3 116 -116 116q-57 0 -89.5 -28t-36.5 -79h-65q4 73 55 118t136 45q89 0 136.5 -46.5t47.5 -131.5v-321h-65v78h-3q-44 -89 -166 -89q-75 0 -117.5 36.5t-42.5 97.5zM376 207v55q-16 -19 -56 -25
l-103 -17q-99 -16 -99 -91q0 -39 26.5 -61.5t76.5 -22.5q67 0 111 41.5t44 120.5zM102 600q2 43 24.5 71t62.5 28q30 0 77.5 -25.5t63.5 -25.5q38 0 46 52h38q-2 -43 -24.5 -71t-62.5 -28q-30 0 -77.5 25.5t-63.5 25.5q-38 0 -46 -52h-38z" />
    <glyph glyph-name="adieresis" unicode="&#xe4;" horiz-adv-x="517" 
d="M50 123q0 61 37.5 96.5t117.5 48.5l105 18q38 6 52 14.5t14 26.5q-3 116 -116 116q-57 0 -89.5 -28t-36.5 -79h-65q4 73 55 118t136 45q89 0 136.5 -46.5t47.5 -131.5v-321h-65v78h-3q-44 -89 -166 -89q-75 0 -117.5 36.5t-42.5 97.5zM376 207v55q-16 -19 -56 -25
l-103 -17q-99 -16 -99 -91q0 -39 26.5 -61.5t76.5 -22.5q67 0 111 41.5t44 120.5zM322 605v90h68v-90h-68zM125 605v90h68v-90h-68z" />
    <glyph glyph-name="aring" unicode="&#xe5;" horiz-adv-x="517" 
d="M50 123q0 61 37.5 96.5t117.5 48.5l105 18q38 6 52 14.5t14 26.5q-3 116 -116 116q-57 0 -89.5 -28t-36.5 -79h-65q4 73 55 118t136 45q89 0 136.5 -46.5t47.5 -131.5v-321h-65v78h-3q-44 -89 -166 -89q-75 0 -117.5 36.5t-42.5 97.5zM376 207v55q-16 -19 -56 -25
l-103 -17q-99 -16 -99 -91q0 -39 26.5 -61.5t76.5 -22.5q67 0 111 41.5t44 120.5zM257 567q-39 0 -67.5 26t-28.5 67t28.5 67t67.5 26t67.5 -26t28.5 -67t-28.5 -67t-67.5 -26zM257 602q24 0 41 16.5t17 41.5t-17 41.5t-41 16.5t-41 -16.5t-17 -41.5t17 -41.5t41 -16.5z" />
    <glyph glyph-name="ae" unicode="&#xe6;" horiz-adv-x="844" 
d="M69 336q6 81 59 122t132 41q125 0 165 -88q59 88 172 88q91 0 148.5 -62.5t57.5 -169.5v-28h-356q1 -87 43 -139t111 -52q56 0 89 27.5t41 72.5h67q-9 -68 -64 -113.5t-133 -45.5q-140 0 -195 117q-54 -117 -197 -117q-75 0 -117 36.5t-42 97.5q0 119 155 145l105 18
q38 6 52 14.5t14 26.5q0 54 -30 85t-86 31q-53 0 -87.5 -27.5t-38.5 -79.5h-65zM376 210v52q-16 -19 -56 -25l-103 -17q-99 -16 -99 -91q0 -40 27 -62t76 -22q67 0 111 41t44 124zM597 440q-58 0 -97 -40.5t-50 -109.5h281q-4 71 -40.5 110.5t-93.5 39.5z" />
    <glyph glyph-name="ccedilla" unicode="&#xe7;" horiz-adv-x="511" 
d="M228 -78l24 68q-96 6 -152.5 74.5t-56.5 179.5q0 114 64 184.5t162 70.5q85 0 139 -47t66 -125h-68q-10 52 -45 82.5t-92 30.5q-66 0 -110.5 -54.5t-44.5 -141.5t44 -141.5t111 -54.5q57 0 92 30.5t45 82.5h68q-12 -75 -62.5 -121.5t-131.5 -50.5l-4 -29q44 -2 68 -26
t24 -59q0 -40 -27.5 -65.5t-81.5 -25.5h-53v44h50q59 0 59 47t-60 47h-27z" />
    <glyph glyph-name="egrave" unicode="&#xe8;" horiz-adv-x="519" 
d="M43 244q0 112 64.5 183.5t160.5 71.5q93 0 151.5 -62t58.5 -170v-28h-364q2 -86 44.5 -138.5t113.5 -52.5q56 0 91 28t43 72h68q-10 -68 -66 -113.5t-136 -45.5q-109 0 -169 69t-60 186zM268 440q-57 0 -98.5 -40.5t-52.5 -109.5h292q-5 75 -42 112.5t-99 37.5zM244 568
l-137 164h81l106 -164h-50z" />
    <glyph glyph-name="eacute" unicode="&#xe9;" horiz-adv-x="519" 
d="M43 244q0 112 64.5 183.5t160.5 71.5q93 0 151.5 -62t58.5 -170v-28h-364q2 -86 44.5 -138.5t113.5 -52.5q56 0 91 28t43 72h68q-10 -68 -66 -113.5t-136 -45.5q-109 0 -169 69t-60 186zM268 440q-57 0 -98.5 -40.5t-52.5 -109.5h292q-5 75 -42 112.5t-99 37.5zM242 568
l106 164h81l-137 -164h-50z" />
    <glyph glyph-name="ecircumflex" unicode="&#xea;" horiz-adv-x="519" 
d="M43 244q0 112 64.5 183.5t160.5 71.5q93 0 151.5 -62t58.5 -170v-28h-364q2 -86 44.5 -138.5t113.5 -52.5q56 0 91 28t43 72h68q-10 -68 -66 -113.5t-136 -45.5q-109 0 -169 69t-60 186zM268 440q-57 0 -98.5 -40.5t-52.5 -109.5h292q-5 75 -42 112.5t-99 37.5zM109 568
l128 164h62l128 -164h-65l-94 123l-94 -123h-65z" />
    <glyph glyph-name="edieresis" unicode="&#xeb;" horiz-adv-x="519" 
d="M43 244q0 112 64.5 183.5t160.5 71.5q93 0 151.5 -62t58.5 -170v-28h-364q2 -86 44.5 -138.5t113.5 -52.5q56 0 91 28t43 72h68q-10 -68 -66 -113.5t-136 -45.5q-109 0 -169 69t-60 186zM268 440q-57 0 -98.5 -40.5t-52.5 -109.5h292q-5 75 -42 112.5t-99 37.5zM333 605
v90h68v-90h-68zM136 605v90h68v-90h-68z" />
    <glyph glyph-name="igrave" unicode="&#xec;" horiz-adv-x="228" 
d="M80 0v488h68v-488h-68zM90 568l-137 164h81l106 -164h-50z" />
    <glyph glyph-name="iacute" unicode="&#xed;" horiz-adv-x="228" 
d="M80 0v488h68v-488h-68zM88 568l106 164h81l-137 -164h-50z" />
    <glyph glyph-name="icircumflex" unicode="&#xee;" horiz-adv-x="228" 
d="M80 0v488h68v-488h-68zM-45 568l128 164h62l128 -164h-65l-94 123l-94 -123h-65z" />
    <glyph glyph-name="idieresis" unicode="&#xef;" horiz-adv-x="228" 
d="M80 0v488h68v-488h-68zM179 605v90h68v-90h-68zM-18 605v90h68v-90h-68z" />
    <glyph glyph-name="eth" unicode="&#xf0;" horiz-adv-x="560" 
d="M194 533l-25 38l99 67q-55 32 -137 56l15 50q105 -30 172 -72l101 68l25 -37l-86 -59q76 -60 115 -150.5t39 -233.5v-2q0 -125 -66 -197t-169 -72q-106 0 -170.5 67t-64.5 172q0 103 67 171t162 68q49 0 92 -19t68 -56h3q-33 145 -126 218zM113 228q0 -79 46 -129.5
t118 -50.5q71 0 117.5 50.5t46.5 129.5q0 81 -46 130.5t-118 49.5q-71 0 -117.5 -51t-46.5 -129z" />
    <glyph glyph-name="ntilde" unicode="&#xf1;" horiz-adv-x="558" 
d="M80 0v488h65v-80h3q43 91 160 91q79 0 128 -48t49 -152v-299h-68v290q0 150 -123 150q-63 0 -104.5 -49.5t-41.5 -136.5v-254h-68zM125 600q2 43 24.5 71t62.5 28q30 0 77.5 -25.5t63.5 -25.5q38 0 46 52h38q-2 -43 -24.5 -71t-62.5 -28q-30 0 -77.5 25.5t-63.5 25.5
q-38 0 -46 -52h-38z" />
    <glyph glyph-name="ograve" unicode="&#xf2;" horiz-adv-x="550" 
d="M43 244q0 114 65.5 184.5t166.5 70.5q106 0 169 -69.5t63 -185.5q0 -114 -65.5 -184.5t-166.5 -70.5q-106 0 -169 69.5t-63 185.5zM114 244q0 -88 45 -142t116 -54q70 0 115.5 54.5t45.5 141.5q0 89 -44.5 142.5t-116.5 53.5q-70 0 -115.5 -54.5t-45.5 -141.5zM251 568
l-137 164h81l106 -164h-50z" />
    <glyph glyph-name="oacute" unicode="&#xf3;" horiz-adv-x="550" 
d="M43 244q0 114 65.5 184.5t166.5 70.5q106 0 169 -69.5t63 -185.5q0 -114 -65.5 -184.5t-166.5 -70.5q-106 0 -169 69.5t-63 185.5zM114 244q0 -88 45 -142t116 -54q70 0 115.5 54.5t45.5 141.5q0 89 -44.5 142.5t-116.5 53.5q-70 0 -115.5 -54.5t-45.5 -141.5zM249 568
l106 164h81l-137 -164h-50z" />
    <glyph glyph-name="ocircumflex" unicode="&#xf4;" horiz-adv-x="550" 
d="M43 244q0 114 65.5 184.5t166.5 70.5q106 0 169 -69.5t63 -185.5q0 -114 -65.5 -184.5t-166.5 -70.5q-106 0 -169 69.5t-63 185.5zM114 244q0 -88 45 -142t116 -54q70 0 115.5 54.5t45.5 141.5q0 89 -44.5 142.5t-116.5 53.5q-70 0 -115.5 -54.5t-45.5 -141.5zM116 568
l128 164h62l128 -164h-65l-94 123l-94 -123h-65z" />
    <glyph glyph-name="otilde" unicode="&#xf5;" horiz-adv-x="550" 
d="M43 244q0 114 65.5 184.5t166.5 70.5q106 0 169 -69.5t63 -185.5q0 -114 -65.5 -184.5t-166.5 -70.5q-106 0 -169 69.5t-63 185.5zM114 244q0 -88 45 -142t116 -54q70 0 115.5 54.5t45.5 141.5q0 89 -44.5 142.5t-116.5 53.5q-70 0 -115.5 -54.5t-45.5 -141.5zM120 600
q2 43 24.5 71t62.5 28q30 0 77.5 -25.5t63.5 -25.5q38 0 46 52h38q-2 -43 -24.5 -71t-62.5 -28q-30 0 -77.5 25.5t-63.5 25.5q-38 0 -46 -52h-38z" />
    <glyph glyph-name="odieresis" unicode="&#xf6;" horiz-adv-x="550" 
d="M43 244q0 114 65.5 184.5t166.5 70.5q106 0 169 -69.5t63 -185.5q0 -114 -65.5 -184.5t-166.5 -70.5q-106 0 -169 69.5t-63 185.5zM114 244q0 -88 45 -142t116 -54q70 0 115.5 54.5t45.5 141.5q0 89 -44.5 142.5t-116.5 53.5q-70 0 -115.5 -54.5t-45.5 -141.5zM340 605
v90h68v-90h-68zM143 605v90h68v-90h-68z" />
    <glyph glyph-name="divide" unicode="&#xf7;" horiz-adv-x="568" 
d="M247 380v98h74v-98h-74zM57 224v59h454v-59h-454zM247 29v98h74v-98h-74z" />
    <glyph glyph-name="oslash" unicode="&#xf8;" horiz-adv-x="550" 
d="M44 -12l59 74q-60 69 -60 182q0 114 65.5 184.5t166.5 70.5q83 0 143 -46l38 47h50l-60 -74q61 -69 61 -182q0 -114 -65.5 -184.5t-166.5 -70.5q-85 0 -143 46l-38 -47h-50zM114 244q0 -76 34 -127l229 285q-43 38 -102 38q-70 0 -115.5 -54.5t-45.5 -141.5zM436 244
q0 78 -34 127l-229 -285q41 -38 102 -38q70 0 115.5 54.5t45.5 141.5z" />
    <glyph glyph-name="ugrave" unicode="&#xf9;" horiz-adv-x="553" 
d="M72 189v299h68v-290q0 -150 122 -150q63 0 103 49t40 138v253h68v-488h-65v80h-3q-44 -91 -157 -91q-79 0 -127.5 48t-48.5 152zM254 568l-137 164h81l106 -164h-50z" />
    <glyph glyph-name="uacute" unicode="&#xfa;" horiz-adv-x="553" 
d="M72 189v299h68v-290q0 -150 122 -150q63 0 103 49t40 138v253h68v-488h-65v80h-3q-44 -91 -157 -91q-79 0 -127.5 48t-48.5 152zM252 568l106 164h81l-137 -164h-50z" />
    <glyph glyph-name="ucircumflex" unicode="&#xfb;" horiz-adv-x="553" 
d="M72 189v299h68v-290q0 -150 122 -150q63 0 103 49t40 138v253h68v-488h-65v80h-3q-44 -91 -157 -91q-79 0 -127.5 48t-48.5 152zM119 568l128 164h62l128 -164h-65l-94 123l-94 -123h-65z" />
    <glyph glyph-name="udieresis" unicode="&#xfc;" horiz-adv-x="553" 
d="M72 189v299h68v-290q0 -150 122 -150q63 0 103 49t40 138v253h68v-488h-65v80h-3q-44 -91 -157 -91q-79 0 -127.5 48t-48.5 152zM343 605v90h68v-90h-68zM146 605v90h68v-90h-68z" />
    <glyph glyph-name="yacute" unicode="&#xfd;" horiz-adv-x="460" 
d="M33 -169h27q84 0 122 105l18 49l-192 503h74l150 -414h3l149 414h68l-214 -571q-54 -144 -166 -144h-39v58zM203 568l106 164h81l-137 -164h-50z" />
    <glyph glyph-name="thorn" unicode="&#xfe;" horiz-adv-x="576" 
d="M533 248q0 -115 -63 -187t-156 -72q-56 0 -99.5 24.5t-66.5 73.5h-3q3 -69 3 -182v-125h-68v952h68v-149q0 -110 -3 -182h3q23 48 69 73t103 25q93 0 153 -68t60 -183zM462 248q0 89 -44.5 140.5t-112.5 51.5q-66 0 -110.5 -50.5t-46.5 -136.5v-9q0 -91 44.5 -143.5
t112.5 -52.5t112.5 55t44.5 145z" />
    <glyph glyph-name="ydieresis" unicode="&#xff;" horiz-adv-x="460" 
d="M33 -169h27q84 0 122 105l18 49l-192 503h74l150 -414h3l149 414h68l-214 -571q-54 -144 -166 -144h-39v58zM294 605v90h68v-90h-68zM97 605v90h68v-90h-68z" />
    <glyph glyph-name="Amacron" unicode="&#x100;" horiz-adv-x="631" 
d="M15 0l259 688h83l259 -688h-74l-73 198h-310l-73 -198h-71zM316 614h-4l-131 -355h265zM175 823v53h276v-53h-276z" />
    <glyph glyph-name="amacron" unicode="&#x101;" horiz-adv-x="517" 
d="M50 123q0 61 37.5 96.5t117.5 48.5l105 18q38 6 52 14.5t14 26.5q-3 116 -116 116q-57 0 -89.5 -28t-36.5 -79h-65q4 73 55 118t136 45q89 0 136.5 -46.5t47.5 -131.5v-321h-65v78h-3q-44 -89 -166 -89q-75 0 -117.5 36.5t-42.5 97.5zM376 207v55q-16 -19 -56 -25
l-103 -17q-99 -16 -99 -91q0 -39 26.5 -61.5t76.5 -22.5q67 0 111 41.5t44 120.5zM118 623v53h276v-53h-276z" />
    <glyph glyph-name="Abreve" unicode="&#x102;" horiz-adv-x="631" 
d="M15 0l259 688h83l259 -688h-74l-73 198h-310l-73 -198h-71zM316 614h-4l-131 -355h265zM314 784q-53 0 -92 32.5t-47 101.5h44q14 -90 95 -90t95 90h44q-8 -69 -47 -101.5t-92 -32.5z" />
    <glyph glyph-name="abreve" unicode="&#x103;" horiz-adv-x="517" 
d="M50 123q0 61 37.5 96.5t117.5 48.5l105 18q38 6 52 14.5t14 26.5q-3 116 -116 116q-57 0 -89.5 -28t-36.5 -79h-65q4 73 55 118t136 45q89 0 136.5 -46.5t47.5 -131.5v-321h-65v78h-3q-44 -89 -166 -89q-75 0 -117.5 36.5t-42.5 97.5zM376 207v55q-16 -19 -56 -25
l-103 -17q-99 -16 -99 -91q0 -39 26.5 -61.5t76.5 -22.5q67 0 111 41.5t44 120.5zM257 584q-53 0 -92 32.5t-47 101.5h44q14 -90 95 -90t95 90h44q-8 -69 -47 -101.5t-92 -32.5z" />
    <glyph glyph-name="Aogonek" unicode="&#x104;" horiz-adv-x="631" 
d="M501 -128q0 63 75 128h-34l-73 198h-310l-73 -198h-71l259 688h83l259 -688h-1q-61 -65 -61 -116q0 -53 61 -53h30v-47h-39q-50 0 -77.5 24t-27.5 64zM316 614h-4l-131 -355h265z" />
    <glyph glyph-name="aogonek" unicode="&#x105;" horiz-adv-x="517" 
d="M330 -128q0 63 75 128h-26v78h-3q-44 -89 -166 -89q-75 0 -117.5 36.5t-42.5 97.5t37.5 96.5t117.5 48.5l105 18q38 6 52 14.5t14 26.5q-3 116 -116 116q-57 0 -89.5 -28t-36.5 -79h-65q4 73 55 118t136 45q89 0 136.5 -46.5t47.5 -131.5v-321q-61 -65 -61 -116
q0 -53 61 -53h30v-47h-39q-50 0 -77.5 24t-27.5 64zM376 207v55q-16 -19 -56 -25l-103 -17q-99 -16 -99 -91q0 -39 26.5 -61.5t76.5 -22.5q67 0 111 41.5t44 120.5z" />
    <glyph glyph-name="Cacute" unicode="&#x106;" horiz-adv-x="708" 
d="M47 344q0 153 91 254t236 101q115 0 190.5 -60.5t98.5 -162.5h-73q-44 158 -216 158q-113 0 -183 -82t-70 -208q0 -124 69.5 -207t180.5 -83q173 0 219 158h73q-24 -102 -100 -162.5t-192 -60.5q-144 0 -234 100.5t-90 254.5zM348 768l106 164h81l-137 -164h-50z" />
    <glyph glyph-name="cacute" unicode="&#x107;" horiz-adv-x="511" 
d="M43 244q0 114 64 184.5t162 70.5q85 0 139 -47t66 -125h-68q-10 52 -45 82.5t-92 30.5q-66 0 -110.5 -54.5t-44.5 -141.5t44 -141.5t111 -54.5q57 0 92 30.5t45 82.5h68q-12 -78 -66 -125t-139 -47q-103 0 -164.5 69.5t-61.5 185.5zM243 568l106 164h81l-137 -164h-50z
" />
    <glyph glyph-name="Ccircumflex" unicode="&#x108;" horiz-adv-x="708" 
d="M47 344q0 153 91 254t236 101q115 0 190.5 -60.5t98.5 -162.5h-73q-44 158 -216 158q-113 0 -183 -82t-70 -208q0 -124 69.5 -207t180.5 -83q173 0 219 158h73q-24 -102 -100 -162.5t-192 -60.5q-144 0 -234 100.5t-90 254.5zM215 768l128 164h62l128 -164h-65l-94 123
l-94 -123h-65z" />
    <glyph glyph-name="ccircumflex" unicode="&#x109;" horiz-adv-x="511" 
d="M43 244q0 114 64 184.5t162 70.5q85 0 139 -47t66 -125h-68q-10 52 -45 82.5t-92 30.5q-66 0 -110.5 -54.5t-44.5 -141.5t44 -141.5t111 -54.5q57 0 92 30.5t45 82.5h68q-12 -78 -66 -125t-139 -47q-103 0 -164.5 69.5t-61.5 185.5zM110 568l128 164h62l128 -164h-65
l-94 123l-94 -123h-65z" />
    <glyph glyph-name="Cdotaccent" unicode="&#x10a;" horiz-adv-x="708" 
d="M47 344q0 153 91 254t236 101q115 0 190.5 -60.5t98.5 -162.5h-73q-44 158 -216 158q-113 0 -183 -82t-70 -208q0 -124 69.5 -207t180.5 -83q173 0 219 158h73q-24 -102 -100 -162.5t-192 -60.5q-144 0 -234 100.5t-90 254.5zM340 805v90h68v-90h-68z" />
    <glyph glyph-name="cdotaccent" unicode="&#x10b;" horiz-adv-x="511" 
d="M43 244q0 114 64 184.5t162 70.5q85 0 139 -47t66 -125h-68q-10 52 -45 82.5t-92 30.5q-66 0 -110.5 -54.5t-44.5 -141.5t44 -141.5t111 -54.5q57 0 92 30.5t45 82.5h68q-12 -78 -66 -125t-139 -47q-103 0 -164.5 69.5t-61.5 185.5zM235 605v90h68v-90h-68z" />
    <glyph glyph-name="Ccaron" unicode="&#x10c;" horiz-adv-x="708" 
d="M47 344q0 153 91 254t236 101q115 0 190.5 -60.5t98.5 -162.5h-73q-44 158 -216 158q-113 0 -183 -82t-70 -208q0 -124 69.5 -207t180.5 -83q173 0 219 158h73q-24 -102 -100 -162.5t-192 -60.5q-144 0 -234 100.5t-90 254.5zM343 768l-128 164h65l94 -123l94 123h65
l-128 -164h-62z" />
    <glyph glyph-name="ccaron" unicode="&#x10d;" horiz-adv-x="511" 
d="M43 244q0 114 64 184.5t162 70.5q85 0 139 -47t66 -125h-68q-10 52 -45 82.5t-92 30.5q-66 0 -110.5 -54.5t-44.5 -141.5t44 -141.5t111 -54.5q57 0 92 30.5t45 82.5h68q-12 -78 -66 -125t-139 -47q-103 0 -164.5 69.5t-61.5 185.5zM238 568l-128 164h65l94 -123l94 123
h65l-128 -164h-62z" />
    <glyph glyph-name="Dcaron" unicode="&#x10e;" horiz-adv-x="696" 
d="M91 0v688h197q174 0 267.5 -94t93.5 -250t-93.5 -250t-267.5 -94h-197zM288 626h-126v-564h126q145 0 216 78.5t71 203.5t-71 203.5t-216 78.5zM287 768l-128 164h65l94 -123l94 123h65l-128 -164h-62z" />
    <glyph glyph-name="dcaron" unicode="&#x10f;" horiz-adv-x="576" 
d="M43 240q0 115 63 187t156 72q120 0 166 -98h3q-3 48 -3 182v149h68v-732h-65v87h-3q-47 -98 -172 -98q-93 0 -153 68t-60 183zM114 240q0 -90 44.5 -141t112.5 -51q66 0 110 50t47 137v18q-3 87 -47 137t-110 50q-68 0 -112.5 -55t-44.5 -145zM582 528l28 115h-30v89h74
v-84l-38 -120h-34z" />
    <glyph glyph-name="Dcroat" unicode="&#x110;" horiz-adv-x="696" 
d="M4 317v58h87v313h197q174 0 267.5 -94t93.5 -250t-93.5 -250t-267.5 -94h-197v317h-87zM288 626h-126v-251h162v-58h-162v-255h126q145 0 216 78.5t71 203.5t-71 203.5t-216 78.5z" />
    <glyph glyph-name="dcroat" unicode="&#x111;" horiz-adv-x="576" 
d="M273 599v47h155v86h68v-86h80v-47h-80v-599h-65v88h-3q-45 -99 -172 -99q-93 0 -153 68t-60 183t63 187t156 72q120 0 166 -98h3q-3 48 -3 182v16h-155zM114 240q0 -90 44.5 -141t112.5 -51q66 0 110 50t47 137v18q-3 87 -47 137t-110 50q-68 0 -112.5 -55t-44.5 -145z
" />
    <glyph glyph-name="Emacron" unicode="&#x112;" horiz-adv-x="606" 
d="M91 0v688h456v-62h-385v-244h309v-62h-309v-258h393v-62h-464zM181 823v53h276v-53h-276z" />
    <glyph glyph-name="emacron" unicode="&#x113;" horiz-adv-x="519" 
d="M43 244q0 112 64.5 183.5t160.5 71.5q93 0 151.5 -62t58.5 -170v-28h-364q2 -86 44.5 -138.5t113.5 -52.5q56 0 91 28t43 72h68q-10 -68 -66 -113.5t-136 -45.5q-109 0 -169 69t-60 186zM268 440q-57 0 -98.5 -40.5t-52.5 -109.5h292q-5 75 -42 112.5t-99 37.5zM129 623
v53h276v-53h-276z" />
    <glyph glyph-name="Ebreve" unicode="&#x114;" horiz-adv-x="606" 
d="M91 0v688h456v-62h-385v-244h309v-62h-309v-258h393v-62h-464zM320 784q-53 0 -92 32.5t-47 101.5h44q14 -90 95 -90t95 90h44q-8 -69 -47 -101.5t-92 -32.5z" />
    <glyph glyph-name="ebreve" unicode="&#x115;" horiz-adv-x="519" 
d="M43 244q0 112 64.5 183.5t160.5 71.5q93 0 151.5 -62t58.5 -170v-28h-364q2 -86 44.5 -138.5t113.5 -52.5q56 0 91 28t43 72h68q-10 -68 -66 -113.5t-136 -45.5q-109 0 -169 69t-60 186zM268 440q-57 0 -98.5 -40.5t-52.5 -109.5h292q-5 75 -42 112.5t-99 37.5zM268 584
q-53 0 -92 32.5t-47 101.5h44q14 -90 95 -90t95 90h44q-8 -69 -47 -101.5t-92 -32.5z" />
    <glyph glyph-name="Edotaccent" unicode="&#x116;" horiz-adv-x="606" 
d="M91 0v688h456v-62h-385v-244h309v-62h-309v-258h393v-62h-464zM286 805v90h68v-90h-68z" />
    <glyph glyph-name="edotaccent" unicode="&#x117;" horiz-adv-x="519" 
d="M43 244q0 112 64.5 183.5t160.5 71.5q93 0 151.5 -62t58.5 -170v-28h-364q2 -86 44.5 -138.5t113.5 -52.5q56 0 91 28t43 72h68q-10 -68 -66 -113.5t-136 -45.5q-109 0 -169 69t-60 186zM268 440q-57 0 -98.5 -40.5t-52.5 -109.5h292q-5 75 -42 112.5t-99 37.5zM234 605
v90h68v-90h-68z" />
    <glyph glyph-name="Eogonek" unicode="&#x118;" horiz-adv-x="606" 
d="M91 0v688h456v-62h-385v-244h309v-62h-309v-258h393v-62h1q-61 -65 -61 -116q0 -53 61 -53h30v-47h-39q-50 0 -77.5 24t-27.5 64q0 63 75 128h-426z" />
    <glyph glyph-name="eogonek" unicode="&#x119;" horiz-adv-x="519" 
d="M221 -135q0 57 79 126q-18 -2 -28 -2q-109 0 -169 69t-60 186q0 112 64.5 183.5t160.5 71.5q93 0 151.5 -62t58.5 -170v-28h-364q2 -86 44.5 -138.5t113.5 -52.5q56 0 91 28t43 72h68q-10 -72 -76 -121q-124 -94 -124 -149q0 -47 61 -47h31v-47h-40q-51 0 -78 21t-27 60z
M268 440q-57 0 -98.5 -40.5t-52.5 -109.5h292q-5 75 -42 112.5t-99 37.5z" />
    <glyph glyph-name="Ecaron" unicode="&#x11a;" horiz-adv-x="606" 
d="M91 0v688h456v-62h-385v-244h309v-62h-309v-258h393v-62h-464zM289 768l-128 164h65l94 -123l94 123h65l-128 -164h-62z" />
    <glyph glyph-name="ecaron" unicode="&#x11b;" horiz-adv-x="519" 
d="M43 244q0 112 64.5 183.5t160.5 71.5q93 0 151.5 -62t58.5 -170v-28h-364q2 -86 44.5 -138.5t113.5 -52.5q56 0 91 28t43 72h68q-10 -68 -66 -113.5t-136 -45.5q-109 0 -169 69t-60 186zM268 440q-57 0 -98.5 -40.5t-52.5 -109.5h292q-5 75 -42 112.5t-99 37.5zM237 568
l-128 164h65l94 -123l94 123h65l-128 -164h-62z" />
    <glyph glyph-name="Gcircumflex" unicode="&#x11c;" horiz-adv-x="755" 
d="M629 0l-12 118h-1q-70 -129 -239 -129q-145 0 -237.5 101.5t-92.5 253.5q0 155 93.5 255t241.5 100q117 0 194 -59.5t99 -153.5h-74q-18 65 -74 106.5t-145 41.5q-117 0 -189 -81.5t-72 -208.5q0 -124 71.5 -207t184.5 -83q98 0 166 55t68 155v34h-230v62h295v-360h-47z
M223 768l128 164h62l128 -164h-65l-94 123l-94 -123h-65z" />
    <glyph glyph-name="gcircumflex" unicode="&#x11d;" horiz-adv-x="576" 
d="M55 -60h65q0 -52 40 -82t105 -30q166 0 166 193v66h-3q-47 -98 -172 -98q-93 0 -153 68t-60 183t63 187t156 72q120 0 166 -98h3v87h65v-467q0 -129 -63.5 -189t-167.5 -60q-93 0 -151.5 44.5t-58.5 123.5zM114 240q0 -90 44.5 -141t112.5 -51q66 0 110 50t47 137v18
q-3 87 -47 137t-110 50q-68 0 -112.5 -55t-44.5 -145zM113 568l128 164h62l128 -164h-65l-94 123l-94 -123h-65z" />
    <glyph glyph-name="Gbreve" unicode="&#x11e;" horiz-adv-x="755" 
d="M629 0l-12 118h-1q-70 -129 -239 -129q-145 0 -237.5 101.5t-92.5 253.5q0 155 93.5 255t241.5 100q117 0 194 -59.5t99 -153.5h-74q-18 65 -74 106.5t-145 41.5q-117 0 -189 -81.5t-72 -208.5q0 -124 71.5 -207t184.5 -83q98 0 166 55t68 155v34h-230v62h295v-360h-47z
M382 784q-53 0 -92 32.5t-47 101.5h44q14 -90 95 -90t95 90h44q-8 -69 -47 -101.5t-92 -32.5z" />
    <glyph glyph-name="gbreve" unicode="&#x11f;" horiz-adv-x="576" 
d="M55 -60h65q0 -52 40 -82t105 -30q166 0 166 193v66h-3q-47 -98 -172 -98q-93 0 -153 68t-60 183t63 187t156 72q120 0 166 -98h3v87h65v-467q0 -129 -63.5 -189t-167.5 -60q-93 0 -151.5 44.5t-58.5 123.5zM114 240q0 -90 44.5 -141t112.5 -51q66 0 110 50t47 137v18
q-3 87 -47 137t-110 50q-68 0 -112.5 -55t-44.5 -145zM272 584q-53 0 -92 32.5t-47 101.5h44q14 -90 95 -90t95 90h44q-8 -69 -47 -101.5t-92 -32.5z" />
    <glyph glyph-name="Gdotaccent" unicode="&#x120;" horiz-adv-x="755" 
d="M629 0l-12 118h-1q-70 -129 -239 -129q-145 0 -237.5 101.5t-92.5 253.5q0 155 93.5 255t241.5 100q117 0 194 -59.5t99 -153.5h-74q-18 65 -74 106.5t-145 41.5q-117 0 -189 -81.5t-72 -208.5q0 -124 71.5 -207t184.5 -83q98 0 166 55t68 155v34h-230v62h295v-360h-47z
M348 805v90h68v-90h-68z" />
    <glyph glyph-name="gdotaccent" unicode="&#x121;" horiz-adv-x="576" 
d="M55 -60h65q0 -52 40 -82t105 -30q166 0 166 193v66h-3q-47 -98 -172 -98q-93 0 -153 68t-60 183t63 187t156 72q120 0 166 -98h3v87h65v-467q0 -129 -63.5 -189t-167.5 -60q-93 0 -151.5 44.5t-58.5 123.5zM114 240q0 -90 44.5 -141t112.5 -51q66 0 110 50t47 137v18
q-3 87 -47 137t-110 50q-68 0 -112.5 -55t-44.5 -145zM238 605v90h68v-90h-68z" />
    <glyph glyph-name="Gcommaaccent" unicode="&#x122;" horiz-adv-x="755" 
d="M629 0l-12 118h-1q-70 -129 -239 -129q-145 0 -237.5 101.5t-92.5 253.5q0 155 93.5 255t241.5 100q117 0 194 -59.5t99 -153.5h-74q-18 65 -74 106.5t-145 41.5q-117 0 -189 -81.5t-72 -208.5q0 -124 71.5 -207t184.5 -83q98 0 166 55t68 155v34h-230v62h295v-360h-47z
M343 -66h68v-74l-36 -103h-31l27 97h-28v80z" />
    <glyph glyph-name="gcommaaccent" unicode="&#x123;" horiz-adv-x="576" 
d="M55 -60h65q0 -52 40 -82t105 -30q166 0 166 193v66h-3q-47 -98 -172 -98q-93 0 -153 68t-60 183t63 187t156 72q120 0 166 -98h3v87h65v-467q0 -129 -63.5 -189t-167.5 -60q-93 0 -151.5 44.5t-58.5 123.5zM114 240q0 -90 44.5 -141t112.5 -51q66 0 110 50t47 137v18
q-3 87 -47 137t-110 50q-68 0 -112.5 -55t-44.5 -145zM238 568v74l36 103h31l-27 -97h28v-80h-68z" />
    <glyph glyph-name="Hcircumflex" unicode="&#x124;" horiz-adv-x="716" 
d="M91 0v688h71v-308h392v308h71v-688h-71v318h-392v-318h-71zM199 768l128 164h62l128 -164h-65l-94 123l-94 -123h-65z" />
    <glyph glyph-name="hcircumflex" unicode="&#x125;" horiz-adv-x="558" 
d="M80 0v732h68v-146q0 -106 -3 -178h3q43 91 160 91q79 0 128 -48t49 -152v-299h-68v290q0 150 -123 150q-63 0 -104.5 -49t-41.5 -135v-256h-68zM-45 809l128 164h62l128 -164h-65l-94 123l-94 -123h-65z" />
    <glyph glyph-name="Hbar" unicode="&#x126;" horiz-adv-x="716" 
d="M1 510v58h90v120h71v-120h392v120h71v-120h90v-58h-90v-510h-71v319h-392v-319h-71v510h-90zM162 510v-130h392v130h-392z" />
    <glyph glyph-name="hbar" unicode="&#x127;" horiz-adv-x="558" 
d="M0 599v47h80v86h68v-86h155v-47h-155v-13q0 -106 -3 -178h3q43 91 160 91q79 0 128 -48t49 -152v-299h-68v290q0 150 -123 150q-63 0 -104.5 -49t-41.5 -136v-255h-68v599h-80z" />
    <glyph glyph-name="Itilde" unicode="&#x128;" horiz-adv-x="253" 
d="M91 0v688h71v-688h-71zM-29 800q2 43 24.5 71t62.5 28q30 0 77.5 -25.5t63.5 -25.5q38 0 46 52h38q-2 -43 -24.5 -71t-62.5 -28q-30 0 -77.5 25.5t-63.5 25.5q-38 0 -46 -52h-38z" />
    <glyph glyph-name="itilde" unicode="&#x129;" horiz-adv-x="228" 
d="M80 0v488h68v-488h-68zM-41 600q2 43 24.5 71t62.5 28q30 0 77.5 -25.5t63.5 -25.5q38 0 46 52h38q-2 -43 -24.5 -71t-62.5 -28q-30 0 -77.5 25.5t-63.5 25.5q-38 0 -46 -52h-38z" />
    <glyph glyph-name="Imacron" unicode="&#x12a;" horiz-adv-x="253" 
d="M91 0v688h71v-688h-71zM-13 823v53h276v-53h-276z" />
    <glyph glyph-name="imacron" unicode="&#x12b;" horiz-adv-x="228" 
d="M80 0v488h68v-488h-68zM-25 623v53h276v-53h-276z" />
    <glyph glyph-name="Ibreve" unicode="&#x12c;" horiz-adv-x="253" 
d="M91 0v688h71v-688h-71zM126 784q-53 0 -92 32.5t-47 101.5h44q14 -90 95 -90t95 90h44q-8 -69 -47 -101.5t-92 -32.5z" />
    <glyph glyph-name="ibreve" unicode="&#x12d;" horiz-adv-x="228" 
d="M80 0v488h68v-488h-68zM114 584q-53 0 -92 32.5t-47 101.5h44q14 -90 95 -90t95 90h44q-8 -69 -47 -101.5t-92 -32.5z" />
    <glyph glyph-name="Iogonek" unicode="&#x12e;" horiz-adv-x="253" 
d="M91 0v688h71v-688h-2q-61 -65 -61 -116q0 -53 61 -53h30v-47h-39q-50 0 -77.5 24t-27.5 64q0 63 75 128h-30z" />
    <glyph glyph-name="iogonek" unicode="&#x12f;" horiz-adv-x="228" 
d="M80 0v488h68v-488q-61 -65 -61 -116q0 -53 61 -53h30v-47h-39q-50 0 -77.5 24t-27.5 64q0 63 75 128h-29zM77 636v96h74v-96h-74z" />
    <glyph glyph-name="Idotaccent" unicode="&#x130;" horiz-adv-x="253" 
d="M91 0v688h71v-688h-71zM92 805v90h68v-90h-68z" />
    <glyph glyph-name="dotlessi" unicode="&#x131;" horiz-adv-x="228" 
d="M80 0v488h68v-488h-68z" />
    <glyph glyph-name="IJ" unicode="&#x132;" horiz-adv-x="769" 
d="M91 0v688h71v-688h-71zM301 193v35h71v-32q0 -145 124 -145q56 0 89.5 35t33.5 110v492h71v-495q0 -105 -52.5 -154.5t-141.5 -49.5q-90 0 -142.5 49.5t-52.5 154.5z" />
    <glyph glyph-name="ij" unicode="&#x133;" horiz-adv-x="456" 
d="M77 636v96h74v-96h-74zM80 0v488h68v-488h-68zM305 636v96h74v-96h-74zM308 -84v572h68v-584q0 -124 -125 -124h-30v59h24q33 0 48 18.5t15 58.5z" />
    <glyph glyph-name="Jcircumflex" unicode="&#x134;" horiz-adv-x="513" 
d="M45 193v35h71v-29q0 -148 124 -148q55 0 89 36t34 112v489h71v-495q0 -105 -52.5 -154.5t-141.5 -49.5q-90 0 -142.5 49.5t-52.5 154.5zM242 768l128 164h62l128 -164h-65l-94 123l-94 -123h-65z" />
    <glyph glyph-name="jcircumflex" unicode="&#x135;" horiz-adv-x="228" 
d="M80 -84v572h68v-584q0 -124 -125 -124h-30v59h24q33 0 48 18.5t15 58.5zM-45 568l128 164h62l128 -164h-65l-94 123l-94 -123h-65z" />
    <glyph glyph-name="Kcommaaccent" unicode="&#x136;" horiz-adv-x="646" 
d="M91 0v688h71v-401l370 401h84l-280 -298l294 -390h-80l-261 340l-127 -136v-204h-71zM300 -66h68v-74l-36 -103h-31l27 97h-28v80z" />
    <glyph glyph-name="kcommaaccent" unicode="&#x137;" horiz-adv-x="496" 
d="M80 0v732h68v-508l238 264h81l-182 -197l203 -291h-81l-168 241l-91 -99v-142h-68zM230 -66h68v-74l-36 -103h-31l27 97h-28v80z" />
    <glyph glyph-name="Lacute" unicode="&#x139;" horiz-adv-x="541" 
d="M91 0v688h71v-626h351v-62h-422zM99 768l106 164h81l-137 -164h-50z" />
    <glyph glyph-name="lacute" unicode="&#x13a;" horiz-adv-x="228" 
d="M80 0v732h68v-732h-68zM88 812l106 164h81l-137 -164h-50z" />
    <glyph glyph-name="Lcommaaccent" unicode="&#x13b;" horiz-adv-x="541" 
d="M91 0v688h71v-626h351v-62h-422zM261 -66h68v-74l-36 -103h-31l27 97h-28v80z" />
    <glyph glyph-name="lcommaaccent" unicode="&#x13c;" horiz-adv-x="228" 
d="M80 0v732h68v-732h-68zM80 -66h68v-74l-36 -103h-31l27 97h-28v80z" />
    <glyph glyph-name="Lcaron" unicode="&#x13d;" horiz-adv-x="541" 
d="M91 0v688h71v-626h351v-62h-422zM327 484l28 115h-30v89h74v-84l-38 -120h-34z" />
    <glyph glyph-name="lcaron" unicode="&#x13e;" horiz-adv-x="228" 
d="M234 528l28 115h-30v89h74v-84l-38 -120h-34zM80 0v732h68v-732h-68z" />
    <glyph glyph-name="Ldot" unicode="&#x13f;" horiz-adv-x="541" 
d="M91 0v688h71v-626h351v-62h-422zM301 304v96h74v-96h-74z" />
    <glyph glyph-name="ldot" unicode="&#x140;" horiz-adv-x="290" 
d="M80 0v732h68v-732h-68zM225 292v96h74v-96h-74z" />
    <glyph glyph-name="Lslash" unicode="&#x141;" horiz-adv-x="541" 
d="M19 194l-34 46l106 76v372h71v-321l154 110l34 -46l-188 -135v-234h351v-62h-422v245z" />
    <glyph glyph-name="lslash" unicode="&#x142;" horiz-adv-x="228" 
d="M-14 263l94 92v377h68v-310l66 65l31 -37l-97 -95v-355h-68v288l-63 -62z" />
    <glyph glyph-name="Nacute" unicode="&#x143;" horiz-adv-x="723" 
d="M91 0v688h68l402 -568h3l-3 568h71v-688h-68l-402 565h-3l3 -565h-71zM335 768l106 164h81l-137 -164h-50z" />
    <glyph glyph-name="nacute" unicode="&#x144;" horiz-adv-x="558" 
d="M80 0v488h65v-80h3q43 91 160 91q79 0 128 -48t49 -152v-299h-68v290q0 150 -123 150q-63 0 -104.5 -49.5t-41.5 -136.5v-254h-68zM254 568l106 164h81l-137 -164h-50z" />
    <glyph glyph-name="Ncommaaccent" unicode="&#x145;" horiz-adv-x="723" 
d="M91 0v688h68l402 -568h3l-3 568h71v-688h-68l-402 565h-3l3 -565h-71zM327 -66h68v-74l-36 -103h-31l27 97h-28v80z" />
    <glyph glyph-name="ncommaaccent" unicode="&#x146;" horiz-adv-x="558" 
d="M80 0v488h65v-80h3q43 91 160 91q79 0 128 -48t49 -152v-299h-68v290q0 150 -123 150q-63 0 -104.5 -49.5t-41.5 -136.5v-254h-68zM243 -66h68v-74l-36 -103h-31l27 97h-28v80z" />
    <glyph glyph-name="Ncaron" unicode="&#x147;" horiz-adv-x="723" 
d="M91 0v688h68l402 -568h3l-3 568h71v-688h-68l-402 565h-3l3 -565h-71zM330 768l-128 164h65l94 -123l94 123h65l-128 -164h-62z" />
    <glyph glyph-name="ncaron" unicode="&#x148;" horiz-adv-x="558" 
d="M80 0v488h65v-80h3q43 91 160 91q79 0 128 -48t49 -152v-299h-68v290q0 150 -123 150q-63 0 -104.5 -49.5t-41.5 -136.5v-254h-68zM249 568l-128 164h65l94 -123l94 123h65l-128 -164h-62z" />
    <glyph glyph-name="napostrophe" unicode="&#x149;" horiz-adv-x="558" 
d="M80 0v488h65v-80h3q43 91 160 91q79 0 128 -48t49 -152v-299h-68v290q0 150 -123 150q-63 0 -104.5 -49.5t-41.5 -136.5v-254h-68zM77 568l27 97h-28v80h68v-74l-36 -103h-31z" />
    <glyph glyph-name="Eng" unicode="&#x14a;" horiz-adv-x="723" 
d="M91 0v688h68l402 -567h2l-2 567h71v-735q0 -95 -40.5 -134t-121.5 -39h-48v65h45q48 0 71 26.5t23 87.5v45l-399 561h-3l3 -565h-71z" />
    <glyph glyph-name="eng" unicode="&#x14b;" horiz-adv-x="558" 
d="M417 -84v374q0 150 -123 150q-63 0 -104.5 -49t-41.5 -135v-256h-68v488h65v-80h3q43 91 160 91q79 0 128 -48t49 -152v-395q0 -124 -125 -124h-30v59h24q33 0 48 18.5t15 58.5z" />
    <glyph glyph-name="Omacron" unicode="&#x14c;" horiz-adv-x="754" 
d="M47 344q0 154 92 254.5t238 100.5q144 0 237 -100.5t93 -254.5t-93 -254.5t-237 -100.5q-146 0 -238 100.5t-92 254.5zM121 344q0 -126 71 -208t185 -82q113 0 184.5 82t71.5 208t-71.5 208t-184.5 82q-114 0 -185 -82t-71 -208zM238 823v53h276v-53h-276z" />
    <glyph glyph-name="omacron" unicode="&#x14d;" horiz-adv-x="550" 
d="M43 244q0 114 65.5 184.5t166.5 70.5q106 0 169 -69.5t63 -185.5q0 -114 -65.5 -184.5t-166.5 -70.5q-106 0 -169 69.5t-63 185.5zM114 244q0 -88 45 -142t116 -54q70 0 115.5 54.5t45.5 141.5q0 89 -44.5 142.5t-116.5 53.5q-70 0 -115.5 -54.5t-45.5 -141.5zM136 623
v53h276v-53h-276z" />
    <glyph glyph-name="Obreve" unicode="&#x14e;" horiz-adv-x="754" 
d="M47 344q0 154 92 254.5t238 100.5q144 0 237 -100.5t93 -254.5t-93 -254.5t-237 -100.5q-146 0 -238 100.5t-92 254.5zM121 344q0 -126 71 -208t185 -82q113 0 184.5 82t71.5 208t-71.5 208t-184.5 82q-114 0 -185 -82t-71 -208zM377 784q-53 0 -92 32.5t-47 101.5h44
q14 -90 95 -90t95 90h44q-8 -69 -47 -101.5t-92 -32.5z" />
    <glyph glyph-name="obreve" unicode="&#x14f;" horiz-adv-x="550" 
d="M43 244q0 114 65.5 184.5t166.5 70.5q106 0 169 -69.5t63 -185.5q0 -114 -65.5 -184.5t-166.5 -70.5q-106 0 -169 69.5t-63 185.5zM114 244q0 -88 45 -142t116 -54q70 0 115.5 54.5t45.5 141.5q0 89 -44.5 142.5t-116.5 53.5q-70 0 -115.5 -54.5t-45.5 -141.5zM275 584
q-53 0 -92 32.5t-47 101.5h44q14 -90 95 -90t95 90h44q-8 -69 -47 -101.5t-92 -32.5z" />
    <glyph glyph-name="Ohungarumlaut" unicode="&#x150;" horiz-adv-x="754" 
d="M47 344q0 154 92 254.5t238 100.5q144 0 237 -100.5t93 -254.5t-93 -254.5t-237 -100.5q-146 0 -238 100.5t-92 254.5zM121 344q0 -126 71 -208t185 -82q113 0 184.5 82t71.5 208t-71.5 208t-184.5 82q-114 0 -185 -82t-71 -208zM439 768l106 164h80l-136 -164h-50z
M262 768l106 164h80l-136 -164h-50z" />
    <glyph glyph-name="ohungarumlaut" unicode="&#x151;" horiz-adv-x="550" 
d="M43 244q0 114 65.5 184.5t166.5 70.5q106 0 169 -69.5t63 -185.5q0 -114 -65.5 -184.5t-166.5 -70.5q-106 0 -169 69.5t-63 185.5zM114 244q0 -88 45 -142t116 -54q70 0 115.5 54.5t45.5 141.5q0 89 -44.5 142.5t-116.5 53.5q-70 0 -115.5 -54.5t-45.5 -141.5zM337 568
l106 164h80l-136 -164h-50zM160 568l106 164h80l-136 -164h-50z" />
    <glyph glyph-name="OE" unicode="&#x152;" horiz-adv-x="1034" 
d="M408 0q-174 0 -267.5 94t-93.5 250t93.5 250t267.5 94h567v-62h-385v-244h309v-62h-309v-258h393v-62h-575zM121 344q0 -125 71 -203.5t216 -78.5h111v564h-111q-145 0 -216 -78.5t-71 -203.5z" />
    <glyph glyph-name="oe" unicode="&#x153;" horiz-adv-x="909" 
d="M43 244q0 114 65.5 184.5t166.5 70.5q136 0 195 -116q29 55 78 85.5t110 30.5q93 0 151.5 -62t58.5 -170v-28h-364q2 -86 44.5 -138.5t113.5 -52.5q55 0 90.5 28t43.5 72h68q-10 -68 -66 -113.5t-136 -45.5q-139 0 -194 114q-29 -54 -79.5 -84t-113.5 -30
q-106 0 -169 69.5t-63 185.5zM114 244q0 -88 45 -142t116 -54q70 0 115.5 54.5t45.5 141.5q0 89 -44.5 142.5t-116.5 53.5q-70 0 -115.5 -54.5t-45.5 -141.5zM658 440q-57 0 -98.5 -41t-52.5 -109h292q-5 75 -42 112.5t-99 37.5z" />
    <glyph glyph-name="Racute" unicode="&#x154;" horiz-adv-x="645" 
d="M91 0v688h258q112 0 171.5 -51.5t59.5 -146.5q0 -80 -42 -133.5t-120 -69.5l182 -287h-77l-181 281h-180v-281h-71zM352 626h-190v-283h190q76 0 116.5 40.5t40.5 106.5q0 64 -40.5 100t-116.5 36zM284 768l106 164h81l-137 -164h-50z" />
    <glyph glyph-name="racute" unicode="&#x155;" horiz-adv-x="350" 
d="M80 0v488h65v-80h3q18 42 52 66.5t79 24.5q41 0 69 -20l-22 -61q-29 16 -61 16q-56 0 -86.5 -51t-30.5 -125v-258h-68zM189 568l106 164h81l-137 -164h-50z" />
    <glyph glyph-name="Rcommaaccent" unicode="&#x156;" horiz-adv-x="645" 
d="M91 0v688h258q112 0 171.5 -51.5t59.5 -146.5q0 -80 -42 -133.5t-120 -69.5l182 -287h-77l-181 281h-180v-281h-71zM352 626h-190v-283h190q76 0 116.5 40.5t40.5 106.5q0 64 -40.5 100t-116.5 36zM287 -66h68v-74l-36 -103h-31l27 97h-28v80z" />
    <glyph glyph-name="rcommaaccent" unicode="&#x157;" horiz-adv-x="350" 
d="M80 0v488h65v-80h3q18 42 52 66.5t79 24.5q41 0 69 -20l-22 -61q-29 16 -61 16q-56 0 -86.5 -51t-30.5 -125v-258h-68zM80 -66h68v-74l-36 -103h-31l27 97h-28v80z" />
    <glyph glyph-name="Rcaron" unicode="&#x158;" horiz-adv-x="645" 
d="M91 0v688h258q112 0 171.5 -51.5t59.5 -146.5q0 -80 -42 -133.5t-120 -69.5l182 -287h-77l-181 281h-180v-281h-71zM352 626h-190v-283h190q76 0 116.5 40.5t40.5 106.5q0 64 -40.5 100t-116.5 36zM279 768l-128 164h65l94 -123l94 123h65l-128 -164h-62z" />
    <glyph glyph-name="rcaron" unicode="&#x159;" horiz-adv-x="350" 
d="M80 0v488h65v-80h3q18 42 52 66.5t79 24.5q41 0 69 -20l-22 -61q-29 16 -61 16q-56 0 -86.5 -51t-30.5 -125v-258h-68zM184 568l-128 164h65l94 -123l94 123h65l-128 -164h-62z" />
    <glyph glyph-name="Sacute" unicode="&#x15a;" horiz-adv-x="638" 
d="M59 192h71q0 -66 50.5 -105t136.5 -39q89 0 138 37.5t49 103.5q0 41 -24 67.5t-62.5 39t-85 20.5t-92.5 19t-84.5 28t-62.5 53t-24 90q0 85 68 139t178 54t177.5 -50.5t67.5 -139.5h-71q0 62 -48.5 96.5t-125.5 34.5q-76 0 -125 -34.5t-49 -93.5q0 -46 32.5 -74t81 -37
t105 -21t105 -27t81 -56t32.5 -105q0 -92 -69.5 -147.5t-191.5 -55.5q-121 0 -189.5 54t-68.5 149zM289 768l106 164h81l-137 -164h-50z" />
    <glyph glyph-name="sacute" unicode="&#x15b;" horiz-adv-x="481" 
d="M40 138h65q0 -47 38 -71.5t92 -24.5q63 0 97.5 24t34.5 68q0 34 -21 51t-66 25l-92 16q-137 22 -137 127q0 67 53 106.5t134 39.5q80 0 133 -36t53 -108h-65q0 44 -34 67.5t-87 23.5t-87 -23t-34 -64q0 -33 22.5 -50t69.5 -25l92 -16q65 -12 99.5 -40.5t34.5 -87.5
q0 -73 -55 -112t-145 -39q-87 0 -141 38.5t-54 110.5zM212 568l106 164h81l-137 -164h-50z" />
    <glyph glyph-name="Scircumflex" unicode="&#x15c;" horiz-adv-x="638" 
d="M59 192h71q0 -66 50.5 -105t136.5 -39q89 0 138 37.5t49 103.5q0 41 -24 67.5t-62.5 39t-85 20.5t-92.5 19t-84.5 28t-62.5 53t-24 90q0 85 68 139t178 54t177.5 -50.5t67.5 -139.5h-71q0 62 -48.5 96.5t-125.5 34.5q-76 0 -125 -34.5t-49 -93.5q0 -46 32.5 -74t81 -37
t105 -21t105 -27t81 -56t32.5 -105q0 -92 -69.5 -147.5t-191.5 -55.5q-121 0 -189.5 54t-68.5 149zM156 768l128 164h62l128 -164h-65l-94 123l-94 -123h-65z" />
    <glyph glyph-name="scircumflex" unicode="&#x15d;" horiz-adv-x="481" 
d="M40 138h65q0 -47 38 -71.5t92 -24.5q63 0 97.5 24t34.5 68q0 34 -21 51t-66 25l-92 16q-137 22 -137 127q0 67 53 106.5t134 39.5q80 0 133 -36t53 -108h-65q0 44 -34 67.5t-87 23.5t-87 -23t-34 -64q0 -33 22.5 -50t69.5 -25l92 -16q65 -12 99.5 -40.5t34.5 -87.5
q0 -73 -55 -112t-145 -39q-87 0 -141 38.5t-54 110.5zM79 568l128 164h62l128 -164h-65l-94 123l-94 -123h-65z" />
    <glyph glyph-name="Scedilla" unicode="&#x15e;" horiz-adv-x="638" 
d="M275 -78l24 68q-112 4 -176 57.5t-64 144.5h71q0 -66 50.5 -105t136.5 -39q89 0 138 37.5t49 103.5q0 41 -24 67.5t-62.5 39t-85 20.5t-92.5 19t-84.5 28t-62.5 53t-24 90q0 85 68 139t178 54t177.5 -50.5t67.5 -139.5h-71q0 62 -48.5 96.5t-125.5 34.5q-76 0 -125 -34.5
t-49 -93.5q0 -46 32.5 -74t81 -37t105 -21t105 -27t81 -56t32.5 -105q0 -90 -66.5 -145t-184.5 -58l-4 -29q44 -2 68 -26t24 -59q0 -40 -27.5 -65.5t-81.5 -25.5h-53v44h50q59 0 59 47t-60 47h-27z" />
    <glyph glyph-name="scedilla" unicode="&#x15f;" horiz-adv-x="481" 
d="M194 -78l24 68q-81 4 -129.5 41.5t-48.5 106.5h65q0 -47 38 -71.5t92 -24.5q63 0 97.5 24t34.5 68q0 34 -21 51t-66 25l-92 16q-137 22 -137 127q0 67 53 106.5t134 39.5q80 0 133 -36t53 -108h-65q0 44 -34 67.5t-87 23.5t-87 -23t-34 -64q0 -33 22.5 -50t69.5 -25
l92 -16q65 -12 99.5 -40.5t34.5 -87.5q0 -70 -51.5 -109t-137.5 -42l-4 -29q44 -2 68 -26t24 -59q0 -40 -27.5 -65.5t-81.5 -25.5h-53v44h50q59 0 59 47t-60 47h-27z" />
    <glyph glyph-name="Scaron" unicode="&#x160;" horiz-adv-x="638" 
d="M59 192h71q0 -66 50.5 -105t136.5 -39q89 0 138 37.5t49 103.5q0 41 -24 67.5t-62.5 39t-85 20.5t-92.5 19t-84.5 28t-62.5 53t-24 90q0 85 68 139t178 54t177.5 -50.5t67.5 -139.5h-71q0 62 -48.5 96.5t-125.5 34.5q-76 0 -125 -34.5t-49 -93.5q0 -46 32.5 -74t81 -37
t105 -21t105 -27t81 -56t32.5 -105q0 -92 -69.5 -147.5t-191.5 -55.5q-121 0 -189.5 54t-68.5 149zM284 768l-128 164h65l94 -123l94 123h65l-128 -164h-62z" />
    <glyph glyph-name="scaron" unicode="&#x161;" horiz-adv-x="481" 
d="M40 138h65q0 -47 38 -71.5t92 -24.5q63 0 97.5 24t34.5 68q0 34 -21 51t-66 25l-92 16q-137 22 -137 127q0 67 53 106.5t134 39.5q80 0 133 -36t53 -108h-65q0 44 -34 67.5t-87 23.5t-87 -23t-34 -64q0 -33 22.5 -50t69.5 -25l92 -16q65 -12 99.5 -40.5t34.5 -87.5
q0 -73 -55 -112t-145 -39q-87 0 -141 38.5t-54 110.5zM207 568l-128 164h65l94 -123l94 123h65l-128 -164h-62z" />
    <glyph glyph-name="Tcommaaccent" unicode="&#x162;" horiz-adv-x="579" 
d="M250 -78l28 78h-24v628h-246v60h563v-60h-246v-628h-21l-6 -40q44 -2 68 -26t24 -59q0 -40 -27.5 -65.5t-81.5 -25.5h-53v44h50q59 0 59 47t-60 47h-27z" />
    <glyph glyph-name="tcommaaccent" unicode="&#x163;" horiz-adv-x="317" 
d="M143 -78l27 86q-78 24 -78 132v293h-96v55h96v148h68v-148h133v-55h-133v-290q0 -46 18.5 -65t59.5 -19h55v-59h-64q-23 0 -33 2l-5 -42q44 -2 68 -26t24 -59q0 -40 -27.5 -65.5t-81.5 -25.5h-53v44h50q59 0 59 47t-60 47h-27z" />
    <glyph glyph-name="Tcaron" unicode="&#x164;" horiz-adv-x="579" 
d="M8 628v60h563v-60h-246v-628h-71v628h-246zM257 768l-128 164h65l94 -123l94 123h65l-128 -164h-62z" />
    <glyph glyph-name="tcaron" unicode="&#x165;" horiz-adv-x="317" 
d="M92 140v293h-98v55h98v148h68v-148h133v-55h-133v-290q0 -46 18.5 -65t59.5 -19h55v-59h-64q-137 0 -137 140zM223 549l28 115h-30v89h74v-84l-38 -120h-34z" />
    <glyph glyph-name="Tbar" unicode="&#x166;" horiz-adv-x="579" 
d="M8 628v60h563v-60h-246v-272h186v-55h-186v-301h-71v301h-186v55h186v272h-246z" />
    <glyph glyph-name="tbar" unicode="&#x167;" horiz-adv-x="317" 
d="M-6 232v47h98v154h-98v55h98v148h68v-148h133v-55h-133v-154h133v-47h-133v-89q0 -46 18.5 -65t59.5 -19h55v-59h-64q-137 0 -137 140v92h-98z" />
    <glyph glyph-name="Utilde" unicode="&#x168;" horiz-adv-x="688" 
d="M76 271v417h71v-417q0 -106 50 -161.5t147 -55.5q96 0 146.5 55.5t50.5 161.5v417h71v-417q0 -144 -71.5 -213t-196.5 -69t-196.5 69t-71.5 213zM189 800q2 43 24.5 71t62.5 28q30 0 77.5 -25.5t63.5 -25.5q38 0 46 52h38q-2 -43 -24.5 -71t-62.5 -28q-30 0 -77.5 25.5
t-63.5 25.5q-38 0 -46 -52h-38z" />
    <glyph glyph-name="utilde" unicode="&#x169;" horiz-adv-x="553" 
d="M72 189v299h68v-290q0 -150 122 -150q63 0 103 49t40 138v253h68v-488h-65v80h-3q-44 -91 -157 -91q-79 0 -127.5 48t-48.5 152zM123 600q2 43 24.5 71t62.5 28q30 0 77.5 -25.5t63.5 -25.5q38 0 46 52h38q-2 -43 -24.5 -71t-62.5 -28q-30 0 -77.5 25.5t-63.5 25.5
q-38 0 -46 -52h-38z" />
    <glyph glyph-name="Umacron" unicode="&#x16a;" horiz-adv-x="688" 
d="M76 271v417h71v-417q0 -106 50 -161.5t147 -55.5q96 0 146.5 55.5t50.5 161.5v417h71v-417q0 -144 -71.5 -213t-196.5 -69t-196.5 69t-71.5 213zM205 823v53h276v-53h-276z" />
    <glyph glyph-name="umacron" unicode="&#x16b;" horiz-adv-x="553" 
d="M72 189v299h68v-290q0 -150 122 -150q63 0 103 49t40 138v253h68v-488h-65v80h-3q-44 -91 -157 -91q-79 0 -127.5 48t-48.5 152zM139 623v53h276v-53h-276z" />
    <glyph glyph-name="Ubreve" unicode="&#x16c;" horiz-adv-x="688" 
d="M76 271v417h71v-417q0 -106 50 -161.5t147 -55.5q96 0 146.5 55.5t50.5 161.5v417h71v-417q0 -144 -71.5 -213t-196.5 -69t-196.5 69t-71.5 213zM344 784q-53 0 -92 32.5t-47 101.5h44q14 -90 95 -90t95 90h44q-8 -69 -47 -101.5t-92 -32.5z" />
    <glyph glyph-name="ubreve" unicode="&#x16d;" horiz-adv-x="553" 
d="M72 189v299h68v-290q0 -150 122 -150q63 0 103 49t40 138v253h68v-488h-65v80h-3q-44 -91 -157 -91q-79 0 -127.5 48t-48.5 152zM278 584q-53 0 -92 32.5t-47 101.5h44q14 -90 95 -90t95 90h44q-8 -69 -47 -101.5t-92 -32.5z" />
    <glyph glyph-name="Uring" unicode="&#x16e;" horiz-adv-x="688" 
d="M76 271v417h71v-417q0 -106 50 -161.5t147 -55.5q96 0 146.5 55.5t50.5 161.5v417h71v-417q0 -144 -71.5 -213t-196.5 -69t-196.5 69t-71.5 213zM344 767q-39 0 -67.5 26t-28.5 67t28.5 67t67.5 26t67.5 -26t28.5 -67t-28.5 -67t-67.5 -26zM344 802q24 0 41 16.5t17 41.5
t-17 41.5t-41 16.5t-41 -16.5t-17 -41.5t17 -41.5t41 -16.5z" />
    <glyph glyph-name="uring" unicode="&#x16f;" horiz-adv-x="553" 
d="M72 189v299h68v-290q0 -150 122 -150q63 0 103 49t40 138v253h68v-488h-65v80h-3q-44 -91 -157 -91q-79 0 -127.5 48t-48.5 152zM278 567q-39 0 -67.5 26t-28.5 67t28.5 67t67.5 26t67.5 -26t28.5 -67t-28.5 -67t-67.5 -26zM278 602q24 0 41 16.5t17 41.5t-17 41.5
t-41 16.5t-41 -16.5t-17 -41.5t17 -41.5t41 -16.5z" />
    <glyph glyph-name="Uhungarumlaut" unicode="&#x170;" horiz-adv-x="688" 
d="M76 271v417h71v-417q0 -106 50 -161.5t147 -55.5q96 0 146.5 55.5t50.5 161.5v417h71v-417q0 -144 -71.5 -213t-196.5 -69t-196.5 69t-71.5 213zM406 768l106 164h80l-136 -164h-50zM229 768l106 164h80l-136 -164h-50z" />
    <glyph glyph-name="uhungarumlaut" unicode="&#x171;" horiz-adv-x="553" 
d="M72 189v299h68v-290q0 -150 122 -150q63 0 103 49t40 138v253h68v-488h-65v80h-3q-44 -91 -157 -91q-79 0 -127.5 48t-48.5 152zM340 568l106 164h80l-136 -164h-50zM163 568l106 164h80l-136 -164h-50z" />
    <glyph glyph-name="Uogonek" unicode="&#x172;" horiz-adv-x="688" 
d="M322 -126q0 60 83 120q-32 -5 -61 -5q-125 0 -196.5 69.5t-71.5 212.5v417h71v-417q0 -106 50 -161.5t147 -55.5q96 0 146.5 55.5t50.5 161.5v417h71v-417q0 -171 -107 -241q-127 -86 -127 -144q0 -55 61 -55h30v-47h-39q-108 0 -108 90z" />
    <glyph glyph-name="uogonek" unicode="&#x173;" horiz-adv-x="553" 
d="M359 -128q0 63 75 128h-26v80h-3q-44 -91 -157 -91q-79 0 -127.5 48t-48.5 152v299h68v-290q0 -150 122 -150q63 0 103 49t40 138v253h68v-488q-61 -65 -61 -116q0 -53 61 -53h30v-47h-39q-50 0 -77.5 24t-27.5 64z" />
    <glyph glyph-name="Wcircumflex" unicode="&#x174;" horiz-adv-x="918" 
d="M199 0l-186 688h74l156 -614h4l172 614h86l172 -614h3l154 614h71l-183 -688h-89l-171 606h-3l-171 -606h-89zM301 768l128 164h62l128 -164h-65l-94 123l-94 -123h-65z" />
    <glyph glyph-name="wcircumflex" unicode="&#x175;" horiz-adv-x="711" 
d="M153 0l-145 488h71l113 -417h4l121 417h80l121 -417h4l113 417h68l-145 -488h-82l-119 420h-3l-119 -420h-82zM197 568l128 164h62l128 -164h-65l-94 123l-94 -123h-65z" />
    <glyph glyph-name="Ycircumflex" unicode="&#x176;" horiz-adv-x="594" 
d="M260 0v274l-247 414h80l202 -341h3l209 341h74l-250 -409v-279h-71zM138 768l128 164h62l128 -164h-65l-94 123l-94 -123h-65z" />
    <glyph glyph-name="ycircumflex" unicode="&#x177;" horiz-adv-x="460" 
d="M33 -169h27q84 0 122 105l18 49l-192 503h74l150 -414h3l149 414h68l-214 -571q-54 -144 -166 -144h-39v58zM70 568l128 164h62l128 -164h-65l-94 123l-94 -123h-65z" />
    <glyph glyph-name="Ydieresis" unicode="&#x178;" horiz-adv-x="594" 
d="M260 0v274l-247 414h80l202 -341h3l209 341h74l-250 -409v-279h-71zM362 805v90h68v-90h-68zM165 805v90h68v-90h-68z" />
    <glyph glyph-name="Zacute" unicode="&#x179;" horiz-adv-x="575" 
d="M57 628v60h481v-46l-413 -582h409v-60h-497v46l413 582h-393zM262 768l106 164h81l-137 -164h-50z" />
    <glyph glyph-name="zacute" unicode="&#x17a;" horiz-adv-x="433" 
d="M31 433v55h367v-46l-277 -387h281v-55h-367v40l281 393h-285zM188 568l106 164h81l-137 -164h-50z" />
    <glyph glyph-name="Zdotaccent" unicode="&#x17b;" horiz-adv-x="575" 
d="M57 628v60h481v-46l-413 -582h409v-60h-497v46l413 582h-393zM254 805v90h68v-90h-68z" />
    <glyph glyph-name="zdotaccent" unicode="&#x17c;" horiz-adv-x="433" 
d="M31 433v55h367v-46l-277 -387h281v-55h-367v40l281 393h-285zM180 605v90h68v-90h-68z" />
    <glyph glyph-name="Zcaron" unicode="&#x17d;" horiz-adv-x="575" 
d="M57 628v60h481v-46l-413 -582h409v-60h-497v46l413 582h-393zM257 768l-128 164h65l94 -123l94 123h65l-128 -164h-62z" />
    <glyph glyph-name="zcaron" unicode="&#x17e;" horiz-adv-x="433" 
d="M31 433v55h367v-46l-277 -387h281v-55h-367v40l281 393h-285zM183 568l-128 164h65l94 -123l94 123h65l-128 -164h-62z" />
    <glyph glyph-name="longs" unicode="&#x17f;" horiz-adv-x="288" 
d="M100 0v433h-97v55h97v86q0 158 155 158h53v-59h-47q-49 0 -71 -24.5t-22 -77.5v-571h-68z" />
    <glyph glyph-name="florin" unicode="&#x192;" horiz-adv-x="568" 
d="M104 305v50h129l19 181q9 83 49.5 123t103.5 40q134 0 123 -151l-3 -40h-62l3 40q7 95 -64 95t-82 -107l-19 -181h155v-50h-160l-35 -334q-9 -83 -49.5 -123t-103.5 -40q-134 0 -123 151l3 40h62l-3 -40q-7 -95 64 -95t82 107l35 334h-124z" />
    <glyph glyph-name="AEacute" unicode="&#x1fc;" horiz-adv-x="1051" 
d="M11 0l501 688h480v-62h-385v-244h309v-62h-309v-258h393v-62h-464v164h-322l-119 -164h-84zM535 606l-276 -380h277v380h-1zM547 768l106 164h81l-137 -164h-50z" />
    <glyph glyph-name="aeacute" unicode="&#x1fd;" horiz-adv-x="844" 
d="M69 336q6 81 59 122t132 41q125 0 165 -88q59 88 172 88q91 0 148.5 -62.5t57.5 -169.5v-28h-356q1 -87 43 -139t111 -52q56 0 89 27.5t41 72.5h67q-9 -68 -64 -113.5t-133 -45.5q-140 0 -195 117q-54 -117 -197 -117q-75 0 -117 36.5t-42 97.5q0 119 155 145l105 18
q38 6 52 14.5t14 26.5q0 54 -30 85t-86 31q-53 0 -87.5 -27.5t-38.5 -79.5h-65zM376 210v52q-16 -19 -56 -25l-103 -17q-99 -16 -99 -91q0 -40 27 -62t76 -22q67 0 111 41t44 124zM597 440q-58 0 -97 -40.5t-50 -109.5h281q-4 71 -40.5 110.5t-93.5 39.5zM387 568l106 164
h81l-137 -164h-50z" />
    <glyph glyph-name="Oslashacute" unicode="&#x1fe;" horiz-adv-x="754" 
d="M59 -12l81 100q-93 101 -93 256q0 154 92.5 254.5t237.5 100.5q115 0 202 -70l57 71h59l-82 -102q94 -100 94 -254q0 -153 -94 -254t-236 -101q-116 0 -203 68l-55 -69h-60zM121 344q0 -120 64 -200l351 433q-68 57 -159 57q-114 0 -185 -82t-71 -208zM633 344
q0 118 -65 199l-350 -432q66 -57 159 -57q113 0 184.5 82t71.5 208zM351 768l106 164h81l-137 -164h-50z" />
    <glyph glyph-name="oslashacute" unicode="&#x1ff;" horiz-adv-x="550" 
d="M44 -12l59 74q-60 69 -60 182q0 114 65.5 184.5t166.5 70.5q83 0 143 -46l38 47h50l-60 -74q61 -69 61 -182q0 -114 -65.5 -184.5t-166.5 -70.5q-85 0 -143 46l-38 -47h-50zM114 244q0 -76 34 -127l229 285q-43 38 -102 38q-70 0 -115.5 -54.5t-45.5 -141.5zM436 244
q0 78 -34 127l-229 -285q41 -38 102 -38q70 0 115.5 54.5t45.5 141.5zM249 568l106 164h81l-137 -164h-50z" />
    <glyph glyph-name="Scommaaccent" unicode="&#x218;" horiz-adv-x="638" 
d="M59 192h71q0 -66 50.5 -105t136.5 -39q89 0 138 37.5t49 103.5q0 41 -24 67.5t-62.5 39t-85 20.5t-92.5 19t-84.5 28t-62.5 53t-24 90q0 85 68 139t178 54t177.5 -50.5t67.5 -139.5h-71q0 62 -48.5 96.5t-125.5 34.5q-76 0 -125 -34.5t-49 -93.5q0 -46 32.5 -74t81 -37
t105 -21t105 -27t81 -56t32.5 -105q0 -92 -69.5 -147.5t-191.5 -55.5q-121 0 -189.5 54t-68.5 149zM282 -66h68v-74l-36 -103h-31l27 97h-28v80z" />
    <glyph glyph-name="scommaaccent" unicode="&#x219;" horiz-adv-x="481" 
d="M40 138h65q0 -47 38 -71.5t92 -24.5q63 0 97.5 24t34.5 68q0 34 -21 51t-66 25l-92 16q-137 22 -137 127q0 67 53 106.5t134 39.5q80 0 133 -36t53 -108h-65q0 44 -34 67.5t-87 23.5t-87 -23t-34 -64q0 -33 22.5 -50t69.5 -25l92 -16q65 -12 99.5 -40.5t34.5 -87.5
q0 -73 -55 -112t-145 -39q-87 0 -141 38.5t-54 110.5zM201 -66h68v-74l-36 -103h-31l27 97h-28v80z" />
    <glyph glyph-name="uni021A" unicode="&#x21a;" horiz-adv-x="579" 
d="M8 628v60h563v-60h-246v-628h-71v628h-246zM257 -66h68v-74l-36 -103h-31l27 97h-28v80z" />
    <glyph glyph-name="uni021B" unicode="&#x21b;" horiz-adv-x="317" 
d="M92 140v293h-96v55h96v148h68v-148h133v-55h-133v-290q0 -46 18.5 -65t59.5 -19h55v-59h-64q-137 0 -137 140zM148 -66h68v-74l-36 -103h-31l27 97h-28v80z" />
    <glyph glyph-name="circumflex" unicode="&#x2c6;" horiz-adv-x="550" 
d="M116 568l128 164h62l128 -164h-65l-94 123l-94 -123h-65z" />
    <glyph glyph-name="caron" unicode="&#x2c7;" horiz-adv-x="550" 
d="M244 568l-128 164h65l94 -123l94 123h65l-128 -164h-62z" />
    <glyph glyph-name="uni02C9" unicode="&#x2c9;" horiz-adv-x="550" 
d="M136 623v53h276v-53h-276z" />
    <glyph glyph-name="breve" unicode="&#x2d8;" horiz-adv-x="550" 
d="M275 584q-53 0 -92 32.5t-47 101.5h44q14 -90 95 -90t95 90h44q-8 -69 -47 -101.5t-92 -32.5z" />
    <glyph glyph-name="dotaccent" unicode="&#x2d9;" horiz-adv-x="550" 
d="M241 605v90h68v-90h-68z" />
    <glyph glyph-name="ring" unicode="&#x2da;" horiz-adv-x="550" 
d="M275 567q-39 0 -67.5 26t-28.5 67t28.5 67t67.5 26t67.5 -26t28.5 -67t-28.5 -67t-67.5 -26zM275 602q24 0 41 16.5t17 41.5t-17 41.5t-41 16.5t-41 -16.5t-17 -41.5t17 -41.5t41 -16.5z" />
    <glyph glyph-name="ogonek" unicode="&#x2db;" horiz-adv-x="550" 
d="M195 -128q0 63 75 128h39q-61 -65 -61 -116q0 -53 61 -53h30v-47h-39q-50 0 -77.5 24t-27.5 64z" />
    <glyph glyph-name="tilde" unicode="&#x2dc;" horiz-adv-x="550" 
d="M120 600q2 43 24.5 71t62.5 28q30 0 77.5 -25.5t63.5 -25.5q38 0 46 52h38q-2 -43 -24.5 -71t-62.5 -28q-30 0 -77.5 25.5t-63.5 25.5q-38 0 -46 -52h-38z" />
    <glyph glyph-name="hungarumlaut" unicode="&#x2dd;" horiz-adv-x="550" 
d="M337 568l106 164h80l-136 -164h-50zM160 568l106 164h80l-136 -164h-50z" />
    <glyph glyph-name="uni0394" unicode="&#x394;" horiz-adv-x="629" 
d="M29 0l244 688h83l244 -688h-571zM314 624h-2l-195 -565h391z" />
    <glyph glyph-name="uni03A9" unicode="&#x3a9;" horiz-adv-x="696" 
d="M413 0v200q60 17 108.5 74t48.5 143q0 99 -62.5 161t-159.5 62t-159.5 -62t-62.5 -161q0 -86 48.5 -143t108.5 -74v-200h-216v59h151v104q-71 33 -117 98.5t-46 155.5q0 121 82.5 201.5t210.5 80.5t210.5 -80.5t82.5 -201.5q0 -90 -46 -155.5t-117 -98.5v-104h151v-59
h-216z" />
    <glyph glyph-name="uni03BC" unicode="&#x3bc;" horiz-adv-x="562" 
d="M417 0v80h-3q-44 -91 -157 -91q-72 0 -117 42q8 -80 8 -174v-77h-68v708h68v-290q0 -150 123 -150q62 0 102.5 48.5t40.5 135.5v256h67v-488h-64z" />
    <glyph glyph-name="pi" unicode="&#x3c0;" horiz-adv-x="579" 
d="M86 0v488h407v-488h-68v429h-271v-429h-68z" />
    <glyph glyph-name="Wgrave" unicode="&#x1e80;" horiz-adv-x="918" 
d="M199 0l-186 688h74l156 -614h4l172 614h86l172 -614h3l154 614h71l-183 -688h-89l-171 606h-3l-171 -606h-89zM436 768l-137 164h81l106 -164h-50z" />
    <glyph glyph-name="wgrave" unicode="&#x1e81;" horiz-adv-x="711" 
d="M153 0l-145 488h71l113 -417h4l121 417h80l121 -417h4l113 417h68l-145 -488h-82l-119 420h-3l-119 -420h-82zM332 568l-137 164h81l106 -164h-50z" />
    <glyph glyph-name="Wacute" unicode="&#x1e82;" horiz-adv-x="918" 
d="M199 0l-186 688h74l156 -614h4l172 614h86l172 -614h3l154 614h71l-183 -688h-89l-171 606h-3l-171 -606h-89zM434 768l106 164h81l-137 -164h-50z" />
    <glyph glyph-name="wacute" unicode="&#x1e83;" horiz-adv-x="711" 
d="M153 0l-145 488h71l113 -417h4l121 417h80l121 -417h4l113 417h68l-145 -488h-82l-119 420h-3l-119 -420h-82zM330 568l106 164h81l-137 -164h-50z" />
    <glyph glyph-name="Wdieresis" unicode="&#x1e84;" horiz-adv-x="918" 
d="M199 0l-186 688h74l156 -614h4l172 614h86l172 -614h3l154 614h71l-183 -688h-89l-171 606h-3l-171 -606h-89zM525 805v90h68v-90h-68zM328 805v90h68v-90h-68z" />
    <glyph glyph-name="wdieresis" unicode="&#x1e85;" horiz-adv-x="711" 
d="M153 0l-145 488h71l113 -417h4l121 417h80l121 -417h4l113 417h68l-145 -488h-82l-119 420h-3l-119 -420h-82zM421 605v90h68v-90h-68zM224 605v90h68v-90h-68z" />
    <glyph glyph-name="Ygrave" unicode="&#x1ef2;" horiz-adv-x="594" 
d="M260 0v274l-247 414h80l202 -341h3l209 341h74l-250 -409v-279h-71zM273 768l-137 164h81l106 -164h-50z" />
    <glyph glyph-name="ygrave" unicode="&#x1ef3;" horiz-adv-x="460" 
d="M33 -169h27q84 0 122 105l18 49l-192 503h74l150 -414h3l149 414h68l-214 -571q-54 -144 -166 -144h-39v58zM205 568l-137 164h81l106 -164h-50z" />
    <glyph glyph-name="endash" unicode="&#x2013;" horiz-adv-x="556" 
d="M60 221v62h436v-62h-436z" />
    <glyph glyph-name="emdash" unicode="&#x2014;" horiz-adv-x="840" 
d="M60 221v62h720v-62h-720z" />
    <glyph glyph-name="quoteleft" unicode="&#x2018;" horiz-adv-x="231" 
d="M76 436v100l39 152h37l-29 -146h33v-106h-80z" />
    <glyph glyph-name="quoteright" unicode="&#x2019;" horiz-adv-x="231" 
d="M79 436l29 146h-33v106h80v-100l-39 -152h-37z" />
    <glyph glyph-name="quotesinglbase" unicode="&#x201a;" horiz-adv-x="231" 
d="M108 0h-33v106h80v-100l-39 -152h-37z" />
    <glyph glyph-name="quotedblleft" unicode="&#x201c;" horiz-adv-x="403" 
d="M76 436v100l39 152h37l-29 -146h33v-106h-80zM248 436v100l38 152h38l-29 -146h33v-106h-80z" />
    <glyph glyph-name="quotedblright" unicode="&#x201d;" horiz-adv-x="403" 
d="M79 436l29 146h-33v106h80v-100l-39 -152h-37zM251 436l29 146h-33v106h80v-100l-39 -152h-37z" />
    <glyph glyph-name="quotedblbase" unicode="&#x201e;" horiz-adv-x="403" 
d="M108 0h-33v106h80v-100l-39 -152h-37zM280 0h-33v106h80v-100l-39 -152h-37z" />
    <glyph glyph-name="dagger" unicode="&#x2020;" horiz-adv-x="430" 
d="M44 457v56h140v175h62v-175h140v-56h-140v-457h-62v457h-140z" />
    <glyph glyph-name="daggerdbl" unicode="&#x2021;" horiz-adv-x="430" 
d="M44 457v56h140v175h62v-175h140v-56h-140v-229h140v-56h-140v-172h-62v172h-140v56h140v229h-140z" />
    <glyph glyph-name="bullet" unicode="&#x2022;" horiz-adv-x="488" 
d="M244 80q-73 0 -122.5 49.5t-49.5 122.5t49.5 122.5t122.5 49.5t122.5 -49.5t49.5 -122.5t-49.5 -122.5t-122.5 -49.5z" />
    <glyph glyph-name="ellipsis" unicode="&#x2026;" horiz-adv-x="719" 
d="M555 0v111h86v-111h-86zM317 0v111h86v-111h-86zM79 0v111h86v-111h-86z" />
    <glyph glyph-name="perthousand" unicode="&#x2030;" horiz-adv-x="1116" 
d="M176 336q-71 0 -107.5 50t-36.5 130t36.5 130t107.5 50q72 0 108 -50t36 -130t-36 -130t-108 -50zM176 383q41 0 63 35t22 98t-21.5 98t-63.5 35q-41 0 -63 -35t-22 -98q0 -62 22 -97.5t63 -35.5zM181 -12l349 712h53l-349 -712h-53zM588 -8q-71 0 -107.5 50t-36.5 130
t36.5 130t107.5 50t107.5 -50t36.5 -130t-36.5 -130t-107.5 -50zM588 39q41 0 63 35t22 98t-21.5 98t-63.5 35q-41 0 -63 -35t-22 -98q0 -62 22 -97.5t63 -35.5zM940 -8q-71 0 -107.5 50t-36.5 130t36.5 130t107.5 50t107.5 -50t36.5 -130t-36.5 -130t-107.5 -50zM940 39
q41 0 63 35t22 98t-21.5 98t-63.5 35q-41 0 -63 -35t-22 -98q0 -62 22 -97.5t63 -35.5z" />
    <glyph glyph-name="guilsinglleft" unicode="&#x2039;" horiz-adv-x="311" 
d="M200 48l-145 204l145 204h56l-124 -204l124 -204h-56z" />
    <glyph glyph-name="guilsinglright" unicode="&#x203a;" horiz-adv-x="311" 
d="M55 48l124 204l-124 204h55l146 -204l-146 -204h-55z" />
    <glyph glyph-name="fraction" unicode="&#x2044;" horiz-adv-x="60" 
d="M-171 -12l349 712h53l-349 -712h-53z" />
    <glyph glyph-name="uni2070" unicode="&#x2070;" 
d="M176 488q-71 0 -107.5 50t-36.5 130t36.5 130t107.5 50q72 0 108 -50t36 -130t-36 -130t-108 -50zM176 535q41 0 63 35t22 98t-21.5 98t-63.5 35q-41 0 -63 -35t-22 -98q0 -62 22 -97.5t63 -35.5z" />
    <glyph glyph-name="uni2074" unicode="&#x2074;" 
d="M27 569v38l192 234h50v-225h53v-47h-53v-73h-59v73h-183zM92 616h118v145z" />
    <glyph glyph-name="uni2075" unicode="&#x2075;" 
d="M50 587h57q4 -23 23 -39t51 -16t54 20t22 53q0 35 -21.5 53t-54.5 18q-46 0 -69 -38l-57 3l12 199h229v-50h-176l-9 -101h3q26 31 78 31q56 0 90 -28.5t34 -86.5q0 -54 -38.5 -85.5t-94.5 -31.5q-63 0 -95.5 27t-37.5 72z" />
    <glyph glyph-name="uni2076" unicode="&#x2076;" 
d="M305 750h-59q-2 23 -18 38t-44 15q-82 0 -86 -128q11 20 35.5 32.5t56.5 12.5q55 0 89 -29t34 -86q0 -54 -38.5 -85.5t-94.5 -31.5q-141 0 -141 172q0 98 40 143t105 45q57 0 87 -27t34 -71zM103 606q0 -34 21 -54t55 -20q31 0 53 20t22 53q0 35 -21.5 53t-53.5 18
t-54 -18.5t-22 -51.5z" />
    <glyph glyph-name="uni2077" unicode="&#x2077;" 
d="M89 496l157 291h-209v53h280v-37l-163 -307h-65z" />
    <glyph glyph-name="uni2078" unicode="&#x2078;" 
d="M33 587q0 34 20.5 57t52.5 29v3q-28 7 -44.5 28t-16.5 50q0 42 36 68t95 26t95 -26t36 -68q0 -29 -16.5 -50t-44.5 -28v-3q32 -6 52.5 -29t20.5 -57q0 -47 -38 -73t-105 -26t-105 26t-38 73zM93 593q0 -30 23 -45.5t60 -15.5t60 15.5t23 45.5q0 29 -23 45t-60 16t-60 -16
t-23 -45zM103 749q0 -26 19.5 -40t53.5 -14t53.5 14t19.5 40t-20 40t-53 14t-53 -14t-20 -40z" />
    <glyph glyph-name="uni2079" unicode="&#x2079;" 
d="M45 586h59q2 -23 21 -38.5t47 -15.5q76 0 80 127q-8 -19 -34 -31t-56 -12q-56 0 -90.5 29t-34.5 82q0 55 38.5 88t94.5 33q141 0 141 -172q0 -188 -139 -188q-58 0 -90.5 27t-36.5 71zM247 730q0 31 -20 52t-56 21q-32 0 -53.5 -19.5t-21.5 -53.5t21.5 -52t53.5 -18
t54 18.5t22 51.5z" />
    <glyph glyph-name="parenleft.superior" unicode="&#x207d;" horiz-adv-x="204" 
d="M140 424q-32 39 -56 105.5t-24 138.5t24 138.5t56 105.5h56q-30 -37 -55 -105t-25 -139t25 -139t55 -105h-56z" />
    <glyph glyph-name="parenright.superior" unicode="&#x207e;" horiz-adv-x="204" 
d="M8 424q30 37 55 105t25 139t-25 139t-55 105h56q32 -39 56 -105.5t24 -138.5t-24 -138.5t-56 -105.5h-56z" />
    <glyph glyph-name="n.superior" unicode="&#x207f;" horiz-adv-x="406" 
d="M55 496v344h59v-52h3q31 60 113 60q56 0 90.5 -33.5t34.5 -104.5v-214h-62v200q0 100 -83 100q-40 0 -66.5 -32.5t-26.5 -88.5v-179h-62z" />
    <glyph glyph-name="uni2080" unicode="&#x2080;" 
d="M176 -160q-71 0 -107.5 50t-36.5 130t36.5 130t107.5 50q72 0 108 -50t36 -130t-36 -130t-108 -50zM176 -113q41 0 63 35t22 98t-21.5 98t-63.5 35q-41 0 -63 -35t-22 -98q0 -62 22 -97.5t63 -35.5z" />
    <glyph glyph-name="uni2081" unicode="&#x2081;" 
d="M71 69l-25 42l137 81h37v-294h98v-50h-263v50h106v223z" />
    <glyph glyph-name="uni2082" unicode="&#x2082;" 
d="M39 -152q1 66 29.5 101t79.5 61l29 15q35 17 54 33t19 37q0 57 -72 57q-35 0 -57.5 -19t-24.5 -57h-56q2 63 41.5 93t96.5 30q60 0 95.5 -26.5t35.5 -75.5q0 -22 -8 -39.5t-27 -32t-32 -22.5t-40 -21l-29 -14q-66 -33 -66 -70h204v-50h-272z" />
    <glyph glyph-name="uni2083" unicode="&#x2083;" 
d="M37 -50h56q0 -32 23 -49t60 -17t60 15.5t23 45.5q0 29 -23 45t-60 16h-29v41h29q34 0 53.5 14t19.5 40t-20 40t-53 14q-32 0 -53 -16.5t-21 -45.5h-56q0 51 36.5 79t96.5 28q56 0 92 -26t36 -68q0 -29 -16.5 -50t-44.5 -28v-2q32 -7 52.5 -30t20.5 -57q0 -47 -38 -73
t-105 -26q-139 0 -139 110z" />
    <glyph glyph-name="uni2084" unicode="&#x2084;" 
d="M27 -79v38l192 234h50v-225h53v-47h-53v-73h-59v73h-183zM92 -32h118v145z" />
    <glyph glyph-name="uni2085" unicode="&#x2085;" 
d="M50 -61h57q4 -23 23 -39t51 -16t54 20t22 53q0 35 -21.5 53t-54.5 18q-46 0 -69 -38l-57 3l12 199h229v-50h-176l-9 -101h3q26 31 78 31q56 0 90 -28.5t34 -86.5q0 -54 -38.5 -85.5t-94.5 -31.5q-63 0 -95.5 27t-37.5 72z" />
    <glyph glyph-name="uni2086" unicode="&#x2086;" 
d="M305 102h-59q-2 23 -18 38t-44 15q-82 0 -86 -128q11 20 35.5 32.5t56.5 12.5q55 0 89 -29t34 -86q0 -54 -38.5 -85.5t-94.5 -31.5q-141 0 -141 172q0 98 40 143t105 45q57 0 87 -27t34 -71zM103 -42q0 -34 21 -54t55 -20q31 0 53 20t22 53q0 35 -21.5 53t-53.5 18
t-54 -18.5t-22 -51.5z" />
    <glyph glyph-name="uni2087" unicode="&#x2087;" 
d="M89 -152l157 291h-209v53h280v-37l-163 -307h-65z" />
    <glyph glyph-name="uni2088" unicode="&#x2088;" 
d="M33 -61q0 34 20.5 57t52.5 29v3q-28 7 -44.5 28t-16.5 50q0 42 36 68t95 26t95 -26t36 -68q0 -29 -16.5 -50t-44.5 -28v-3q32 -6 52.5 -29t20.5 -57q0 -47 -38 -73t-105 -26t-105 26t-38 73zM93 -55q0 -30 23 -45.5t60 -15.5t60 15.5t23 45.5q0 29 -23 45t-60 16t-60 -16
t-23 -45zM103 101q0 -26 19.5 -40t53.5 -14t53.5 14t19.5 40t-20 40t-53 14t-53 -14t-20 -40z" />
    <glyph glyph-name="uni2089" unicode="&#x2089;" 
d="M45 -62h59q2 -23 21 -38.5t47 -15.5q76 0 80 127q-8 -19 -34 -31t-56 -12q-56 0 -90.5 29t-34.5 82q0 55 38.5 88t94.5 33q141 0 141 -172q0 -188 -139 -188q-58 0 -90.5 27t-36.5 71zM247 82q0 31 -20 52t-56 21q-32 0 -53.5 -19.5t-21.5 -53.5t21.5 -52t53.5 -18
t54 18.5t22 51.5z" />
    <glyph glyph-name="parenleft.inferior" unicode="&#x208d;" horiz-adv-x="204" 
d="M140 -224q-32 39 -56 105.5t-24 138.5t24 138.5t56 105.5h56q-30 -37 -55 -105t-25 -139t25 -139t55 -105h-56z" />
    <glyph glyph-name="parenright.inferior" unicode="&#x208e;" horiz-adv-x="204" 
d="M8 -224q30 37 55 105t25 139t-25 139t-55 105h56q32 -39 56 -105.5t24 -138.5t-24 -138.5t-56 -105.5h-56z" />
    <glyph glyph-name="Euro" unicode="&#x20ac;" horiz-adv-x="568" 
d="M21 403l12 44h61q19 116 80.5 184t162.5 68q173 0 210 -179h-66q-34 120 -141 120q-71 0 -115.5 -50.5t-59.5 -142.5h212l-12 -44h-206q-2 -38 -2 -59q0 -33 1 -48h200l-11 -44h-184q14 -97 59 -150.5t118 -53.5q53 0 84.5 24.5t49.5 75.5h66q-41 -159 -203 -159
q-104 0 -166 71t-79 192h-90l12 44h74q-2 30 -2 48q0 21 2 59h-67z" />
    <glyph glyph-name="afii61289" unicode="&#x2113;" horiz-adv-x="412" 
d="M129 26q-38 41 -38 139v74l-2 1l-59 -41l-12 24l73 61v136q0 102 18 157t55 89q37 33 85 33q47 0 74 -34.5t27 -93.5q0 -46 -17.5 -89.5t-50 -80.5t-55.5 -58.5t-58 -48.5v-109q0 -138 91 -138q63 0 118 80l22 -16q-24 -58 -68 -90.5t-101 -32.5q-66 0 -102 38zM171 342
q121 103 121 230q0 91 -55 91q-68 0 -68 -179v-141z" />
    <glyph glyph-name="afii61352" unicode="&#x2116;" horiz-adv-x="1177" 
d="M91 0v688h71l399 -571h3l-3 571h71v-688h-71l-399 568h-3l3 -568h-71zM771 516q0 81 47.5 130.5t122.5 49.5q78 0 124.5 -49t46.5 -131q0 -81 -47.5 -130t-123.5 -49q-78 0 -124 48.5t-46 130.5zM835 516q0 -58 29 -94t77 -36q47 0 77 36t30 94q0 59 -29.5 94.5
t-77.5 35.5q-47 0 -76.5 -36t-29.5 -94zM770 0v50h343v-50h-343zM770 179v50h343v-50h-343z" />
    <glyph glyph-name="trademark" unicode="&#x2122;" horiz-adv-x="784" 
d="M353 344v344h77l116 -270h3l117 270h77v-344h-56l3 267h-3l-116 -267h-47l-115 267h-3l3 -267h-56zM5 641v47h299v-47h-120v-297h-56v297h-123z" />
    <glyph glyph-name="Omega" unicode="&#x2126;" horiz-adv-x="696" 
d="M413 0v200q60 17 108.5 74t48.5 143q0 99 -62.5 161t-159.5 62t-159.5 -62t-62.5 -161q0 -86 48.5 -143t108.5 -74v-200h-216v59h151v104q-71 33 -117 98.5t-46 155.5q0 121 82.5 201.5t210.5 80.5t210.5 -80.5t82.5 -201.5q0 -90 -46 -155.5t-117 -98.5v-104h151v-59
h-216z" />
    <glyph glyph-name="estimated" unicode="&#x212e;" horiz-adv-x="850" 
d="M184 113q98 -103 243 -103q76 0 142 31t113 86h58q-55 -64 -137.5 -101.5t-176.5 -37.5q-165 0 -281 104t-116 252t116.5 252t280.5 104t280 -104t116 -252v-10h-641q-7 0 -7 -4v-194q0 -11 10 -23zM181 355h492q4 0 4 6v193q0 14 -10 24q-98 100 -240 100t-242 -103
q-11 -11 -11 -26v-188q0 -6 7 -6z" />
    <glyph glyph-name="uni2153" unicode="&#x2153;" horiz-adv-x="764" 
d="M449 102h56q0 -32 23 -49t60 -17t60 15.5t23 45.5q0 29 -23 45t-60 16h-29v41h29q34 0 53.5 14t19.5 40t-20 40t-53 14q-32 0 -53 -16.5t-21 -45.5h-56q0 51 36.5 79t96.5 28q56 0 92 -26t36 -68q0 -29 -16.5 -50t-44.5 -28v-2q32 -7 52.5 -30t20.5 -57q0 -47 -38 -73
t-105 -26q-139 0 -139 110zM198 -12l349 712h53l-349 -712h-53zM71 565l-25 42l137 81h37v-294h98v-50h-263v50h106v223z" />
    <glyph glyph-name="uni2154" unicode="&#x2154;" horiz-adv-x="764" 
d="M39 344q1 66 29.5 101t79.5 61l29 15q35 17 54 33t19 37q0 57 -72 57q-35 0 -57.5 -19t-24.5 -57h-56q2 63 41.5 93t96.5 30q60 0 95.5 -26.5t35.5 -75.5q0 -22 -8 -39.5t-27 -32t-32 -22.5t-40 -21l-29 -14q-66 -33 -66 -70h204v-50h-272zM449 102h56q0 -32 23 -49
t60 -17t60 15.5t23 45.5q0 29 -23 45t-60 16h-29v41h29q34 0 53.5 14t19.5 40t-20 40t-53 14q-32 0 -53 -16.5t-21 -45.5h-56q0 51 36.5 79t96.5 28q56 0 92 -26t36 -68q0 -29 -16.5 -50t-44.5 -28v-2q32 -7 52.5 -30t20.5 -57q0 -47 -38 -73t-105 -26q-139 0 -139 110z
M198 -12l349 712h53l-349 -712h-53z" />
    <glyph glyph-name="uni2155" unicode="&#x2155;" horiz-adv-x="764" 
d="M462 91h57q4 -23 23 -39t51 -16t54 20t22 53q0 35 -21.5 53t-54.5 18q-46 0 -69 -38l-57 3l12 199h229v-50h-176l-9 -101h3q25 31 78 31q56 0 90 -28.5t34 -86.5q0 -54 -38.5 -85.5t-94.5 -31.5q-63 0 -95.5 27t-37.5 72zM195 -12l349 712h53l-348 -712h-54zM71 565
l-25 42l137 81h37v-294h98v-50h-263v50h106v223z" />
    <glyph glyph-name="uni2156" unicode="&#x2156;" horiz-adv-x="764" 
d="M462 91h57q4 -23 23 -39t51 -16t54 20t22 53q0 35 -21.5 53t-54.5 18q-46 0 -69 -38l-57 3l12 199h229v-50h-176l-9 -100h3q25 30 78 30q56 0 90 -28.5t34 -86.5q0 -54 -38.5 -85.5t-94.5 -31.5q-63 0 -95.5 27t-37.5 72zM39 344q1 66 29.5 101t79.5 61l29 15
q35 17 54 33t19 37q0 57 -72 57q-35 0 -57.5 -19t-24.5 -57h-56q2 63 41.5 93t96.5 30q60 0 95.5 -26.5t35.5 -75.5q0 -22 -8 -39.5t-27 -32t-32 -22.5t-40 -21l-29 -14q-66 -33 -66 -70h204v-50h-272zM195 -12l349 712h53l-348 -712h-54z" />
    <glyph glyph-name="uni2157" unicode="&#x2157;" horiz-adv-x="764" 
d="M462 91h57q4 -23 23 -39t51 -16t54 20t22 53q0 35 -21.5 53t-54.5 18q-46 0 -69 -38l-57 3l12 199h229v-50h-176l-9 -100h3q25 30 78 30q56 0 90 -28.5t34 -86.5q0 -54 -38.5 -85.5t-94.5 -31.5q-63 0 -95.5 27t-37.5 72zM37 446h56q0 -32 23 -49t60 -17t60 15.5t23 45.5
q0 29 -23 45t-60 16h-29v41h29q34 0 53.5 14t19.5 40t-20 40t-53 14q-32 0 -53 -16.5t-21 -45.5h-56q0 51 36.5 79t96.5 28q56 0 92 -26t36 -68q0 -29 -16.5 -50t-44.5 -28v-2q32 -7 52.5 -30t20.5 -57q0 -47 -38 -73t-105 -26q-139 0 -139 110zM183 -12l348 712h54
l-349 -712h-53z" />
    <glyph glyph-name="uni2158" unicode="&#x2158;" horiz-adv-x="764" 
d="M27 417v38l192 234h50v-225h53v-47h-53v-73h-59v73h-183zM462 91h57q4 -23 23 -39t51 -16t54 20t22 53q0 35 -21.5 53t-54.5 18q-46 0 -69 -38l-57 3l12 199h229v-50h-176l-9 -100h3q25 30 78 30q56 0 90 -28.5t34 -86.5q0 -54 -38.5 -85.5t-94.5 -31.5q-63 0 -95.5 27
t-37.5 72zM184 -12l349 712h53l-349 -712h-53zM92 464h118v145z" />
    <glyph glyph-name="uni2159" unicode="&#x2159;" horiz-adv-x="764" 
d="M717 254h-59q-2 23 -18 38t-44 15q-82 0 -86 -128q24 45 94 45q54 0 87.5 -29t33.5 -86q0 -54 -38.5 -85.5t-94.5 -31.5q-141 0 -141 172q0 98 40 143t105 45q57 0 87 -27t34 -71zM203 -12l349 712h53l-348 -712h-54zM71 565l-25 42l137 81h37v-294h98v-50h-263v50h106
v223zM515 110q0 -32 20.5 -53t55.5 -21q31 0 53 20t22 53q0 35 -21.5 53t-53.5 18t-54 -18.5t-22 -51.5z" />
    <glyph glyph-name="uni215A" unicode="&#x215a;" horiz-adv-x="764" 
d="M717 254h-59q-2 23 -18 38t-44 15q-82 0 -86 -128q24 45 94 45q54 0 87.5 -29t33.5 -86q0 -54 -38.5 -85.5t-94.5 -31.5q-141 0 -141 172q0 98 40 143t105 45q57 0 87 -27t34 -71zM50 435h57q4 -23 23 -39t51 -16t54 20t22 53q0 35 -21.5 53t-54.5 18q-46 0 -69 -38
l-57 3l12 199h229v-50h-176l-9 -99h3q24 29 78 29q56 0 90 -28.5t34 -86.5q0 -54 -38.5 -85.5t-94.5 -31.5q-63 0 -95.5 27t-37.5 72zM181 -12l349 712h53l-349 -712h-53zM515 110q0 -38 22.5 -56t53.5 -18t53 20t22 53q0 35 -21.5 53t-53.5 18t-54 -18.5t-22 -51.5z" />
    <glyph glyph-name="uni215B" unicode="&#x215b;" horiz-adv-x="764" 
d="M445 91q0 34 20 57t52 29v3q-28 7 -44 28t-16 50q0 42 36 68t95 26t95 -26t36 -68q0 -29 -16.5 -50t-44.5 -28v-3q32 -6 52.5 -29t20.5 -57q0 -47 -38 -73t-105 -26t-105 26t-38 73zM198 -12l349 712h53l-349 -712h-53zM71 565l-25 42l137 81h37v-294h98v-50h-263v50h106
v223zM505 97q0 -30 23 -45.5t60 -15.5t60 15.5t23 45.5q0 29 -23 45t-60 16t-60 -16t-23 -45zM514 253q0 -26 20 -40t54 -14t53.5 14t19.5 40t-20 40t-53 14t-53.5 -14t-20.5 -40z" />
    <glyph glyph-name="uni215C" unicode="&#x215c;" horiz-adv-x="764" 
d="M445 91q0 34 20 57t52 29v3q-28 7 -44 28t-16 50q0 42 36 68t95 26t95 -26t36 -68q0 -29 -16.5 -50t-44.5 -28v-3q32 -6 52.5 -29t20.5 -57q0 -47 -38 -73t-105 -26t-105 26t-38 73zM37 446h56q0 -32 23 -49t60 -17t60 15.5t23 45.5q0 29 -23 45t-60 16h-29v41h29
q34 0 53.5 14t19.5 40t-20 40t-53 14q-32 0 -53 -16.5t-21 -45.5h-56q0 51 36.5 79t96.5 28q56 0 92 -26t36 -68q0 -29 -16.5 -50t-44.5 -28v-2q32 -7 52.5 -30t20.5 -57q0 -47 -38 -73t-105 -26q-139 0 -139 110zM181 -12l349 712h53l-349 -712h-53zM505 97q0 -30 23 -45.5
t60 -15.5t60 15.5t23 45.5q0 29 -23 45t-60 16t-60 -16t-23 -45zM514 253q0 -26 20 -40t54 -14t53.5 14t19.5 40t-20 40t-53 14t-53.5 -14t-20.5 -40z" />
    <glyph glyph-name="uni215D" unicode="&#x215d;" horiz-adv-x="764" 
d="M445 91q0 34 20 57t52 29v3q-28 7 -44 28t-16 50q0 42 36 68t95 26t95 -26t36 -68q0 -29 -16.5 -50t-44.5 -28v-3q32 -6 52.5 -29t20.5 -57q0 -47 -38 -73t-105 -26t-105 26t-38 73zM50 435h57q4 -23 23 -39t51 -16t54 20t22 53q0 35 -21.5 53t-54.5 18q-46 0 -69 -38
l-57 3l12 199h229v-50h-176l-9 -100h3q25 30 78 30q56 0 90 -28.5t34 -86.5q0 -54 -38.5 -85.5t-94.5 -31.5q-63 0 -95.5 27t-37.5 72zM181 -12l349 712h53l-349 -712h-53zM505 97q0 -30 23 -45.5t60 -15.5t60 15.5t23 45.5q0 29 -23 45t-60 16t-60 -16t-23 -45zM514 253
q0 -26 20 -40t54 -14t53.5 14t19.5 40t-20 40t-53 14t-53.5 -14t-20.5 -40z" />
    <glyph glyph-name="uni215E" unicode="&#x215e;" horiz-adv-x="764" 
d="M445 91q0 34 20 57t52 29v3q-28 7 -44 28t-16 50q0 42 36 68t95 26t95 -26t36 -68q0 -29 -16.5 -50t-44.5 -28v-3q32 -6 52.5 -29t20.5 -57q0 -47 -38 -73t-105 -26t-105 26t-38 73zM152 -12l349 712h53l-349 -712h-53zM89 344l157 291h-209v53h280v-37l-163 -307h-65z
M505 97q0 -30 23 -45.5t60 -15.5t60 15.5t23 45.5q0 29 -23 45t-60 16t-60 -16t-23 -45zM514 253q0 -26 20 -40t54 -14t53.5 14t19.5 40t-20 40t-53 14t-53.5 -14t-20.5 -40z" />
    <glyph glyph-name="uni2190" unicode="&#x2190;" horiz-adv-x="660" 
d="M303 46l-35 -33l-240 239l240 239l35 -33l-187 -184q48 3 162 3h354v-50h-354q-114 0 -162 3z" />
    <glyph glyph-name="uni2191" unicode="&#x2191;" horiz-adv-x="660" 
d="M124 279l-33 35l239 240l239 -240l-33 -35l-184 187q3 -48 3 -162v-354h-50v354q0 114 3 162z" />
    <glyph glyph-name="uni2192" unicode="&#x2192;" horiz-adv-x="660" 
d="M392 13l-35 33l186 184q-47 -3 -161 -3h-354v50h354q114 0 161 -3l-186 184l35 33l240 -239z" />
    <glyph glyph-name="uni2193" unicode="&#x2193;" horiz-adv-x="660" 
d="M536 225l33 -35l-239 -240l-239 240l33 35l184 -187q-3 48 -3 162v354h50v-354q0 -114 -3 -162z" />
    <glyph glyph-name="uni2196" unicode="&#x2196;" horiz-adv-x="660" 
d="M116 482h338v-47h-260q19 -16 137 -134l228 -228l-34 -37l-229 231l-33.5 33l-57 58t-42.5 46v-260h-47v338z" />
    <glyph glyph-name="uni2197" unicode="&#x2197;" horiz-adv-x="660" 
d="M221 435v47h338v-338h-47v260q-16 -19 -134 -137l-228 -231l-34 37l228 228q118 118 137 134h-260z" />
    <glyph glyph-name="uni2198" unicode="&#x2198;" horiz-adv-x="660" 
d="M221 36v47h260q-16 14 -46 42.5l-58 57l-33 33.5l-228 229l34 37l228 -231q92 -87 134 -137v260h47v-338h-338z" />
    <glyph glyph-name="uni2199" unicode="&#x2199;" horiz-adv-x="660" 
d="M194 83h260v-47h-338v338h47v-260q21 25 133 137l229 231l34 -37l-228 -229l-33 -33.5l-58 -57t-46 -42.5z" />
    <glyph glyph-name="partialdiff" unicode="&#x2202;" horiz-adv-x="568" 
d="M25 192q0 110 70 179t174 69q59 0 109.5 -28t66.5 -79q4 46 4 70q0 122 -44 179.5t-112 57.5q-64 0 -101.5 -34t-50.5 -90h-67q18 84 74.5 133.5t150.5 49.5q95 0 158 -73t63 -223q0 -202 -79.5 -308t-208.5 -106q-87 0 -147 55t-60 148zM241 48q72 0 126.5 54t54.5 127
t-43.5 112.5t-106.5 39.5q-76 0 -126 -52t-50 -134q0 -67 41 -107t104 -40z" />
    <glyph glyph-name="Delta" unicode="&#x2206;" horiz-adv-x="629" 
d="M29 0l244 688h83l244 -688h-571zM314 624h-2l-195 -565h391z" />
    <glyph glyph-name="product" unicode="&#x220f;" horiz-adv-x="711" 
d="M94 0v688h523v-688h-68v629h-387v-629h-68z" />
    <glyph glyph-name="summation" unicode="&#x2211;" horiz-adv-x="519" 
d="M26 0v41l224 300l-218 301v46h452v-59h-365l209 -285l-219 -285h389v-59h-472z" />
    <glyph glyph-name="minus" unicode="&#x2212;" horiz-adv-x="568" 
d="M57 224v59h454v-59h-454z" />
    <glyph glyph-name="uni2215" unicode="&#x2215;" horiz-adv-x="72" 
d="M-164 -12l349 712h53l-349 -712h-53z" />
    <glyph glyph-name="uni2219" unicode="&#x2219;" horiz-adv-x="244" 
d="M79 198v108h86v-108h-86z" />
    <glyph glyph-name="radical" unicode="&#x221a;" horiz-adv-x="588" 
d="M32 318v59l131 41l139 -343h3l220 613h68l-249 -688h-77l-146 346z" />
    <glyph glyph-name="infinity" unicode="&#x221e;" horiz-adv-x="708" 
d="M182 91q-70 0 -113.5 45.5t-43.5 115.5t43.5 115.5t113.5 45.5q99 0 173 -116q77 116 171 116q70 0 113.5 -45.5t43.5 -115.5t-43.5 -115.5t-113.5 -45.5q-99 0 -173 115q-78 -115 -171 -115zM180 147q68 0 141 105q-73 105 -141 105q-43 0 -70 -31t-27 -74t27 -74
t70 -31zM387 252q73 -105 141 -105q43 0 70 31t27 74t-27 74t-70 31q-68 0 -141 -105z" />
    <glyph glyph-name="integral" unicode="&#x222b;" horiz-adv-x="364" 
d="M32 -116h26q71 0 91 46t14 139l-30 509q-3 54 2.5 94.5t22.5 74.5t53 51.5t89 17.5h32v-59h-26q-71 0 -91 -46t-14 -139l30 -509q3 -54 -2.5 -94t-23 -74t-53 -52t-88.5 -18h-32v59z" />
    <glyph glyph-name="approxequal" unicode="&#x2248;" horiz-adv-x="568" 
d="M63 286q0 70 33.5 106.5t85.5 36.5q48 0 111 -41t93 -41q60 0 60 84h59q0 -69 -33 -106t-83 -37q-38 0 -76 21t-71.5 42.5t-59.5 21.5q-60 0 -60 -87h-59zM63 80q0 70 33.5 106.5t85.5 36.5q48 0 111 -41t93 -41q60 0 60 84h59q0 -69 -33 -106t-83 -37q-38 0 -76 21.5
t-71.5 42.5t-59.5 21q-60 0 -60 -87h-59z" />
    <glyph glyph-name="notequal" unicode="&#x2260;" horiz-adv-x="568" 
d="M57 329v59h266l80 144l50 -28l-64 -116h122v-59h-155l-83 -150h238v-59h-270l-80 -144l-50 28l64 116h-118v59h150l83 150h-233z" />
    <glyph glyph-name="lessequal" unicode="&#x2264;" horiz-adv-x="568" 
d="M73 308v59l422 180v-62l-354 -147l354 -145v-65zM73 0v59h422v-59h-422z" />
    <glyph glyph-name="greaterequal" unicode="&#x2265;" horiz-adv-x="568" 
d="M495 367v-59l-422 -180v62l354 145l-354 147v65zM73 0v59h422v-59h-422z" />
    <glyph glyph-name="uni25A0" unicode="&#x25a0;" horiz-adv-x="688" 
d="M0 0v688h688v-688h-688z" />
    <glyph glyph-name="uni25A1" unicode="&#x25a1;" horiz-adv-x="688" 
d="M0 0v688h688v-688h-688zM62 59h564v570h-564v-570z" />
    <glyph glyph-name="uni25B6" unicode="&#x25b6;" horiz-adv-x="500" 
d="M44 -12v512l444 -256z" />
    <glyph glyph-name="uni25B7" unicode="&#x25b7;" horiz-adv-x="500" 
d="M44 -12v512l444 -256zM106 90l273 154l-273 154v-308z" />
    <glyph glyph-name="uni25C0" unicode="&#x25c0;" horiz-adv-x="500" 
d="M12 244l444 256v-512z" />
    <glyph glyph-name="uni25C1" unicode="&#x25c1;" horiz-adv-x="500" 
d="M12 244l444 256v-512zM122 244l272 -154v308z" />
    <glyph glyph-name="lozenge" unicode="&#x25ca;" horiz-adv-x="642" 
d="M289 0l-252 344l252 344h65l250 -344l-250 -344h-65zM321 633h-2l-209 -287l212 -291h2l208 287z" />
    <glyph glyph-name="uni25CB" unicode="&#x25cb;" horiz-adv-x="552" 
d="M26 244q0 107 73 181t177 74q105 0 177.5 -73t72.5 -182q0 -107 -73 -181t-177 -74q-105 0 -177.5 73t-72.5 182zM88 244q0 -86 53.5 -142.5t134.5 -56.5q82 0 135 56.5t53 142.5t-53.5 142.5t-134.5 56.5q-82 0 -135 -56.5t-53 -142.5z" />
    <glyph glyph-name="uni25CF" unicode="&#x25cf;" horiz-adv-x="552" 
d="M26 244q0 107 73 181t177 74q105 0 177.5 -73t72.5 -182q0 -107 -73 -181t-177 -74q-105 0 -177.5 73t-72.5 182z" />
    <glyph glyph-name="uni25FB" unicode="&#x25fb;" horiz-adv-x="488" 
d="M0 0v488h488v-488h-488zM62 56h364v377h-364v-377z" />
    <glyph glyph-name="uni25FC" unicode="&#x25fc;" horiz-adv-x="488" 
d="M0 0v488h488v-488h-488z" />
    <glyph glyph-name="uni2605" unicode="&#x2605;" horiz-adv-x="546" 
d="M106 13l68 183l-162 108l5 16l195 -9l53 189h16l52 -189l196 9l5 -16l-163 -108l69 -183l-14 -10l-153 121l-153 -121z" />
    <glyph glyph-name="dotlessi.sc" unicode="&#xe08e;" horiz-adv-x="250" 
d="M91 0v520h68v-520h-68z" />
    <glyph glyph-name="g.superior" unicode="&#xe0a3;" horiz-adv-x="421" 
d="M43 454h59q0 -34 26 -52.5t69 -18.5q111 0 111 129v42h-3q-33 -65 -121 -65q-65 0 -107.5 47.5t-42.5 129.5q0 81 45 131.5t109 50.5q85 0 117 -65h3v57h59v-330q0 -175 -170 -175q-68 0 -110.5 31t-43.5 88zM98 666q0 -58 28.5 -92.5t74.5 -34.5q45 0 74.5 35.5
t29.5 93.5t-29 93.5t-75 35.5q-45 0 -74 -36t-29 -95z" />
    <glyph glyph-name="germandbls.sc" unicode="&#xe0a4;" horiz-adv-x="1036" 
d="M47 146h68q0 -48 38.5 -74.5t104.5 -26.5t102.5 25t36.5 73q0 39 -35 59t-84.5 27t-99.5 17.5t-85 42.5t-35 89q0 68 55 110.5t147 42.5q90 0 142.5 -41t52.5 -110h-65q0 43 -36 69t-94 26q-62 0 -97.5 -23.5t-35.5 -67.5q0 -34 25.5 -54t63 -26t82 -15.5t82 -20.5
t63 -41t25.5 -78q0 -74 -55.5 -117t-154.5 -43q-98 0 -154.5 42t-56.5 115zM565 146h68q0 -48 38.5 -74.5t104.5 -26.5t102.5 25t36.5 73q0 39 -35 59t-84.5 27t-99.5 17.5t-85 42.5t-35 89q0 68 55 110.5t147 42.5q90 0 142.5 -41t52.5 -110h-65q0 43 -36 69t-94 26
q-62 0 -97.5 -23.5t-35.5 -67.5q0 -34 25.5 -54t63 -26t82 -15.5t82 -20.5t63 -41t25.5 -78q0 -74 -55.5 -117t-154.5 -43q-98 0 -154.5 42t-56.5 115z" />
    <glyph glyph-name="onesuperior" unicode="&#xe105;" 
d="M71 717l-25 42l137 81h37v-294h98v-50h-263v50h106v223z" />
    <glyph glyph-name="twosuperior" unicode="&#xe107;" 
d="M39 496q1 66 29.5 101t79.5 61l29 15q35 17 54 33t19 37q0 57 -72 57q-35 0 -57.5 -19t-24.5 -57h-56q2 63 41.5 93t96.5 30q60 0 95.5 -26.5t35.5 -75.5q0 -22 -8 -39.5t-27 -32t-32 -22.5t-40 -21l-29 -14q-66 -33 -66 -70h204v-50h-272z" />
    <glyph glyph-name="threesuperior" unicode="&#xe108;" 
d="M37 598h56q0 -32 23 -49t60 -17t60 15.5t23 45.5q0 29 -23 45t-60 16h-29v41h29q34 0 53.5 14t19.5 40t-20 40t-53 14q-32 0 -53 -16.5t-21 -45.5h-56q0 51 36.5 79t96.5 28q56 0 92 -26t36 -68q0 -29 -16.5 -50t-44.5 -28v-2q32 -7 52.5 -30t20.5 -57q0 -47 -38 -73
t-105 -26q-139 0 -139 110z" />
    <glyph glyph-name="cent.denominator" unicode="&#xf629;" 
d="M41 172q0 52 31.5 87t87.5 42v50h50v-50q44 -6 71.5 -32t31.5 -59h-59q-4 19 -22 33t-47 14q-38 0 -60 -23t-22 -62t22 -62t60 -23q29 0 47 14t22 33h59q-4 -34 -31 -60t-72 -32v-49h-50v49q-56 7 -87.5 42.5t-31.5 87.5z" />
    <glyph glyph-name="dollar.denominator" unicode="&#xf62a;" 
d="M34 99h56q2 -28 26.5 -45t60.5 -17q34 0 56.5 14.5t22.5 40.5q0 24 -22 36.5t-53.5 18t-63 13.5t-53.5 29.5t-22 58.5q0 41 29.5 68t79.5 33v55h50v-55q45 -5 73.5 -30t32.5 -63h-59q-4 25 -23.5 38t-48.5 13q-33 0 -54 -13t-21 -37q0 -29 33.5 -43t73.5 -19t73.5 -28.5
t33.5 -68.5t-30 -72t-83 -32v-61h-50v61q-54 5 -85.5 32.5t-32.5 72.5z" />
    <glyph glyph-name="hyphen.denominator" unicode="&#xf62b;" horiz-adv-x="276" 
d="M37 147v53h202v-53h-202z" />
    <glyph glyph-name="parenleft.denominator" unicode="&#xf62c;" horiz-adv-x="204" 
d="M140 -72q-32 39 -56 105.5t-24 138.5t24 138.5t56 105.5h56q-30 -37 -55 -105t-25 -139t25 -139t55 -105h-56z" />
    <glyph glyph-name="parenright.denominator" unicode="&#xf62d;" horiz-adv-x="204" 
d="M8 -72q30 37 55 105t25 139t-25 139t-55 105h56q32 -39 56 -105.5t24 -138.5t-24 -138.5t-56 -105.5h-56z" />
    <glyph glyph-name="cent.numerator" unicode="&#xf62e;" 
d="M41 516q0 52 31.5 87t87.5 42v50h50v-50q44 -6 71.5 -32t31.5 -59h-59q-4 19 -22 33t-47 14q-38 0 -60 -23t-22 -62t22 -62t60 -23q29 0 47 14t22 33h59q-4 -34 -31 -60t-72 -32v-49h-50v49q-56 7 -87.5 42.5t-31.5 87.5z" />
    <glyph glyph-name="dollar.numerator" unicode="&#xf62f;" 
d="M34 443h56q2 -28 26.5 -45t60.5 -17q34 0 56.5 14.5t22.5 40.5q0 24 -22 36.5t-53.5 18t-63 13.5t-53.5 29.5t-22 58.5q0 41 29.5 68t79.5 33v55h50v-55q45 -5 73.5 -30t32.5 -63h-59q-4 25 -23.5 38t-48.5 13q-33 0 -54 -13t-21 -37q0 -29 33.5 -43t73.5 -19t73.5 -28.5
t33.5 -68.5t-30 -72t-83 -32v-61h-50v61q-54 5 -85.5 32.5t-32.5 72.5z" />
    <glyph glyph-name="hyphen.numerator" unicode="&#xf630;" horiz-adv-x="276" 
d="M37 491v53h202v-53h-202z" />
    <glyph glyph-name="parenleft.numerator" unicode="&#xf631;" horiz-adv-x="204" 
d="M140 272q-32 39 -56 105.5t-24 138.5t24 138.5t56 105.5h56q-30 -37 -55 -105t-25 -139t25 -139t55 -105h-56z" />
    <glyph glyph-name="parenright.numerator" unicode="&#xf632;" horiz-adv-x="204" 
d="M8 272q30 37 55 105t25 139t-25 139t-55 105h56q32 -39 56 -105.5t24 -138.5t-24 -138.5t-56 -105.5h-56z" />
    <glyph glyph-name="h.superior" unicode="&#xf637;" horiz-adv-x="406" 
d="M55 496v516h62v-100q0 -88 -3 -125h2q32 61 114 61q56 0 90.5 -33.5t34.5 -104.5v-214h-62v200q0 100 -83 100q-40 0 -66.5 -32.5t-26.5 -88.5v-179h-62z" />
    <glyph glyph-name="zero.denominator" unicode="&#xf655;" 
d="M176 -8q-71 0 -107.5 50t-36.5 130t36.5 130t107.5 50q72 0 108 -50t36 -130t-36 -130t-108 -50zM176 39q41 0 63 35t22 98t-21.5 98t-63.5 35q-41 0 -63 -35t-22 -98q0 -62 22 -97.5t63 -35.5z" />
    <glyph glyph-name="one.denominator" unicode="&#xf656;" 
d="M71 221l-25 42l137 81h37v-294h98v-50h-263v50h106v223z" />
    <glyph glyph-name="two.denominator" unicode="&#xf657;" 
d="M39 0q1 66 29.5 101t79.5 61l29 15q35 17 54 33t19 37q0 57 -72 57q-35 0 -57.5 -19t-24.5 -57h-56q2 63 41.5 93t96.5 30q60 0 95.5 -26.5t35.5 -75.5q0 -22 -8 -39.5t-27 -32t-32 -22.5t-40 -21l-29 -14q-66 -33 -66 -70h204v-50h-272z" />
    <glyph glyph-name="three.denominator" unicode="&#xf658;" 
d="M37 102h56q0 -32 23 -49t60 -17t60 15.5t23 45.5q0 29 -23 45t-60 16h-29v41h29q34 0 53.5 14t19.5 40t-20 40t-53 14q-32 0 -53 -16.5t-21 -45.5h-56q0 51 36.5 79t96.5 28q56 0 92 -26t36 -68q0 -29 -16.5 -50t-44.5 -28v-2q32 -7 52.5 -30t20.5 -57q0 -47 -38 -73
t-105 -26q-139 0 -139 110z" />
    <glyph glyph-name="four.denominator" unicode="&#xf659;" 
d="M27 73v38l192 234h50v-225h53v-47h-53v-73h-59v73h-183zM92 120h118v145z" />
    <glyph glyph-name="five.denominator" unicode="&#xf65a;" 
d="M50 91h57q4 -23 23 -39t51 -16t54 20t22 53q0 35 -21.5 53t-54.5 18q-46 0 -69 -38l-57 3l12 199h229v-50h-176l-9 -101h3q26 31 78 31q56 0 90 -28.5t34 -86.5q0 -54 -38.5 -85.5t-94.5 -31.5q-63 0 -95.5 27t-37.5 72z" />
    <glyph glyph-name="six.denominator" unicode="&#xf65b;" 
d="M305 254h-59q-2 23 -18 38t-44 15q-82 0 -86 -128q11 20 35.5 32.5t56.5 12.5q55 0 89 -29t34 -86q0 -54 -38.5 -85.5t-94.5 -31.5q-141 0 -141 172q0 98 40 143t105 45q57 0 87 -27t34 -71zM103 110q0 -34 21 -54t55 -20q31 0 53 20t22 53q0 35 -21.5 53t-53.5 18
t-54 -18.5t-22 -51.5z" />
    <glyph glyph-name="seven.denominator" unicode="&#xf65c;" 
d="M89 0l157 291h-209v53h280v-37l-163 -307h-65z" />
    <glyph glyph-name="eight.denominator" unicode="&#xf65d;" 
d="M33 91q0 34 20.5 57t52.5 29v3q-28 7 -44.5 28t-16.5 50q0 42 36 68t95 26t95 -26t36 -68q0 -29 -16.5 -50t-44.5 -28v-3q32 -6 52.5 -29t20.5 -57q0 -47 -38 -73t-105 -26t-105 26t-38 73zM93 97q0 -30 23 -45.5t60 -15.5t60 15.5t23 45.5q0 29 -23 45t-60 16t-60 -16
t-23 -45zM103 253q0 -26 19.5 -40t53.5 -14t53.5 14t19.5 40t-20 40t-53 14t-53 -14t-20 -40z" />
    <glyph glyph-name="nine.denominator" unicode="&#xf65e;" 
d="M45 90h59q2 -23 21 -38.5t47 -15.5q76 0 80 127q-8 -19 -34 -31t-56 -12q-56 0 -90.5 29t-34.5 82q0 55 38.5 88t94.5 33q141 0 141 -172q0 -188 -139 -188q-58 0 -90.5 27t-36.5 71zM247 234q0 31 -20 52t-56 21q-32 0 -53.5 -19.5t-21.5 -53.5t21.5 -52t53.5 -18
t54 18.5t22 51.5z" />
    <glyph glyph-name="comma.denominator" unicode="&#xf65f;" horiz-adv-x="172" 
d="M52 0v83h68v-80l-27 -111h-35l22 108h-28z" />
    <glyph glyph-name="period.denominator" unicode="&#xf660;" horiz-adv-x="172" 
d="M52 0v83h68v-83h-68z" />
    <glyph glyph-name="zero.numerator" unicode="&#xf661;" 
d="M176 336q-71 0 -107.5 50t-36.5 130t36.5 130t107.5 50q72 0 108 -50t36 -130t-36 -130t-108 -50zM176 383q41 0 63 35t22 98t-21.5 98t-63.5 35q-41 0 -63 -35t-22 -98q0 -62 22 -97.5t63 -35.5z" />
    <glyph glyph-name="one.numerator" unicode="&#xf662;" 
d="M71 565l-25 42l137 81h37v-294h98v-50h-263v50h106v223z" />
    <glyph glyph-name="two.numerator" unicode="&#xf663;" 
d="M39 344q1 66 29.5 101t79.5 61l29 15q35 17 54 33t19 37q0 57 -72 57q-35 0 -57.5 -19t-24.5 -57h-56q2 63 41.5 93t96.5 30q60 0 95.5 -26.5t35.5 -75.5q0 -22 -8 -39.5t-27 -32t-32 -22.5t-40 -21l-29 -14q-66 -33 -66 -70h204v-50h-272z" />
    <glyph glyph-name="three.numerator" unicode="&#xf664;" 
d="M37 446h56q0 -32 23 -49t60 -17t60 15.5t23 45.5q0 29 -23 45t-60 16h-29v41h29q34 0 53.5 14t19.5 40t-20 40t-53 14q-32 0 -53 -16.5t-21 -45.5h-56q0 51 36.5 79t96.5 28q56 0 92 -26t36 -68q0 -29 -16.5 -50t-44.5 -28v-2q32 -7 52.5 -30t20.5 -57q0 -47 -38 -73
t-105 -26q-139 0 -139 110z" />
    <glyph glyph-name="four.numerator" unicode="&#xf665;" 
d="M27 417v38l192 234h50v-225h53v-47h-53v-73h-59v73h-183zM92 464h118v145z" />
    <glyph glyph-name="five.numerator" unicode="&#xf666;" 
d="M50 435h57q4 -23 23 -39t51 -16t54 20t22 53q0 35 -21.5 53t-54.5 18q-46 0 -69 -38l-57 3l12 199h229v-50h-176l-9 -101h3q26 31 78 31q56 0 90 -28.5t34 -86.5q0 -54 -38.5 -85.5t-94.5 -31.5q-63 0 -95.5 27t-37.5 72z" />
    <glyph glyph-name="six.numerator" unicode="&#xf667;" 
d="M305 598h-59q-2 23 -18 38t-44 15q-82 0 -86 -128q11 20 35.5 32.5t56.5 12.5q55 0 89 -29t34 -86q0 -54 -38.5 -85.5t-94.5 -31.5q-141 0 -141 172q0 98 40 143t105 45q57 0 87 -27t34 -71zM103 454q0 -34 21 -54t55 -20q31 0 53 20t22 53q0 35 -21.5 53t-53.5 18
t-54 -18.5t-22 -51.5z" />
    <glyph glyph-name="seven.numerator" unicode="&#xf668;" 
d="M89 344l157 291h-209v53h280v-37l-163 -307h-65z" />
    <glyph glyph-name="eight.numerator" unicode="&#xf669;" 
d="M33 435q0 34 20.5 57t52.5 29v3q-28 7 -44.5 28t-16.5 50q0 42 36 68t95 26t95 -26t36 -68q0 -29 -16.5 -50t-44.5 -28v-3q32 -6 52.5 -29t20.5 -57q0 -47 -38 -73t-105 -26t-105 26t-38 73zM93 441q0 -30 23 -45.5t60 -15.5t60 15.5t23 45.5q0 29 -23 45t-60 16t-60 -16
t-23 -45zM103 597q0 -26 19.5 -40t53.5 -14t53.5 14t19.5 40t-20 40t-53 14t-53 -14t-20 -40z" />
    <glyph glyph-name="nine.numerator" unicode="&#xf66a;" 
d="M45 434h59q2 -23 21 -38.5t47 -15.5q76 0 80 127q-8 -19 -34 -31t-56 -12q-56 0 -90.5 29t-34.5 82q0 55 38.5 88t94.5 33q141 0 141 -172q0 -188 -139 -188q-58 0 -90.5 27t-36.5 71zM247 578q0 31 -20 52t-56 21q-32 0 -53.5 -19.5t-21.5 -53.5t21.5 -52t53.5 -18
t54 18.5t22 51.5z" />
    <glyph glyph-name="comma.numerator" unicode="&#xf66b;" horiz-adv-x="172" 
d="M52 344v83h68v-80l-27 -111h-35l22 108h-28z" />
    <glyph glyph-name="period.numerator" unicode="&#xf66c;" horiz-adv-x="172" 
d="M52 344v83h68v-83h-68z" />
    <glyph glyph-name="abreve.sc" unicode="&#xf66d;" horiz-adv-x="508" 
d="M10 0l205 520h80l203 -520h-71l-54 141h-241l-54 -141h-68zM255 451h-3l-98 -254h198zM254 616q-53 0 -92 32.5t-47 101.5h44q14 -90 95 -90t95 90h44q-8 -69 -47 -101.5t-92 -32.5z" />
    <glyph glyph-name="amacron.sc" unicode="&#xf66e;" horiz-adv-x="508" 
d="M10 0l205 520h80l203 -520h-71l-54 141h-241l-54 -141h-68zM255 451h-3l-98 -254h198zM115 655v53h276v-53h-276z" />
    <glyph glyph-name="aogonek.sc" unicode="&#xf66f;" horiz-adv-x="508" 
d="M386 -128q0 63 75 128h-34l-54 141h-241l-54 -141h-68l205 520h80l203 -520h2q-61 -65 -61 -116q0 -53 61 -53h30v-47h-39q-50 0 -77.5 24t-27.5 64zM255 451h-3l-98 -254h198z" />
    <glyph glyph-name="aeacute.sc" unicode="&#xf670;" horiz-adv-x="863" 
d="M2 0l406 520h392v-59h-303v-167h246v-57h-246v-178h311v-59h-379v129h-251l-99 -129h-77zM427 453l-206 -268h208v268h-2zM440 600l106 164h81l-137 -164h-50z" />
    <glyph glyph-name="cacute.sc" unicode="&#xf671;" horiz-adv-x="581" 
d="M46 260q0 116 72.5 193.5t187.5 77.5q93 0 155.5 -48t80.5 -127h-68q-34 113 -165 113q-86 0 -139 -59t-53 -150q0 -88 52.5 -148.5t139.5 -60.5q128 0 165 113h68q-19 -80 -81 -127.5t-155 -47.5q-116 0 -188 79t-72 192zM280 600l106 164h81l-137 -164h-50z" />
    <glyph glyph-name="ccaron.sc" unicode="&#xf672;" horiz-adv-x="581" 
d="M46 260q0 116 72.5 193.5t187.5 77.5q93 0 155.5 -48t80.5 -127h-68q-34 113 -165 113q-86 0 -139 -59t-53 -150q0 -88 52.5 -148.5t139.5 -60.5q128 0 165 113h68q-19 -80 -81 -127.5t-155 -47.5q-116 0 -188 79t-72 192zM275 600l-128 164h65l94 -123l94 123h65
l-128 -164h-62z" />
    <glyph glyph-name="ccircumflex.sc" unicode="&#xf673;" horiz-adv-x="581" 
d="M46 260q0 116 72.5 193.5t187.5 77.5q93 0 155.5 -48t80.5 -127h-68q-34 113 -165 113q-86 0 -139 -59t-53 -150q0 -88 52.5 -148.5t139.5 -60.5q128 0 165 113h68q-19 -80 -81 -127.5t-155 -47.5q-116 0 -188 79t-72 192zM147 600l128 164h62l128 -164h-65l-94 123
l-94 -123h-65z" />
    <glyph glyph-name="cdotaccent.sc" unicode="&#xf674;" horiz-adv-x="581" 
d="M46 260q0 116 72.5 193.5t187.5 77.5q93 0 155.5 -48t80.5 -127h-68q-34 113 -165 113q-86 0 -139 -59t-53 -150q0 -88 52.5 -148.5t139.5 -60.5q128 0 165 113h68q-19 -80 -81 -127.5t-155 -47.5q-116 0 -188 79t-72 192zM272 637v90h68v-90h-68z" />
    <glyph glyph-name="dcaron.sc" unicode="&#xf675;" horiz-adv-x="592" 
d="M91 0v520h176q132 0 205.5 -71.5t73.5 -188.5q0 -115 -74 -187.5t-205 -72.5h-176zM267 461h-108v-402h108q104 0 156 56.5t52 144.5t-52 144.5t-156 56.5zM249 600l-128 164h65l94 -123l94 123h65l-128 -164h-62z" />
    <glyph glyph-name="dcroat.sc" unicode="&#xf676;" horiz-adv-x="592" 
d="M4 235v50h87v235h176q132 0 205.5 -71.5t73.5 -188.5q0 -115 -74 -187.5t-205 -72.5h-176v235h-87zM267 461h-108v-176h111v-50h-111v-176h108q104 0 156 56.5t52 144.5t-52 144.5t-156 56.5z" />
    <glyph glyph-name="ebreve.sc" unicode="&#xf677;" horiz-adv-x="522" 
d="M91 0v520h371v-59h-303v-167h246v-57h-246v-178h311v-59h-379zM276 616q-53 0 -92 32.5t-47 101.5h44q14 -90 95 -90t95 90h44q-8 -69 -47 -101.5t-92 -32.5z" />
    <glyph glyph-name="ecaron.sc" unicode="&#xf678;" horiz-adv-x="522" 
d="M91 0v520h371v-59h-303v-167h246v-57h-246v-178h311v-59h-379zM245 600l-128 164h65l94 -123l94 123h65l-128 -164h-62z" />
    <glyph glyph-name="edotaccent.sc" unicode="&#xf679;" horiz-adv-x="522" 
d="M91 0v520h371v-59h-303v-167h246v-57h-246v-178h311v-59h-379zM242 637v90h68v-90h-68z" />
    <glyph glyph-name="emacron.sc" unicode="&#xf67a;" horiz-adv-x="522" 
d="M91 0v520h371v-59h-303v-167h246v-57h-246v-178h311v-59h-379zM137 655v53h276v-53h-276z" />
    <glyph glyph-name="eng.sc" unicode="&#xf67b;" horiz-adv-x="618" 
d="M91 0v520h62l306 -406h2l-2 406h68v-567q0 -95 -39.5 -134t-119.5 -39h-48v62h45q48 0 71 26.5t23 87.5v56l-300 394h-3l3 -406h-68z" />
    <glyph glyph-name="eogonek.sc" unicode="&#xf67c;" horiz-adv-x="522" 
d="M91 0v520h371v-59h-303v-167h246v-57h-246v-178h311v-59h-1q-61 -65 -61 -116q0 -53 61 -53h30v-47h-39q-50 0 -77.5 24t-27.5 64q0 63 75 128h-339z" />
    <glyph glyph-name="gbreve.sc" unicode="&#xf67d;" horiz-adv-x="632" 
d="M319 217v56h236v-273h-44l-9 83h-1q-58 -94 -189 -94q-115 0 -189 79t-74 192q0 118 75.5 194.5t195.5 76.5q94 0 156 -46.5t78 -118.5h-71q-12 44 -54 73.5t-109 29.5q-91 0 -145.5 -58.5t-54.5 -150.5q0 -88 53.5 -148.5t141.5 -60.5q75 0 126.5 38.5t51.5 111.5v16
h-174zM320 616q-53 0 -92 32.5t-47 101.5h44q14 -90 95 -90t95 90h44q-8 -69 -47 -101.5t-92 -32.5z" />
    <glyph glyph-name="gcircumflex.sc" unicode="&#xf67e;" horiz-adv-x="632" 
d="M319 217v56h236v-273h-44l-9 83h-1q-58 -94 -189 -94q-115 0 -189 79t-74 192q0 118 75.5 194.5t195.5 76.5q94 0 156 -46.5t78 -118.5h-71q-12 44 -54 73.5t-109 29.5q-91 0 -145.5 -58.5t-54.5 -150.5q0 -88 53.5 -148.5t141.5 -60.5q75 0 126.5 38.5t51.5 111.5v16
h-174zM161 600l128 164h62l128 -164h-65l-94 123l-94 -123h-65z" />
    <glyph glyph-name="gcommaaccent.sc" unicode="&#xf67f;" horiz-adv-x="632" 
d="M319 217v56h236v-273h-44l-9 83h-1q-58 -94 -189 -94q-115 0 -189 79t-74 192q0 118 75.5 194.5t195.5 76.5q94 0 156 -46.5t78 -118.5h-71q-12 44 -54 73.5t-109 29.5q-91 0 -145.5 -58.5t-54.5 -150.5q0 -88 53.5 -148.5t141.5 -60.5q75 0 126.5 38.5t51.5 111.5v16
h-174zM278 -66h68v-74l-36 -103h-31l27 97h-28v80z" />
    <glyph glyph-name="gdotaccent.sc" unicode="&#xf680;" horiz-adv-x="632" 
d="M319 217v56h236v-273h-44l-9 83h-1q-58 -94 -189 -94q-115 0 -189 79t-74 192q0 118 75.5 194.5t195.5 76.5q94 0 156 -46.5t78 -118.5h-71q-12 44 -54 73.5t-109 29.5q-91 0 -145.5 -58.5t-54.5 -150.5q0 -88 53.5 -148.5t141.5 -60.5q75 0 126.5 38.5t51.5 111.5v16
h-174zM286 637v90h68v-90h-68z" />
    <glyph glyph-name="hbar.sc" unicode="&#xf681;" horiz-adv-x="617" 
d="M10 385v49h81v86h68v-86h299v86h68v-86h81v-49h-81v-385h-68v233h-299v-233h-68v385h-81zM159 385v-93h299v93h-299z" />
    <glyph glyph-name="hcircumflex.sc" unicode="&#xf682;" horiz-adv-x="617" 
d="M91 0v520h68v-228h299v228h68v-520h-68v233h-299v-233h-68zM149 600l128 164h62l128 -164h-65l-94 123l-94 -123h-65z" />
    <glyph glyph-name="ibreve.sc" unicode="&#xf683;" horiz-adv-x="250" 
d="M91 0v520h68v-520h-68zM124 616q-53 0 -92 32.5t-47 101.5h44q14 -90 95 -90t95 90h44q-8 -69 -47 -101.5t-92 -32.5z" />
    <glyph glyph-name="ij.sc" unicode="&#xf684;" horiz-adv-x="694" 
d="M91 0v520h68v-520h-68zM297 149v26h65v-23q0 -104 94 -104q42 0 68 26.5t26 80.5v365h68v-365q0 -83 -44.5 -124.5t-117.5 -41.5t-116 39.5t-43 120.5z" />
    <glyph glyph-name="imacron.sc" unicode="&#xf685;" horiz-adv-x="250" 
d="M91 0v520h68v-520h-68zM-15 655v53h276v-53h-276z" />
    <glyph glyph-name="iogonek.sc" unicode="&#xf686;" horiz-adv-x="250" 
d="M91 0v520h68v-520h-1q-61 -65 -61 -116q0 -53 61 -53h30v-47h-39q-50 0 -77.5 24t-27.5 64q0 63 75 128h-28z" />
    <glyph glyph-name="itilde.sc" unicode="&#xf687;" horiz-adv-x="250" 
d="M91 0v520h68v-520h-68zM-31 632q2 43 24.5 71t62.5 28q30 0 77.5 -25.5t63.5 -25.5q38 0 46 52h38q-2 -43 -24.5 -71t-62.5 -28q-30 0 -77.5 25.5t-63.5 25.5q-38 0 -46 -52h-38z" />
    <glyph glyph-name="jcircumflex.sc" unicode="&#xf688;" horiz-adv-x="441" 
d="M44 149v26h65v-26q0 -101 94 -101q42 0 68 25.5t26 78.5v368h68v-365q0 -83 -44.5 -124.5t-117.5 -41.5t-116 39.5t-43 120.5zM175 600l128 164h62l128 -164h-65l-94 123l-94 -123h-65z" />
    <glyph glyph-name="kcommaaccent.sc" unicode="&#xf689;" horiz-adv-x="552" 
d="M91 0v520h68v-298l281 298h81l-219 -228l232 -292h-80l-196 246l-99 -103v-143h-68zM258 -66h68v-74l-36 -103h-31l27 97h-28v80z" />
    <glyph glyph-name="lacute.sc" unicode="&#xf68a;" horiz-adv-x="460" 
d="M91 0v520h68v-458h280v-62h-348zM96 600l106 164h81l-137 -164h-50z" />
    <glyph glyph-name="lcaron.sc" unicode="&#xf68b;" horiz-adv-x="460" 
d="M91 0v520h68v-461h280v-59h-348zM301 343l27 97h-28v80h68v-73l-36 -104h-31z" />
    <glyph glyph-name="lcommaaccent.sc" unicode="&#xf68c;" horiz-adv-x="460" 
d="M91 0v520h68v-458h280v-62h-348zM228 -66h68v-74l-36 -103h-31l27 97h-28v80z" />
    <glyph glyph-name="ldot.sc" unicode="&#xf68d;" horiz-adv-x="460" 
d="M91 0v520h68v-461h280v-59h-348zM270 220v90h68v-90h-68z" />
    <glyph glyph-name="nacute.sc" unicode="&#xf68e;" horiz-adv-x="618" 
d="M91 0v520h62l306 -408h2l-2 408h68v-520h-62l-306 409h-3l3 -409h-68zM283 600l106 164h81l-137 -164h-50z" />
    <glyph glyph-name="ncaron.sc" unicode="&#xf68f;" horiz-adv-x="618" 
d="M91 0v520h62l306 -408h2l-2 408h68v-520h-62l-306 409h-3l3 -409h-68zM278 600l-128 164h65l94 -123l94 123h65l-128 -164h-62z" />
    <glyph glyph-name="ncommaaccent.sc" unicode="&#xf690;" horiz-adv-x="618" 
d="M91 0v520h62l306 -408h2l-2 408h68v-520h-62l-306 409h-3l3 -409h-68zM275 -66h68v-74l-36 -103h-31l27 97h-28v80z" />
    <glyph glyph-name="obreve.sc" unicode="&#xf691;" horiz-adv-x="624" 
d="M46 260q0 116 75.5 193.5t190.5 77.5q114 0 190 -77.5t76 -193.5t-76 -193.5t-190 -77.5q-115 0 -190.5 77.5t-75.5 193.5zM117 260q0 -91 54 -150t141 -59q86 0 140.5 59t54.5 150t-54.5 150t-140.5 59q-87 0 -141 -59t-54 -150zM312 616q-53 0 -92 32.5t-47 101.5h44
q14 -90 95 -90t95 90h44q-8 -69 -47 -101.5t-92 -32.5z" />
    <glyph glyph-name="ohungarumlaut.sc" unicode="&#xf692;" horiz-adv-x="624" 
d="M46 260q0 116 75.5 193.5t190.5 77.5q114 0 190 -77.5t76 -193.5t-76 -193.5t-190 -77.5q-115 0 -190.5 77.5t-75.5 193.5zM117 260q0 -91 54 -150t141 -59q86 0 140.5 59t54.5 150t-54.5 150t-140.5 59q-87 0 -141 -59t-54 -150zM374 600l106 164h80l-136 -164h-50z
M197 600l106 164h80l-136 -164h-50z" />
    <glyph glyph-name="omacron.sc" unicode="&#xf693;" horiz-adv-x="624" 
d="M46 260q0 116 75.5 193.5t190.5 77.5q114 0 190 -77.5t76 -193.5t-76 -193.5t-190 -77.5q-115 0 -190.5 77.5t-75.5 193.5zM117 260q0 -91 54 -150t141 -59q86 0 140.5 59t54.5 150t-54.5 150t-140.5 59q-87 0 -141 -59t-54 -150zM173 655v53h276v-53h-276z" />
    <glyph glyph-name="oslashacute.sc" unicode="&#xf694;" horiz-adv-x="624" 
d="M61 -11l62 75q-77 79 -77 196q0 116 75.5 193.5t190.5 77.5q88 0 156 -49l41 49h57l-64 -78q76 -78 76 -193q0 -116 -76 -193.5t-190 -77.5q-88 0 -155 47l-39 -47h-57zM117 260q0 -88 49 -145l261 317q-50 37 -115 37q-87 0 -141 -59t-54 -150zM507 260q0 83 -48 142
l-261 -316q47 -35 114 -35q86 0 140.5 59t54.5 150zM286 600l106 164h81l-137 -164h-50z" />
    <glyph glyph-name="racute.sc" unicode="&#xf695;" horiz-adv-x="559" 
d="M91 0v520h225q86 0 132 -40.5t46 -113.5q0 -61 -33 -102t-95 -53l148 -211h-77l-141 207h-137v-207h-68zM316 461h-157v-195h157q54 0 82 27t28 73q0 44 -28.5 69.5t-81.5 25.5zM245 600l106 164h81l-137 -164h-50z" />
    <glyph glyph-name="rcaron.sc" unicode="&#xf696;" horiz-adv-x="559" 
d="M91 0v520h225q86 0 132 -40.5t46 -113.5q0 -61 -33 -102t-95 -53l148 -211h-77l-141 207h-137v-207h-68zM316 461h-157v-195h157q54 0 82 27t28 73q0 44 -28.5 69.5t-81.5 25.5zM240 600l-128 164h65l94 -123l94 123h65l-128 -164h-62z" />
    <glyph glyph-name="rcommaaccent.sc" unicode="&#xf697;" horiz-adv-x="559" 
d="M91 0v520h225q86 0 132 -40.5t46 -113.5q0 -61 -33 -102t-95 -53l148 -211h-77l-141 207h-137v-207h-68zM316 461h-157v-195h157q54 0 82 27t28 73q0 44 -28.5 69.5t-81.5 25.5zM246 -66h68v-74l-36 -103h-31l27 97h-28v80z" />
    <glyph glyph-name="sacute.sc" unicode="&#xf698;" horiz-adv-x="518" 
d="M47 146h68q0 -48 38.5 -74.5t104.5 -26.5t102.5 25t36.5 73q0 39 -35 59t-84.5 27t-99.5 17.5t-85 42.5t-35 89q0 68 55 110.5t147 42.5q90 0 142.5 -41t52.5 -110h-65q0 43 -36 69t-94 26q-62 0 -97.5 -23.5t-35.5 -67.5q0 -34 25.5 -54t63 -26t82 -15.5t82 -20.5
t63 -41t25.5 -78q0 -74 -55.5 -117t-154.5 -43q-98 0 -154.5 42t-56.5 115zM234 600l106 164h81l-137 -164h-50z" />
    <glyph glyph-name="scedilla.sc" unicode="&#xf699;" horiz-adv-x="518" 
d="M217 -78l24 68q-90 4 -142 45.5t-52 110.5h68q0 -48 38.5 -74.5t104.5 -26.5t102.5 25t36.5 73q0 39 -35 59t-84.5 27t-99.5 17.5t-85 42.5t-35 89q0 68 55 110.5t147 42.5q90 0 142.5 -41t52.5 -110h-65q0 43 -36 69t-94 26q-62 0 -97.5 -23.5t-35.5 -67.5
q0 -34 25.5 -54t63 -26t82 -15.5t82 -20.5t63 -41t25.5 -78q0 -72 -52.5 -114.5t-146.5 -45.5l-4 -29q44 -2 68 -26t24 -59q0 -40 -27.5 -65.5t-81.5 -25.5h-53v44h50q59 0 59 47t-60 47h-27z" />
    <glyph glyph-name="scircumflex.sc" unicode="&#xf69a;" horiz-adv-x="518" 
d="M47 146h68q0 -48 38.5 -74.5t104.5 -26.5t102.5 25t36.5 73q0 39 -35 59t-84.5 27t-99.5 17.5t-85 42.5t-35 89q0 68 55 110.5t147 42.5q90 0 142.5 -41t52.5 -110h-65q0 43 -36 69t-94 26q-62 0 -97.5 -23.5t-35.5 -67.5q0 -34 25.5 -54t63 -26t82 -15.5t82 -20.5
t63 -41t25.5 -78q0 -74 -55.5 -117t-154.5 -43q-98 0 -154.5 42t-56.5 115zM101 600l128 164h62l128 -164h-65l-94 123l-94 -123h-65z" />
    <glyph glyph-name="scommaaccent.sc" unicode="&#xf69b;" horiz-adv-x="518" 
d="M47 146h68q0 -48 38.5 -74.5t104.5 -26.5t102.5 25t36.5 73q0 39 -35 59t-84.5 27t-99.5 17.5t-85 42.5t-35 89q0 68 55 110.5t147 42.5q90 0 142.5 -41t52.5 -110h-65q0 43 -36 69t-94 26q-62 0 -97.5 -23.5t-35.5 -67.5q0 -34 25.5 -54t63 -26t82 -15.5t82 -20.5
t63 -41t25.5 -78q0 -74 -55.5 -117t-154.5 -43q-98 0 -154.5 42t-56.5 115zM224 -66h68v-74l-36 -103h-31l27 97h-28v80z" />
    <glyph glyph-name="tbar.sc" unicode="&#xf69c;" horiz-adv-x="497" 
d="M18 461v59h462v-59h-197v-193h154v-50h-154v-218h-68v218h-148v50h148v193h-197z" />
    <glyph glyph-name="tcaron.sc" unicode="&#xf69d;" horiz-adv-x="497" 
d="M18 461v59h462v-59h-197v-461h-68v461h-197zM216 600l-128 164h65l94 -123l94 123h65l-128 -164h-62z" />
    <glyph glyph-name="tcommaaccent.sc" unicode="&#xf69e;" horiz-adv-x="497" 
d="M211 -78l28 78h-24v461h-197v59h462v-59h-197v-461h-18l-6 -40q44 -2 68 -26t24 -59q0 -40 -27.5 -65.5t-81.5 -25.5h-53v44h50q59 0 59 47t-60 47h-27z" />
    <glyph glyph-name="ubreve.sc" unicode="&#xf69f;" horiz-adv-x="589" 
d="M76 207v313h68v-313q0 -75 38 -115.5t111 -40.5t112.5 40.5t39.5 115.5v313h68v-313q0 -112 -59.5 -165t-160.5 -53q-100 0 -158.5 53t-58.5 165zM294 616q-53 0 -92 32.5t-47 101.5h44q14 -90 95 -90t95 90h44q-8 -69 -47 -101.5t-92 -32.5z" />
    <glyph glyph-name="uhungarumlaut.sc" unicode="&#xf6a0;" horiz-adv-x="589" 
d="M76 207v313h68v-313q0 -75 38 -115.5t111 -40.5t112.5 40.5t39.5 115.5v313h68v-313q0 -112 -59.5 -165t-160.5 -53q-100 0 -158.5 53t-58.5 165zM356 600l106 164h80l-136 -164h-50zM179 600l106 164h80l-136 -164h-50z" />
    <glyph glyph-name="umacron.sc" unicode="&#xf6a1;" horiz-adv-x="589" 
d="M76 207v313h68v-313q0 -75 38 -115.5t111 -40.5t112.5 40.5t39.5 115.5v313h68v-313q0 -112 -59.5 -165t-160.5 -53q-100 0 -158.5 53t-58.5 165zM155 655v53h276v-53h-276z" />
    <glyph glyph-name="uogonek.sc" unicode="&#xf6a2;" horiz-adv-x="589" 
d="M256 -126q0 61 82 118q-22 -3 -45 -3q-102 0 -159.5 53t-57.5 165v313h68v-313q0 -75 38 -115.5t111 -40.5t112.5 40.5t39.5 115.5v313h68v-313q0 -127 -77 -180q-36 -25 -59 -43.5t-44 -46t-21 -51.5q0 -55 61 -55h30v-47h-39q-108 0 -108 90z" />
    <glyph glyph-name="uring.sc" unicode="&#xf6a3;" horiz-adv-x="589" 
d="M76 207v313h68v-313q0 -75 38 -115.5t111 -40.5t112.5 40.5t39.5 115.5v313h68v-313q0 -112 -59.5 -165t-160.5 -53q-100 0 -158.5 53t-58.5 165zM294 599q-39 0 -67.5 26t-28.5 67t28.5 67t67.5 26t67.5 -26t28.5 -67t-28.5 -67t-67.5 -26zM294 634q24 0 41 16.5
t17 41.5t-17 41.5t-41 16.5t-41 -16.5t-17 -41.5t17 -41.5t41 -16.5z" />
    <glyph glyph-name="utilde.sc" unicode="&#xf6a4;" horiz-adv-x="589" 
d="M76 207v313h68v-313q0 -75 38 -115.5t111 -40.5t112.5 40.5t39.5 115.5v313h68v-313q0 -112 -59.5 -165t-160.5 -53q-100 0 -158.5 53t-58.5 165zM139 632q2 43 24.5 71t62.5 28q30 0 77.5 -25.5t63.5 -25.5q38 0 46 52h38q-2 -43 -24.5 -71t-62.5 -28q-30 0 -77.5 25.5
t-63.5 25.5q-38 0 -46 -52h-38z" />
    <glyph glyph-name="wacute.sc" unicode="&#xf6a5;" horiz-adv-x="754" 
d="M159 0l-143 520h71l117 -446h3l138 446h70l137 -446h3l115 446h68l-140 -520h-87l-132 433h-2l-131 -433h-87zM352 600l106 164h81l-137 -164h-50z" />
    <glyph glyph-name="wcircumflex.sc" unicode="&#xf6a6;" horiz-adv-x="754" 
d="M159 0l-143 520h71l117 -446h3l138 446h70l137 -446h3l115 446h68l-140 -520h-87l-132 433h-2l-131 -433h-87zM219 600l128 164h62l128 -164h-65l-94 123l-94 -123h-65z" />
    <glyph glyph-name="wdieresis.sc" unicode="&#xf6a7;" horiz-adv-x="754" 
d="M159 0l-143 520h71l117 -446h3l138 446h70l137 -446h3l115 446h68l-140 -520h-87l-132 433h-2l-131 -433h-87zM443 637v90h68v-90h-68zM246 637v90h68v-90h-68z" />
    <glyph glyph-name="wgrave.sc" unicode="&#xf6a8;" horiz-adv-x="754" 
d="M159 0l-143 520h71l117 -446h3l138 446h70l137 -446h3l115 446h68l-140 -520h-87l-132 433h-2l-131 -433h-87zM354 600l-137 164h81l106 -164h-50z" />
    <glyph glyph-name="ycircumflex.sc" unicode="&#xf6a9;" horiz-adv-x="486" 
d="M207 0v206l-202 314h80l158 -249h2l162 249h73l-205 -313v-207h-68zM84 600l128 164h62l128 -164h-65l-94 123l-94 -123h-65z" />
    <glyph glyph-name="ygrave.sc" unicode="&#xf6aa;" horiz-adv-x="486" 
d="M207 0v206l-202 314h80l158 -249h2l162 249h73l-205 -313v-207h-68zM219 600l-137 164h81l106 -164h-50z" />
    <glyph glyph-name="zacute.sc" unicode="&#xf6ab;" horiz-adv-x="495" 
d="M52 461v59h396v-43l-320 -418h316v-59h-405v43l318 418h-305zM221 600l106 164h81l-137 -164h-50z" />
    <glyph glyph-name="zdotaccent.sc" unicode="&#xf6ac;" horiz-adv-x="495" 
d="M52 461v59h396v-43l-320 -418h316v-59h-405v43l318 418h-305zM213 637v90h68v-90h-68z" />
    <glyph glyph-name="idotaccent.sc" unicode="&#xf6ad;" horiz-adv-x="250" 
d="M91 0v520h68v-520h-68zM90 637v90h68v-90h-68z" />
    <glyph glyph-name="parenleft.cap" unicode="&#xf6ae;" horiz-adv-x="311" 
d="M231 -56q-140 181 -140 400t140 400h62q-137 -194 -137 -400t137 -400h-62z" />
    <glyph glyph-name="parenright.cap" unicode="&#xf6af;" horiz-adv-x="311" 
d="M18 -56q137 194 137 400t-137 400h62q140 -181 140 -400t-140 -400h-62z" />
    <glyph glyph-name="bracketleft.cap" unicode="&#xf6b0;" horiz-adv-x="318" 
d="M91 -56v800h209v-56h-147v-688h147v-56h-209z" />
    <glyph glyph-name="bracketright.cap" unicode="&#xf6b1;" horiz-adv-x="318" 
d="M18 0h147v688h-147v56h209v-800h-209v56z" />
    <glyph glyph-name="braceleft.cap" unicode="&#xf6b2;" horiz-adv-x="358" 
d="M142 94v101q0 69 -23 96t-88 31v47q65 4 88 31.5t23 96.5v97q0 74 35 112t114 38h49v-53h-46q-48 0 -69 -22.5t-21 -71.5v-118q0 -55 -23.5 -86t-77.5 -46v-3q54 -14 77.5 -45t23.5 -87v-121q0 -49 21 -71.5t69 -22.5h46v-53h-49q-79 0 -114 38t-35 112z" />
    <glyph glyph-name="braceright.cap" unicode="&#xf6b3;" horiz-adv-x="358" 
d="M18 -3h46q48 0 69 22.5t21 71.5v121q0 56 23.5 87t77.5 45v3q-54 15 -77.5 46t-23.5 86v118q0 49 -21 71.5t-69 22.5h-46v53h49q79 0 114 -38t35 -112v-97q0 -69 23 -96.5t88 -31.5v-47q-65 -4 -88 -31t-23 -96v-101q0 -74 -35 -112t-114 -38h-49v53z" />
    <glyph glyph-name="exclamdown.cap" unicode="&#xf6b4;" horiz-adv-x="256" 
d="M88 586v102h80v-102h-80zM88 0v184l21 315h38l21 -315v-184h-80z" />
    <glyph glyph-name="questiondown.cap" unicode="&#xf6b5;" horiz-adv-x="485" 
d="M209 586v102h79v-102h-79zM39 163q0 45 18 79t44 55.5l52 41.5t44 49t18 67v37h68v-28q0 -51 -18 -88.5t-43.5 -59.5t-50.5 -41.5t-43 -46.5t-18 -62q0 -52 36 -85t92 -33q69 0 106.5 43t37.5 113h68q0 -94 -55.5 -154.5t-156.5 -60.5q-88 0 -143.5 47t-55.5 127z" />
    <glyph glyph-name="guillemotleft.cap" unicode="&#xf6b6;" horiz-adv-x="505" 
d="M394 144l-145 204l145 204h56l-124 -204l124 -204h-56zM200 144l-145 204l145 204h56l-124 -204l124 -204h-56z" />
    <glyph glyph-name="guillemotright.cap" unicode="&#xf6b7;" horiz-adv-x="505" 
d="M249 144l124 204l-124 204h56l145 -204l-145 -204h-56zM55 144l124 204l-124 204h55l146 -204l-146 -204h-55z" />
    <glyph glyph-name="guilsinglleft.cap" unicode="&#xf6b8;" horiz-adv-x="311" 
d="M200 144l-145 204l145 204h56l-124 -204l124 -204h-56z" />
    <glyph glyph-name="guilsinglright.cap" unicode="&#xf6b9;" horiz-adv-x="311" 
d="M55 144l124 204l-124 204h56l145 -204l-145 -204h-56z" />
    <glyph glyph-name="hyphen.cap" unicode="&#xf6ba;" horiz-adv-x="396" 
d="M60 317v62h276v-62h-276z" />
    <glyph glyph-name="endash.cap" unicode="&#xf6bb;" horiz-adv-x="556" 
d="M60 317v62h436v-62h-436z" />
    <glyph glyph-name="emdash.cap" unicode="&#xf6bc;" horiz-adv-x="840" 
d="M60 317v62h720v-62h-720z" />
    <glyph glyph-name="periodcentered.cap" unicode="&#xf6bd;" horiz-adv-x="272" 
d="M93 296v104h86v-104h-86z" />
    <glyph glyph-name="dotlessj" unicode="&#xf6be;" horiz-adv-x="228" 
d="M80 -84v572h68v-584q0 -124 -125 -124h-30v59h24q33 0 48 18.5t15 58.5z" />
    <glyph glyph-name="space_uni0326" unicode="&#xf6c3;" horiz-adv-x="550" 
d="M241 -66h68v-74l-36 -103h-31l27 97h-28v80z" />
    <glyph glyph-name="cent.inferior" unicode="&#xf6df;" 
d="M41 20q0 52 31.5 87t87.5 42v50h50v-50q44 -6 71.5 -32t31.5 -59h-59q-4 19 -22 33t-47 14q-38 0 -60 -23t-22 -62t22 -62t60 -23q29 0 47 14t22 33h59q-4 -34 -31 -60t-72 -32v-49h-50v49q-56 7 -87.5 42.5t-31.5 87.5z" />
    <glyph glyph-name="cent.superior" unicode="&#xf6e0;" 
d="M41 668q0 52 31.5 87t87.5 42v50h50v-50q44 -6 71.5 -32t31.5 -59h-59q-4 19 -22 33t-47 14q-38 0 -60 -23t-22 -62t22 -62t60 -23q29 0 47 14t22 33h59q-4 -34 -31 -60t-72 -32v-49h-50v49q-56 7 -87.5 42.5t-31.5 87.5z" />
    <glyph glyph-name="comma.inferior" unicode="&#xf6e1;" horiz-adv-x="172" 
d="M52 -152v83h68v-80l-27 -111h-35l22 108h-28z" />
    <glyph glyph-name="comma.superior" unicode="&#xf6e2;" horiz-adv-x="172" 
d="M52 496v83h68v-80l-27 -111h-35l22 108h-28z" />
    <glyph glyph-name="dollar.inferior" unicode="&#xf6e3;" 
d="M34 -53h56q2 -28 26.5 -45t60.5 -17q34 0 56.5 14.5t22.5 40.5q0 24 -22 36.5t-53.5 18t-63 13.5t-53.5 29.5t-22 58.5q0 41 29.5 68t79.5 33v55h50v-55q45 -5 73.5 -30t32.5 -63h-59q-4 25 -23.5 38t-48.5 13q-33 0 -54 -13t-21 -37q0 -29 33.5 -43t73.5 -19t73.5 -28.5
t33.5 -68.5t-30 -72t-83 -32v-61h-50v61q-54 5 -85.5 32.5t-32.5 72.5z" />
    <glyph glyph-name="dollar.superior" unicode="&#xf6e4;" 
d="M34 595h56q2 -28 26.5 -45t60.5 -17q34 0 56.5 14.5t22.5 40.5q0 24 -22 36.5t-53.5 18t-63 13.5t-53.5 29.5t-22 58.5q0 41 29.5 68t79.5 33v55h50v-55q45 -5 73.5 -30t32.5 -63h-59q-4 25 -23.5 38t-48.5 13q-33 0 -54 -13t-21 -37q0 -29 33.5 -43t73.5 -19t73.5 -28.5
t33.5 -68.5t-30 -72t-83 -32v-61h-50v61q-54 5 -85.5 32.5t-32.5 72.5z" />
    <glyph glyph-name="hyphen.inferior" unicode="&#xf6e5;" horiz-adv-x="276" 
d="M37 -5v53h202v-53h-202z" />
    <glyph glyph-name="hyphen.superior" unicode="&#xf6e6;" horiz-adv-x="276" 
d="M37 643v53h202v-53h-202z" />
    <glyph glyph-name="period.inferior" unicode="&#xf6e7;" horiz-adv-x="172" 
d="M52 -152v83h68v-83h-68z" />
    <glyph glyph-name="period.superior" unicode="&#xf6e8;" horiz-adv-x="172" 
d="M52 496v83h68v-83h-68z" />
    <glyph glyph-name="a.superior" unicode="&#xf6e9;" horiz-adv-x="382" 
d="M37 585q0 88 111 102l76 10q26 3 35 9t9 21q0 34 -19.5 54t-56.5 20q-76 0 -82 -70h-58q4 59 43 88t97 29q64 0 101 -31.5t37 -91.5v-229h-60v47h-2q-35 -55 -118 -55q-53 0 -83 26.5t-30 70.5zM268 639v34q-10 -13 -36 -16l-70 -9q-63 -8 -63 -59q0 -26 17.5 -41
t48.5 -15q45 0 74 27t29 79z" />
    <glyph glyph-name="b.superior" unicode="&#xf6ea;" horiz-adv-x="421" 
d="M55 496v516h62v-101q0 -90 -3 -128h2q35 65 122 65q65 0 107 -47.5t42 -130.5q0 -82 -45 -131.5t-109 -49.5q-85 0 -117 63h-2v-56h-59zM117 668q0 -58 29 -93.5t75 -35.5q45 0 73.5 36t28.5 95q0 58 -28 92.5t-74 34.5q-44 0 -73.5 -33.5t-30.5 -89.5v-6z" />
    <glyph glyph-name="d.superior" unicode="&#xf6eb;" horiz-adv-x="421" 
d="M34 666q0 81 45 131.5t109 50.5q85 0 117 -65h3q-3 37 -3 123v106h62v-516h-59v58h-3q-33 -65 -121 -65q-65 0 -107.5 47.5t-42.5 129.5zM98 666q0 -58 28.5 -92.5t74.5 -34.5q45 0 74.5 35.5t29.5 93.5t-29 93.5t-75 35.5q-45 0 -74 -36t-29 -95z" />
    <glyph glyph-name="e.superior" unicode="&#xf6ec;" horiz-adv-x="390" 
d="M34 668q0 80 46.5 130t119.5 50q70 0 113 -45t43 -123v-19h-259q1 -60 29 -91.5t75 -31.5q39 0 62 17t29 45h57q-7 -49 -47 -80t-101 -31q-77 0 -122 47.5t-45 131.5zM200 799q-40 0 -66.5 -25.5t-34.5 -70.5h193q-4 46 -28.5 71t-63.5 25z" />
    <glyph glyph-name="i.superior" unicode="&#xf6ed;" horiz-adv-x="166" 
d="M50 936v76h66v-76h-66zM52 496v344h62v-344h-62z" />
    <glyph glyph-name="l.superior" unicode="&#xf6ee;" horiz-adv-x="172" 
d="M55 496v516h62v-516h-62z" />
    <glyph glyph-name="m.superior" unicode="&#xf6ef;" horiz-adv-x="626" 
d="M55 496v344h59v-52h3q31 60 109 60q83 0 110 -73q32 73 120 73q52 0 85.5 -32.5t33.5 -101.5v-218h-62v205q0 95 -76 95q-39 0 -65 -31t-26 -89v-180h-62v204q0 96 -77 96q-38 0 -64 -31t-26 -88v-181h-62z" />
    <glyph glyph-name="o.superior" unicode="&#xf6f0;" horiz-adv-x="409" 
d="M34 668q0 81 47.5 130.5t122.5 49.5q78 0 124.5 -49t46.5 -131q0 -81 -47.5 -130t-123.5 -49q-77 0 -123.5 48.5t-46.5 130.5zM98 668q0 -58 29.5 -93.5t76.5 -35.5t77 35.5t30 93.5q0 59 -29 94t-78 35q-47 0 -76.5 -35.5t-29.5 -93.5z" />
    <glyph glyph-name="r.superior" unicode="&#xf6f1;" horiz-adv-x="264" 
d="M55 496v344h59v-59h3q28 67 92 67q29 0 50 -16l-15 -56q-21 14 -45 14q-38 0 -60 -36.5t-22 -89.5v-168h-62z" />
    <glyph glyph-name="s.superior" unicode="&#xf6f2;" horiz-adv-x="366" 
d="M35 598h59q6 -65 91 -65q38 0 61 14t23 40q0 24 -16 35t-48 17l-67 14q-45 8 -70 29.5t-25 63.5q0 48 39 75t102 27q61 0 99 -26t42 -79h-59q-4 60 -81 60q-37 0 -59 -13.5t-22 -37.5q0 -22 15 -32.5t48 -17.5l67 -13q45 -9 71 -30t26 -65q0 -51 -40.5 -78t-105.5 -27
q-142 0 -150 109z" />
    <glyph glyph-name="t.superior" unicode="&#xf6f3;" horiz-adv-x="247" 
d="M75 604v186h-67v50h67v104h62v-104h92v-50h-92v-182q0 -32 12 -45.5t40 -13.5h40v-53h-47q-58 0 -82.5 24.5t-24.5 83.5z" />
    <glyph glyph-name="lslash.sc" unicode="&#xf6f9;" horiz-adv-x="460" 
d="M34 121l-31 40l88 67v292h68v-240l118 91l31 -40l-149 -115v-157h280v-59h-348v164z" />
    <glyph glyph-name="oe.sc" unicode="&#xf6fa;" horiz-adv-x="864" 
d="M801 461h-303v-167h246v-57h-246v-178h311v-59h-484q-132 0 -205.5 71.5t-73.5 188.5q0 115 73.5 187.5t205.5 72.5h476v-59zM117 260q0 -88 52 -144.5t156 -56.5h105v402h-105q-104 0 -156 -56.5t-52 -144.5z" />
    <glyph glyph-name="scaron.sc" unicode="&#xf6fd;" horiz-adv-x="518" 
d="M47 146h68q0 -48 38.5 -74.5t104.5 -26.5t102.5 25t36.5 73q0 39 -35 59t-84.5 27t-99.5 17.5t-85 42.5t-35 89q0 68 55 110.5t147 42.5q90 0 142.5 -41t52.5 -110h-65q0 43 -36 69t-94 26q-62 0 -97.5 -23.5t-35.5 -67.5q0 -34 25.5 -54t63 -26t82 -15.5t82 -20.5
t63 -41t25.5 -78q0 -74 -55.5 -117t-154.5 -43q-98 0 -154.5 42t-56.5 115zM229 600l-128 164h65l94 -123l94 123h65l-128 -164h-62z" />
    <glyph glyph-name="zcaron.sc" unicode="&#xf6ff;" horiz-adv-x="495" 
d="M52 461v59h396v-43l-320 -418h316v-59h-405v43l318 418h-305zM216 600l-128 164h65l94 -123l94 123h65l-128 -164h-62z" />
    <glyph glyph-name="exclam.sc" unicode="&#xf721;" horiz-adv-x="256" 
d="M109 148l-21 234v138h80v-138l-21 -234h-38zM88 0v94h80v-94h-80z" />
    <glyph glyph-name="ampersand.sc" unicode="&#xf726;" horiz-adv-x="573" 
d="M52 134q0 54 34.5 88.5t94.5 62.5q-64 65 -64 119q0 53 38.5 89t107.5 36q68 0 104 -32t36 -86q0 -49 -34 -78.5t-98 -59.5l152 -142q28 48 28 113v16h59v-15q0 -87 -44 -154l97 -91h-78l-54 50q-66 -61 -177 -61q-95 0 -148.5 39t-53.5 106zM255 45q84 0 134 43
l-172 161q-47 -23 -72 -48t-25 -62q0 -44 37.5 -69t97.5 -25zM176 405q0 -37 59 -97q53 24 80 45.5t27 53.5t-21 51.5t-62 19.5q-38 0 -60.5 -20.5t-22.5 -52.5z" />
    <glyph glyph-name="zero.oldstyle" unicode="&#xf730;" horiz-adv-x="574" 
d="M41 244q0 112 70 183.5t176 71.5q111 0 178.5 -70.5t67.5 -184.5q0 -112 -70 -183.5t-176 -71.5q-111 0 -178.5 70.5t-67.5 184.5zM112 244q0 -87 49 -141.5t126 -54.5q76 0 125.5 54.5t49.5 141.5q0 89 -49 142.5t-126 53.5q-76 0 -125.5 -54.5t-49.5 -141.5z" />
    <glyph glyph-name="one.oldstyle" unicode="&#xf731;" horiz-adv-x="326" 
d="M42 316l-31 52l175 121h52v-489h-67v405z" />
    <glyph glyph-name="two.oldstyle" unicode="&#xf732;" horiz-adv-x="483" 
d="M42 0q0 48 12 85t35.5 63t50.5 43t65 34l56 24q31 13 45.5 20t32 20t24.5 28.5t7 36.5q0 36 -30 62.5t-93 26.5q-132 0 -141 -125h-62q3 93 62 137t141 44q87 0 139 -39.5t52 -105.5q0 -23 -4.5 -41t-17.5 -33.5t-22 -25t-32.5 -21.5t-33.5 -16.5l-39 -17.5l-57 -24
q-110 -47 -110 -116h320v-59h-400z" />
    <glyph glyph-name="three.oldstyle" unicode="&#xf733;" horiz-adv-x="514" 
d="M23 5h65q0 -77 44 -117t117 -40q72 0 116.5 37.5t44.5 103.5q0 62 -46 100.5t-115 38.5h-48v59h48q58 0 97 36t39 93q0 58 -39.5 91t-96.5 33q-59 0 -97.5 -35t-38.5 -103h-62q0 91 55.5 144t142.5 53q89 0 145 -50.5t56 -131.5q0 -52 -32 -96t-76 -60v-4
q59 -15 97.5 -61.5t38.5 -108.5q0 -91 -64.5 -144.5t-164.5 -53.5q-104 0 -165 55t-61 161z" />
    <glyph glyph-name="four.oldstyle" unicode="&#xf734;" horiz-adv-x="528" 
d="M25 2v49l335 438h53v-428h99v-59h-99v-202h-68v202h-320zM99 61h246v316z" />
    <glyph glyph-name="five.oldstyle" unicode="&#xf735;" horiz-adv-x="499" 
d="M38 -20h68q8 -55 46 -93.5t107 -38.5q64 0 108.5 44.5t44.5 121.5t-42.5 122t-106.5 45q-80 0 -140 -81l-63 3l20 385h359v-62h-297l-14 -248h3q51 62 141 62t149 -59.5t59 -160.5q0 -109 -64.5 -170t-156.5 -61q-97 0 -154.5 52.5t-66.5 138.5z" />
    <glyph glyph-name="six.oldstyle" unicode="&#xf736;" horiz-adv-x="544" 
d="M47 325q0 194 66 284t174 90q91 0 141.5 -49.5t59.5 -133.5h-68q-16 124 -133 124q-78 0 -123.5 -74t-45.5 -237q19 51 67 81t108 30q95 0 153 -61.5t58 -161.5q0 -105 -64.5 -166.5t-156.5 -61.5q-236 0 -236 336zM131 209q0 -73 43 -117t108 -44q68 0 111 45.5
t43 123.5q0 72 -42.5 118t-107.5 46q-70 0 -112.5 -47.5t-42.5 -124.5z" />
    <glyph glyph-name="seven.oldstyle" unicode="&#xf737;" horiz-adv-x="448" 
d="M62 -200l296 626h-342v62h416v-49l-299 -639h-71z" />
    <glyph glyph-name="eight.oldstyle" unicode="&#xf738;" horiz-adv-x="541" 
d="M39 183q0 64 38.5 111t97.5 63v4q-46 15 -77 58.5t-31 97.5q0 81 57 131.5t147 50.5t147 -50.5t57 -131.5q0 -54 -31 -97.5t-77 -58.5v-4q59 -16 97.5 -63t38.5 -111q0 -90 -64 -142t-168 -52t-168 52t-64 142zM107 188q0 -66 45 -103t119 -37t119 37t45 103
q0 62 -47 101t-117 39t-117 -39t-47 -101zM271 387q59 0 99 36t40 93q0 58 -40 92.5t-99 34.5t-99 -34.5t-40 -92.5q0 -57 40 -93t99 -36z" />
    <glyph glyph-name="nine.oldstyle" unicode="&#xf739;" horiz-adv-x="538" 
d="M489 166q0 -377 -239 -377q-90 0 -143.5 50.5t-58.5 132.5h68q6 -56 40 -90t94 -34q168 0 168 311q-19 -51 -67 -81t-108 -30q-95 0 -153 61.5t-58 161.5q0 105 64.5 166.5t156.5 61.5q236 0 236 -333zM405 279q0 65 -40.5 113t-109.5 48q-68 0 -111.5 -45t-43.5 -124
q0 -72 42.5 -118t108.5 -46q70 0 112 47.5t42 124.5z" />
    <glyph glyph-name="question.sc" unicode="&#xf73f;" horiz-adv-x="453" 
d="M190 151v20q0 31 11.5 56t29 40t38 30l38 27t29 30t11.5 39q0 36 -33.5 59t-84.5 23q-59 0 -92.5 -30t-33.5 -81h-65q0 73 51 120t140 47q82 0 134 -36.5t52 -98.5q0 -42 -25 -73t-55 -47t-55 -42.5t-25 -59.5v-23h-65zM184 0v94h77v-94h-77z" />
    <glyph glyph-name="a.sc" unicode="&#xf761;" horiz-adv-x="508" 
d="M10 0l205 520h80l203 -520h-71l-54 141h-241l-54 -141h-68zM255 451h-3l-98 -254h198z" />
    <glyph glyph-name="b.sc" unicode="&#xf762;" horiz-adv-x="569" 
d="M91 0v520h230q85 0 128 -34.5t43 -97.5q0 -39 -23 -69.5t-69 -41.5v-2q53 -8 84 -42.5t31 -82.5q0 -67 -47 -108.5t-132 -41.5h-245zM336 241h-177v-182h177q53 0 80.5 25.5t27.5 68.5q0 40 -28 64t-80 24zM321 461h-162v-162h164q47 0 72.5 24t25.5 63q0 75 -100 75z
" />
    <glyph glyph-name="c.sc" unicode="&#xf763;" horiz-adv-x="581" 
d="M46 260q0 116 72.5 193.5t187.5 77.5q93 0 155.5 -48t80.5 -127h-68q-34 113 -165 113q-86 0 -139 -59t-53 -150q0 -88 52.5 -148.5t139.5 -60.5q128 0 165 113h68q-19 -80 -81 -127.5t-155 -47.5q-116 0 -188 79t-72 192z" />
    <glyph glyph-name="d.sc" unicode="&#xf764;" horiz-adv-x="592" 
d="M91 0v520h176q132 0 205.5 -71.5t73.5 -188.5q0 -115 -74 -187.5t-205 -72.5h-176zM267 461h-108v-402h108q104 0 156 56.5t52 144.5t-52 144.5t-156 56.5z" />
    <glyph glyph-name="e.sc" unicode="&#xf765;" horiz-adv-x="522" 
d="M91 0v520h371v-59h-303v-167h246v-57h-246v-178h311v-59h-379z" />
    <glyph glyph-name="f.sc" unicode="&#xf766;" horiz-adv-x="492" 
d="M91 0v520h367v-59h-299v-187h239v-57h-239v-217h-68z" />
    <glyph glyph-name="g.sc" unicode="&#xf767;" horiz-adv-x="632" 
d="M319 217v56h236v-273h-44l-9 83h-1q-58 -94 -189 -94q-115 0 -189 79t-74 192q0 118 75.5 194.5t195.5 76.5q94 0 156 -46.5t78 -118.5h-71q-12 44 -54 73.5t-109 29.5q-91 0 -145.5 -58.5t-54.5 -150.5q0 -88 53.5 -148.5t141.5 -60.5q75 0 126.5 38.5t51.5 111.5v16
h-174z" />
    <glyph glyph-name="h.sc" unicode="&#xf768;" horiz-adv-x="617" 
d="M91 0v520h68v-228h299v228h68v-520h-68v233h-299v-233h-68z" />
    <glyph glyph-name="i.sc" unicode="&#xf769;" horiz-adv-x="250" 
d="M91 0v520h68v-520h-68z" />
    <glyph glyph-name="j.sc" unicode="&#xf76a;" horiz-adv-x="441" 
d="M44 149v26h65v-26q0 -101 94 -101q42 0 68 25.5t26 78.5v368h68v-365q0 -83 -44.5 -124.5t-117.5 -41.5t-116 39.5t-43 120.5z" />
    <glyph glyph-name="k.sc" unicode="&#xf76b;" horiz-adv-x="552" 
d="M91 0v520h68v-298l281 298h81l-219 -228l232 -292h-80l-196 246l-99 -103v-143h-68z" />
    <glyph glyph-name="l.sc" unicode="&#xf76c;" horiz-adv-x="460" 
d="M91 0v520h68v-458h280v-62h-348z" />
    <glyph glyph-name="m.sc" unicode="&#xf76d;" horiz-adv-x="753" 
d="M91 0v520h85l201 -431h2l200 431h83v-520h-68l5 417h-2l-196 -417h-50l-195 417h-3l6 -417h-68z" />
    <glyph glyph-name="n.sc" unicode="&#xf76e;" horiz-adv-x="618" 
d="M91 0v520h62l306 -408h2l-2 408h68v-520h-62l-306 409h-3l3 -409h-68z" />
    <glyph glyph-name="o.sc" unicode="&#xf76f;" horiz-adv-x="624" 
d="M46 260q0 116 75.5 193.5t190.5 77.5q114 0 190 -77.5t76 -193.5t-76 -193.5t-190 -77.5q-115 0 -190.5 77.5t-75.5 193.5zM117 260q0 -91 54 -150t141 -59q86 0 140.5 59t54.5 150t-54.5 150t-140.5 59q-87 0 -141 -59t-54 -150z" />
    <glyph glyph-name="p.sc" unicode="&#xf770;" horiz-adv-x="538" 
d="M91 0v520h219q87 0 135 -46.5t48 -121.5t-48 -121t-135 -46h-151v-185h-68zM310 461h-151v-217h151q55 0 85 29.5t30 78.5q0 50 -29.5 79.5t-85.5 29.5z" />
    <glyph glyph-name="q.sc" unicode="&#xf771;" horiz-adv-x="624" 
d="M46 260q0 116 75.5 193.5t190.5 77.5q114 0 190 -77.5t76 -193.5q0 -123 -86 -203l104 -107l-46 -43l-110 113q-57 -31 -128 -31q-115 0 -190.5 77.5t-75.5 193.5zM117 260q0 -91 54 -150t141 -59q86 0 140.5 59t54.5 150t-54.5 150t-140.5 59q-87 0 -141 -59t-54 -150z
" />
    <glyph glyph-name="r.sc" unicode="&#xf772;" horiz-adv-x="559" 
d="M91 0v520h225q86 0 132 -40.5t46 -113.5q0 -61 -33 -102t-95 -53l148 -211h-77l-141 207h-137v-207h-68zM316 461h-157v-195h157q54 0 82 27t28 73q0 44 -28.5 69.5t-81.5 25.5z" />
    <glyph glyph-name="s.sc" unicode="&#xf773;" horiz-adv-x="518" 
d="M47 146h68q0 -48 38.5 -74.5t104.5 -26.5t102.5 25t36.5 73q0 39 -35 59t-84.5 27t-99.5 17.5t-85 42.5t-35 89q0 68 55 110.5t147 42.5q90 0 142.5 -41t52.5 -110h-65q0 43 -36 69t-94 26q-62 0 -97.5 -23.5t-35.5 -67.5q0 -34 25.5 -54t63 -26t82 -15.5t82 -20.5
t63 -41t25.5 -78q0 -74 -55.5 -117t-154.5 -43q-98 0 -154.5 42t-56.5 115z" />
    <glyph glyph-name="t.sc" unicode="&#xf774;" horiz-adv-x="497" 
d="M18 461v59h462v-59h-197v-461h-68v461h-197z" />
    <glyph glyph-name="u.sc" unicode="&#xf775;" horiz-adv-x="589" 
d="M76 207v313h68v-313q0 -75 38 -115.5t111 -40.5t112.5 40.5t39.5 115.5v313h68v-313q0 -112 -59.5 -165t-160.5 -53q-100 0 -158.5 53t-58.5 165z" />
    <glyph glyph-name="v.sc" unicode="&#xf776;" horiz-adv-x="502" 
d="M207 0l-197 520h71l170 -451h3l170 451h68l-200 -520h-85z" />
    <glyph glyph-name="w.sc" unicode="&#xf777;" horiz-adv-x="754" 
d="M159 0l-143 520h71l117 -446h3l138 446h70l137 -446h3l115 446h68l-140 -520h-87l-132 433h-2l-131 -433h-87z" />
    <glyph glyph-name="x.sc" unicode="&#xf778;" horiz-adv-x="486" 
d="M12 0l193 266l-186 254h80l146 -203l143 203h77l-185 -252l194 -268h-74l-160 218l-157 -218h-71z" />
    <glyph glyph-name="y.sc" unicode="&#xf779;" horiz-adv-x="486" 
d="M207 0v206l-202 314h80l158 -249h2l162 249h73l-205 -313v-207h-68z" />
    <glyph glyph-name="z.sc" unicode="&#xf77a;" horiz-adv-x="495" 
d="M52 461v59h396v-43l-320 -418h316v-59h-405v43l318 418h-305z" />
    <glyph glyph-name="exclamdown.sc" unicode="&#xf7a1;" horiz-adv-x="256" 
d="M88 426v94h80v-94h-80zM88 0v138l21 234h38l21 -234v-138h-80z" />
    <glyph glyph-name="questiondown.sc" unicode="&#xf7bf;" horiz-adv-x="453" 
d="M263 369v-20q0 -37 -16 -65t-39.5 -45t-46.5 -32t-39 -35t-16 -45q0 -36 33.5 -59t84.5 -23q59 0 92.5 30t33.5 81h65q0 -73 -51 -120t-140 -47q-82 0 -134 36.5t-52 98.5q0 42 25 73t55 47t55 42.5t25 59.5v23h65zM268 520v-94h-76v94h76z" />
    <glyph glyph-name="agrave.sc" unicode="&#xf7e0;" horiz-adv-x="508" 
d="M10 0l205 520h80l203 -520h-71l-54 141h-241l-54 -141h-68zM255 451h-3l-98 -254h198zM230 600l-137 164h81l106 -164h-50z" />
    <glyph glyph-name="aacute.sc" unicode="&#xf7e1;" horiz-adv-x="508" 
d="M10 0l205 520h80l203 -520h-71l-54 141h-241l-54 -141h-68zM255 451h-3l-98 -254h198zM228 600l106 164h81l-137 -164h-50z" />
    <glyph glyph-name="acircumflex.sc" unicode="&#xf7e2;" horiz-adv-x="508" 
d="M10 0l205 520h80l203 -520h-71l-54 141h-241l-54 -141h-68zM255 451h-3l-98 -254h198zM95 600l128 164h62l128 -164h-65l-94 123l-94 -123h-65z" />
    <glyph glyph-name="atilde.sc" unicode="&#xf7e3;" horiz-adv-x="508" 
d="M10 0l205 520h80l203 -520h-71l-54 141h-241l-54 -141h-68zM255 451h-3l-98 -254h198zM99 632q2 43 24.5 71t62.5 28q30 0 77.5 -25.5t63.5 -25.5q38 0 46 52h38q-2 -43 -24.5 -71t-62.5 -28q-30 0 -77.5 25.5t-63.5 25.5q-38 0 -46 -52h-38z" />
    <glyph glyph-name="adieresis.sc" unicode="&#xf7e4;" horiz-adv-x="508" 
d="M10 0l205 520h80l203 -520h-71l-54 141h-241l-54 -141h-68zM255 451h-3l-98 -254h198zM319 637v90h68v-90h-68zM122 637v90h68v-90h-68z" />
    <glyph glyph-name="aring.sc" unicode="&#xf7e5;" horiz-adv-x="508" 
d="M10 0l205 520h80l203 -520h-71l-54 141h-241l-54 -141h-68zM255 451h-3l-98 -254h198zM254 599q-39 0 -67.5 26t-28.5 67t28.5 67t67.5 26t67.5 -26t28.5 -67t-28.5 -67t-67.5 -26zM254 634q24 0 41 16.5t17 41.5t-17 41.5t-41 16.5t-41 -16.5t-17 -41.5t17 -41.5
t41 -16.5z" />
    <glyph glyph-name="ae.sc" unicode="&#xf7e6;" horiz-adv-x="863" 
d="M2 0l406 520h392v-59h-303v-167h246v-57h-246v-178h311v-59h-379v129h-251l-99 -129h-77zM427 453l-206 -268h208v268h-2z" />
    <glyph glyph-name="ccedilla.sc" unicode="&#xf7e7;" horiz-adv-x="581" 
d="M265 -78l24 68q-109 6 -176 83.5t-67 186.5q0 116 72.5 193.5t187.5 77.5q93 0 155.5 -48t80.5 -127h-68q-34 113 -165 113q-86 0 -139 -59t-53 -150q0 -88 52.5 -148.5t139.5 -60.5q128 0 165 113h68q-18 -78 -77 -125t-148 -50l-4 -29q44 -2 68 -26t24 -59
q0 -40 -27.5 -65.5t-81.5 -25.5h-53v44h50q59 0 59 47t-60 47h-27z" />
    <glyph glyph-name="egrave.sc" unicode="&#xf7e8;" horiz-adv-x="522" 
d="M91 0v520h371v-59h-303v-167h246v-57h-246v-178h311v-59h-379zM252 600l-137 164h81l106 -164h-50z" />
    <glyph glyph-name="eacute.sc" unicode="&#xf7e9;" horiz-adv-x="522" 
d="M91 0v520h371v-59h-303v-167h246v-57h-246v-178h311v-59h-379zM250 600l106 164h81l-137 -164h-50z" />
    <glyph glyph-name="ecircumflex.sc" unicode="&#xf7ea;" horiz-adv-x="522" 
d="M91 0v520h371v-59h-303v-167h246v-57h-246v-178h311v-59h-379zM117 600l128 164h62l128 -164h-65l-94 123l-94 -123h-65z" />
    <glyph glyph-name="edieresis.sc" unicode="&#xf7eb;" horiz-adv-x="522" 
d="M91 0v520h371v-59h-303v-167h246v-57h-246v-178h311v-59h-379zM341 637v90h68v-90h-68zM144 637v90h68v-90h-68z" />
    <glyph glyph-name="igrave.sc" unicode="&#xf7ec;" horiz-adv-x="250" 
d="M91 0v520h68v-520h-68zM100 600l-137 164h81l106 -164h-50z" />
    <glyph glyph-name="iacute.sc" unicode="&#xf7ed;" horiz-adv-x="250" 
d="M91 0v520h68v-520h-68zM98 600l106 164h81l-137 -164h-50z" />
    <glyph glyph-name="icircumflex.sc" unicode="&#xf7ee;" horiz-adv-x="250" 
d="M91 0v520h68v-520h-68zM-35 600l128 164h62l128 -164h-65l-94 123l-94 -123h-65z" />
    <glyph glyph-name="idieresis.sc" unicode="&#xf7ef;" horiz-adv-x="250" 
d="M91 0v520h68v-520h-68zM189 637v90h68v-90h-68zM-8 637v90h68v-90h-68z" />
    <glyph glyph-name="eth.sc" unicode="&#xf7f0;" horiz-adv-x="592" 
d="M4 235v50h87v235h176q132 0 205.5 -71.5t73.5 -188.5q0 -115 -74 -187.5t-205 -72.5h-176v235h-87zM267 461h-108v-176h111v-50h-111v-176h108q104 0 156 56.5t52 144.5t-52 144.5t-156 56.5z" />
    <glyph glyph-name="ntilde.sc" unicode="&#xf7f1;" horiz-adv-x="618" 
d="M91 0v520h62l306 -408h2l-2 408h68v-520h-62l-306 409h-3l3 -409h-68zM154 632q2 43 24.5 71t62.5 28q30 0 77.5 -25.5t63.5 -25.5q38 0 46 52h38q-2 -43 -24.5 -71t-62.5 -28q-30 0 -77.5 25.5t-63.5 25.5q-38 0 -46 -52h-38z" />
    <glyph glyph-name="ograve.sc" unicode="&#xf7f2;" horiz-adv-x="624" 
d="M46 260q0 116 75.5 193.5t190.5 77.5q114 0 190 -77.5t76 -193.5t-76 -193.5t-190 -77.5q-115 0 -190.5 77.5t-75.5 193.5zM117 260q0 -91 54 -150t141 -59q86 0 140.5 59t54.5 150t-54.5 150t-140.5 59q-87 0 -141 -59t-54 -150zM288 600l-137 164h81l106 -164h-50z" />
    <glyph glyph-name="oacute.sc" unicode="&#xf7f3;" horiz-adv-x="624" 
d="M46 260q0 116 75.5 193.5t190.5 77.5q114 0 190 -77.5t76 -193.5t-76 -193.5t-190 -77.5q-115 0 -190.5 77.5t-75.5 193.5zM117 260q0 -91 54 -150t141 -59q86 0 140.5 59t54.5 150t-54.5 150t-140.5 59q-87 0 -141 -59t-54 -150zM286 600l106 164h81l-137 -164h-50z" />
    <glyph glyph-name="ocircumflex.sc" unicode="&#xf7f4;" horiz-adv-x="624" 
d="M46 260q0 116 75.5 193.5t190.5 77.5q114 0 190 -77.5t76 -193.5t-76 -193.5t-190 -77.5q-115 0 -190.5 77.5t-75.5 193.5zM117 260q0 -91 54 -150t141 -59q86 0 140.5 59t54.5 150t-54.5 150t-140.5 59q-87 0 -141 -59t-54 -150zM153 600l128 164h62l128 -164h-65
l-94 123l-94 -123h-65z" />
    <glyph glyph-name="otilde.sc" unicode="&#xf7f5;" horiz-adv-x="624" 
d="M46 260q0 116 75.5 193.5t190.5 77.5q114 0 190 -77.5t76 -193.5t-76 -193.5t-190 -77.5q-115 0 -190.5 77.5t-75.5 193.5zM117 260q0 -91 54 -150t141 -59q86 0 140.5 59t54.5 150t-54.5 150t-140.5 59q-87 0 -141 -59t-54 -150zM157 632q2 43 24.5 71t62.5 28
q30 0 77.5 -25.5t63.5 -25.5q38 0 46 52h38q-2 -43 -24.5 -71t-62.5 -28q-30 0 -77.5 25.5t-63.5 25.5q-38 0 -46 -52h-38z" />
    <glyph glyph-name="odieresis.sc" unicode="&#xf7f6;" horiz-adv-x="624" 
d="M46 260q0 116 75.5 193.5t190.5 77.5q114 0 190 -77.5t76 -193.5t-76 -193.5t-190 -77.5q-115 0 -190.5 77.5t-75.5 193.5zM117 260q0 -91 54 -150t141 -59q86 0 140.5 59t54.5 150t-54.5 150t-140.5 59q-87 0 -141 -59t-54 -150zM377 637v90h68v-90h-68zM180 637v90h68
v-90h-68z" />
    <glyph glyph-name="oslash.sc" unicode="&#xf7f8;" horiz-adv-x="624" 
d="M61 -11l62 75q-77 79 -77 196q0 116 75.5 193.5t190.5 77.5q88 0 156 -49l41 49h57l-64 -78q76 -78 76 -193q0 -116 -76 -193.5t-190 -77.5q-88 0 -155 47l-39 -47h-57zM117 260q0 -88 49 -145l261 317q-50 37 -115 37q-87 0 -141 -59t-54 -150zM507 260q0 83 -48 142
l-261 -316q47 -35 114 -35q86 0 140.5 59t54.5 150z" />
    <glyph glyph-name="ugrave.sc" unicode="&#xf7f9;" horiz-adv-x="589" 
d="M76 207v313h68v-313q0 -75 38 -115.5t111 -40.5t112.5 40.5t39.5 115.5v313h68v-313q0 -112 -59.5 -165t-160.5 -53q-100 0 -158.5 53t-58.5 165zM270 600l-137 164h81l106 -164h-50z" />
    <glyph glyph-name="uacute.sc" unicode="&#xf7fa;" horiz-adv-x="589" 
d="M76 207v313h68v-313q0 -75 38 -115.5t111 -40.5t112.5 40.5t39.5 115.5v313h68v-313q0 -112 -59.5 -165t-160.5 -53q-100 0 -158.5 53t-58.5 165zM268 600l106 164h81l-137 -164h-50z" />
    <glyph glyph-name="ucircumflex.sc" unicode="&#xf7fb;" horiz-adv-x="589" 
d="M76 207v313h68v-313q0 -75 38 -115.5t111 -40.5t112.5 40.5t39.5 115.5v313h68v-313q0 -112 -59.5 -165t-160.5 -53q-100 0 -158.5 53t-58.5 165zM135 600l128 164h62l128 -164h-65l-94 123l-94 -123h-65z" />
    <glyph glyph-name="udieresis.sc" unicode="&#xf7fc;" horiz-adv-x="589" 
d="M76 207v313h68v-313q0 -75 38 -115.5t111 -40.5t112.5 40.5t39.5 115.5v313h68v-313q0 -112 -59.5 -165t-160.5 -53q-100 0 -158.5 53t-58.5 165zM359 637v90h68v-90h-68zM162 637v90h68v-90h-68z" />
    <glyph glyph-name="yacute.sc" unicode="&#xf7fd;" horiz-adv-x="486" 
d="M207 0v206l-202 314h80l158 -249h2l162 249h73l-205 -313v-207h-68zM217 600l106 164h81l-137 -164h-50z" />
    <glyph glyph-name="thorn.sc" unicode="&#xf7fe;" horiz-adv-x="538" 
d="M91 0v520h68v-84h151q87 0 135 -46.5t48 -120.5q0 -76 -48 -122t-135 -46h-151v-101h-68zM310 377h-151v-218h151q55 0 85 30t30 80q0 49 -30 78.5t-85 29.5z" />
    <glyph glyph-name="ydieresis.sc" unicode="&#xf7ff;" horiz-adv-x="486" 
d="M207 0v206l-202 314h80l158 -249h2l162 249h73l-205 -313v-207h-68zM308 637v90h68v-90h-68zM111 637v90h68v-90h-68z" />
    <glyph glyph-name="at.sc" horiz-adv-x="834" 
d="M243 94q0 45 31 75t94 37l83 10q30 4 40.5 10.5t10.5 20.5q0 40 -23.5 62.5t-66.5 22.5q-38 0 -63.5 -20.5t-28.5 -58.5h-59q5 62 48 94t103 32q72 0 112.5 -34.5t40.5 -100.5v-130q0 -42 19 -61.5t49 -19.5q42 0 70.5 43.5t28.5 128.5q0 128 -88.5 203.5t-223.5 75.5
q-141 0 -229.5 -86.5t-88.5 -221.5q0 -134 85 -219t221 -85q119 0 180 61h65q-86 -108 -245 -108q-156 0 -256 100t-100 251q0 153 103 254t265 101q157 0 259.5 -90.5t102.5 -235.5q0 -106 -45 -159.5t-113 -53.5q-91 0 -112 66q-40 -69 -142 -69q-59 0 -93 29t-34 76z
M502 153v38q-13 -13 -42 -16l-79 -10q-73 -9 -73 -65q0 -28 20.5 -46t55.5 -18q50 0 84 30t34 87z" />
    <glyph glyph-name="fi.sc" horiz-adv-x="741" 
d="M91 0v520h367v-59h-299v-187h239v-57h-239v-217h-68zM582 0v520h68v-520h-68z" />
    <glyph glyph-name="fl.sc" horiz-adv-x="951" 
d="M91 0v520h367v-59h-299v-187h239v-57h-239v-217h-68zM582 0v520h68v-458h281v-62h-349z" />
    <glyph glyph-name="t_t" horiz-adv-x="605" 
d="M380 140v293h-219v-290q0 -45 17.5 -64.5t54.5 -19.5h46v-59h-49q-137 0 -137 140v293h-94v55h94v148h68v-148h219v148h68v-148h133v-55h-133v-290q0 -45 19 -64.5t56 -19.5h58v-59h-64q-137 0 -137 140z" />
    <glyph glyph-name="t_f" horiz-adv-x="579" 
d="M383 0v433h-220v-290q0 -47 14 -65.5t50 -18.5h52v-59h-55q-68 0 -98 33.5t-30 106.5v293h-94v55h94v148h67v-148h220v86q0 158 155 158h53v-59h-47q-50 0 -71.5 -24.5t-21.5 -77.5v-83h124v-55h-124v-433h-68z" />
    <glyph glyph-name="caronquoteleft" horiz-adv-x="550" 
d="M241 568v74l36 103h31l-27 -97h28v-80h-68z" />
    <glyph glyph-name="caronquoteright" horiz-adv-x="550" 
d="M244 568l27 97h-28v80h68v-74l-36 -103h-31z" />
    <glyph glyph-name="slashedzero" horiz-adv-x="568" 
d="M284 -11q-120 0 -178.5 97.5t-58.5 257.5t58.5 257.5t178.5 97.5t178.5 -97.5t58.5 -257.5t-58.5 -257.5t-178.5 -97.5zM284 51q83 0 124.5 77t41.5 216q0 138 -40 212l-221 -468q39 -37 95 -37zM118 344q0 -139 39 -211l221 467q-39 37 -94 37q-84 0 -125 -77t-41 -216z
" />
    <glyph glyph-name="zero.sc" horiz-adv-x="504" 
d="M252 -11q-103 0 -153.5 75t-50.5 196t50.5 196t153.5 75t153.5 -75t50.5 -196t-50.5 -196t-153.5 -75zM252 45q66 0 99.5 57t33.5 158q0 102 -33 158.5t-100 56.5t-100 -56.5t-33 -158.5q0 -101 33.5 -158t99.5 -57z" />
    <glyph glyph-name="one.sc" horiz-adv-x="504" 
d="M100 353l-28 49l187 118h49v-464h145v-56h-366v56h153v383z" />
    <glyph glyph-name="two.sc" horiz-adv-x="504" 
d="M62 0q3 87 33.5 135.5t102.5 89.5l66 39q30 17 43 25t31 23t25 31.5t7 38.5q0 40 -30.5 66.5t-84.5 26.5q-55 0 -88.5 -27.5t-36.5 -82.5h-62q3 86 56.5 126t130.5 40q80 0 130 -39t50 -107q0 -31 -9.5 -55.5t-31.5 -44.5t-38 -31t-49 -31l-67 -39q-58 -34 -78.5 -61.5
t-22.5 -66.5h303v-56h-380z" />
    <glyph glyph-name="three.sc" horiz-adv-x="504" 
d="M54 151h65q0 -54 37 -81.5t96 -27.5q62 0 97.5 26t35.5 77q0 46 -36.5 73t-93.5 27h-44v52h44q49 0 80.5 25t31.5 66q0 42 -31.5 66t-83.5 24q-48 0 -81.5 -25t-33.5 -72h-59q0 69 49 109.5t125 40.5q82 0 129.5 -39.5t47.5 -103.5q0 -42 -24 -72.5t-64 -41.5v-3
q48 -13 80 -48t32 -84q0 -71 -55.5 -110.5t-145.5 -39.5q-91 0 -144.5 40.5t-53.5 121.5z" />
    <glyph glyph-name="four.sc" horiz-adv-x="504" 
d="M31 127v46l287 347h55v-338h88v-55h-88v-127h-68v127h-274zM104 182h201v244z" />
    <glyph glyph-name="five.sc" horiz-adv-x="504" 
d="M57 136h68q7 -39 39.5 -65t90.5 -26q56 0 92 33t36 86q0 51 -35.5 84t-89.5 33q-70 0 -121 -63l-65 6l17 296h330v-59h-268l-11 -174h3q42 49 124 49q79 0 131.5 -47t52.5 -125q0 -79 -57 -127t-139 -48q-87 0 -138.5 40t-59.5 107z" />
    <glyph glyph-name="six.sc" horiz-adv-x="504" 
d="M268 475q-64 0 -104 -51t-42 -165q16 34 57 55.5t90 21.5q82 0 133 -46.5t51 -125.5q0 -80 -55.5 -127.5t-137.5 -47.5q-95 0 -152 60.5t-57 196.5q0 147 61 216t156 69q81 0 124.5 -38.5t51.5 -103.5h-68q-15 86 -108 86zM134 161q0 -52 36 -82.5t90 -30.5q56 0 90.5 32
t34.5 84q0 50 -35 82t-90 32q-56 0 -91 -32.5t-35 -84.5z" />
    <glyph glyph-name="seven.sc" horiz-adv-x="504" 
d="M137 0l247 458h-328v62h405v-43l-250 -477h-74z" />
    <glyph glyph-name="eight.sc" horiz-adv-x="504" 
d="M75 388q0 64 48 103.5t129 39.5t129 -39.5t48 -103.5q0 -41 -24 -72t-64 -42v-3q48 -13 80 -48t32 -84q0 -72 -54.5 -111t-146.5 -39t-146.5 39t-54.5 111q0 49 32 84t80 48v3q-40 11 -64 42t-24 72zM119 142q0 -47 36 -73.5t97 -26.5t97 26.5t36 73.5t-37 75t-96 28
t-96 -28t-37 -75zM137 388q0 -43 32 -67t83 -24t83 24t32 67q0 42 -32.5 66t-82.5 24t-82.5 -24t-32.5 -66z" />
    <glyph glyph-name="nine.sc" horiz-adv-x="504" 
d="M244 45q135 0 139 214q-16 -34 -57.5 -54.5t-89.5 -20.5q-82 0 -133 46t-51 125q0 80 55.5 128t137.5 48q95 0 152 -60.5t57 -196.5q0 -148 -57.5 -216.5t-152.5 -68.5q-82 0 -128.5 39t-54.5 103h68q7 -37 35.5 -61.5t79.5 -24.5zM371 359q0 53 -35 83t-91 30t-89 -32.5
t-33 -84.5q0 -50 33.5 -81t88.5 -31q56 0 91 31.5t35 84.5z" />
    <glyph glyph-name="slashedzero.sc" horiz-adv-x="504" 
d="M252 -11q-103 0 -153.5 75t-50.5 196t50.5 196t153.5 75t153.5 -75t50.5 -196t-50.5 -196t-153.5 -75zM252 45q66 0 99.5 57t33.5 158q0 103 -34 159l-166 -354q29 -20 67 -20zM119 260q0 -102 33 -158l167 353q-29 20 -67 20q-67 0 -100 -56.5t-33 -158.5z" />
    <glyph glyph-name="currency.sc" horiz-adv-x="504" 
d="M95 68l-35 34l59 60q-33 47 -33 98q0 52 34 99l-59 61l34 34l60 -61q40 31 97 31q54 0 96 -31l60 61l35 -34l-60 -60q35 -47 35 -100q0 -50 -34 -98l59 -60l-34 -34l-59 59q-40 -31 -98 -31t-99 32zM252 146q48 0 79 31.5t31 82.5t-31 82.5t-79 31.5t-79 -31.5t-31 -82.5
t31 -82.5t79 -31.5z" />
    <glyph glyph-name="dollar.sc" horiz-adv-x="504" 
d="M49 147h68q1 -47 39 -76t94 -29q59 0 93.5 25t34.5 69q0 36 -24.5 56t-78.5 34l-80 21q-131 34 -131 137q0 59 41.5 98.5t112.5 46.5v87h62v-87q64 -8 105.5 -46t45.5 -95h-65q-6 42 -37.5 66t-79.5 24q-52 0 -84.5 -22.5t-32.5 -62.5q0 -36 23.5 -54.5t75.5 -32.5
l80 -22q70 -19 102.5 -51.5t32.5 -90.5q0 -64 -44.5 -104t-120.5 -47v-91h-62v91q-75 7 -121 48.5t-49 107.5z" />
    <glyph glyph-name="cent.sc" horiz-adv-x="504" 
d="M234 -11v79q-79 10 -124 63.5t-45 132.5q0 77 46 129.5t126 62.5v75h62v-75q63 -7 103 -44t46 -89h-68q-6 34 -36.5 57t-75.5 23q-63 0 -97.5 -39t-34.5 -100t35 -101.5t94 -40.5q47 0 77.5 24t37.5 58h65q-6 -51 -47 -89t-102 -47v-79h-62z" />
    <glyph glyph-name="Euro.sc" horiz-adv-x="504" 
d="M15 189l11 38h60q-1 11 -1 33q0 26 1 39h-55l11 38h49q15 89 66.5 141.5t139.5 52.5q75 0 118.5 -40t56.5 -108h-62q-9 42 -37 67t-73 25q-111 0 -137 -138h171l-11 -38h-166q-1 -13 -1 -39q0 -23 1 -33h161l-12 -38h-145q24 -144 139 -144q81 0 106 79h62
q-32 -135 -171 -135q-89 0 -141 54t-66 146h-75z" />
    <glyph glyph-name="yen.sc" horiz-adv-x="504" 
d="M90 188v38h125l-190 294h80l151 -236h1l151 236h71l-188 -294h126v-38h-128v-62h128v-38h-128v-88h-68v88h-131v38h131v62h-131z" />
    <glyph glyph-name="sterling.sc" horiz-adv-x="504" 
d="M71 248v42h72q-30 60 -30 99q0 65 42.5 103.5t115.5 38.5q68 0 107 -35t44 -100h-62q-8 82 -89 82q-41 0 -65.5 -23t-24.5 -63q0 -36 32 -102h140v-42h-121q16 -43 16 -76q0 -34 -11 -70q3 -2 16.5 -12t17.5 -12.5t15.5 -10.5t17.5 -10.5l15 -6.5t17.5 -5.5t16.5 -1.5
q32 0 45 20.5t16 60.5h56q-5 -64 -30 -99.5t-84 -35.5q-25 0 -52.5 12.5t-41 23l-43.5 35.5q-40 -68 -106 -68q-43 0 -67 21t-24 56q0 38 26.5 61t67.5 23q35 0 69 -18q1 8 1 25q0 38 -23 88h-92zM113 30q52 0 66 61q-34 24 -63 24q-25 0 -37.5 -12.5t-12.5 -30.5t12 -30
t35 -12z" />
    <glyph glyph-name="florin.sc" horiz-adv-x="504" 
d="M95 224v44h107l16 133q15 130 131 130q57 0 87.5 -30t23.5 -91l-4 -29h-58l4 26q5 36 -9.5 55t-43.5 19q-55 0 -64 -80l-15 -133h126v-44h-131l-28 -245q-15 -129 -131 -129q-58 0 -89.5 29.5t-22.5 90.5l4 29h59l-4 -26q-10 -73 53 -73q54 0 63 79l28 245h-102z" />
    <glyph glyph-name="zero.TOSF" horiz-adv-x="568" 
d="M47 244q0 113 67 184t170 71q108 0 172.5 -70.5t64.5 -184.5q0 -113 -67 -184t-170 -71q-108 0 -172.5 70.5t-64.5 184.5zM118 244q0 -88 46 -142t120 -54q73 0 119.5 54.5t46.5 141.5q0 89 -45.5 142.5t-120.5 53.5q-73 0 -119.5 -54.5t-46.5 -141.5z" />
    <glyph glyph-name="one.TOSF" horiz-adv-x="568" 
d="M113 296l-31 49l204 144h52v-430h182v-59h-446v59h196v347z" />
    <glyph glyph-name="two.TOSF" horiz-adv-x="568" 
d="M67 0q0 92 44 143.5t122 79.5l73 27q31 11 46 17t34.5 18t27.5 28.5t8 38.5q0 37 -34 64t-103 27t-110.5 -31.5t-45.5 -93.5h-62q3 93 66 137t152 44q94 0 149.5 -39.5t55.5 -104.5q0 -29 -9.5 -52t-22 -37t-36.5 -28t-40.5 -20.5t-47.5 -17.5l-73 -26
q-51 -19 -82.5 -48.5t-31.5 -66.5h350v-59h-430z" />
    <glyph glyph-name="three.TOSF" horiz-adv-x="568" 
d="M47 5h65q0 -77 45 -117t119 -40t120 37.5t46 102.5q0 62 -48 101t-118 39h-52v59h52q60 0 100.5 35.5t40.5 93.5t-40.5 91t-100.5 33q-62 0 -101.5 -35t-39.5 -103h-62q0 91 56.5 144t146.5 53q92 0 149 -50t57 -132q0 -53 -33 -97.5t-80 -58.5v-4q61 -14 101 -61.5
t40 -112.5q0 -89 -66.5 -141.5t-167.5 -52.5q-105 0 -167 55t-62 161z" />
    <glyph glyph-name="four.TOSF" horiz-adv-x="568" 
d="M34 2v49l338 438h55v-428h105v-59h-105v-202h-68v202h-325zM106 61h253v323z" />
    <glyph glyph-name="five.TOSF" horiz-adv-x="568" 
d="M63 -20h68q8 -55 49 -93.5t114 -38.5q69 0 116.5 44.5t47.5 121.5q0 76 -45.5 121.5t-117.5 45.5q-87 0 -147 -81l-63 3l20 385h381v-62h-319l-14 -247h3q50 61 148 61q96 0 159 -60.5t63 -159.5q0 -109 -67.5 -170t-164.5 -61q-101 0 -161.5 52.5t-69.5 138.5z" />
    <glyph glyph-name="six.TOSF" horiz-adv-x="568" 
d="M50 328q0 99 21 173t57.5 116t80.5 62t95 20q93 0 145 -49.5t61 -133.5h-68q-7 57 -41 90.5t-97 33.5q-79 0 -131 -75t-52 -237v-1q19 51 72.5 82t116.5 31q97 0 156.5 -61.5t59.5 -161.5q0 -104 -67 -166t-162 -62q-111 0 -179 81t-68 258zM134 209q0 -67 46 -114
t114 -47q71 0 117.5 45t46.5 124q0 72 -45 118t-112 46q-73 0 -120 -47.5t-47 -124.5z" />
    <glyph glyph-name="seven.TOSF" horiz-adv-x="568" 
d="M158 -200l289 626h-392v62h466v-49l-292 -639h-71z" />
    <glyph glyph-name="eight.TOSF" horiz-adv-x="568" 
d="M47 183q0 64 40.5 112t100.5 62v4q-48 14 -80.5 58t-32.5 98q0 82 58 132t151 50t151 -50t58 -132q0 -54 -32.5 -98t-80.5 -58v-4q60 -14 100.5 -62t40.5 -112q0 -90 -65.5 -142t-171.5 -52t-171.5 52t-65.5 142zM115 188q0 -65 47 -102.5t122 -37.5t122 37.5t47 102.5
q0 62 -48.5 101t-120.5 39t-120.5 -39t-48.5 -101zM284 387q62 0 103 35.5t41 93.5t-41 92.5t-103 34.5t-103 -34.5t-41 -92.5t41 -93.5t103 -35.5z" />
    <glyph glyph-name="nine.TOSF" horiz-adv-x="568" 
d="M520 160q0 -195 -66.5 -283t-180.5 -88q-95 0 -148 49.5t-65 133.5h68q10 -55 45 -89.5t100 -34.5q176 0 176 312v1q-20 -51 -73 -82t-116 -31q-97 0 -156.5 61.5t-59.5 161.5q0 104 67 166t162 62q111 0 179 -81t68 -258zM436 279q0 64 -45.5 112.5t-114.5 48.5
t-116.5 -45.5t-47.5 -123.5q0 -72 45 -118t112 -46q73 0 120 47.5t47 124.5z" />
    <glyph glyph-name="slashedzero.TOSF" horiz-adv-x="568" 
d="M47 244q0 113 67 184t170 71q108 0 172.5 -70.5t64.5 -184.5q0 -113 -67 -184t-170 -71q-108 0 -172.5 70.5t-64.5 184.5zM450 244q0 81 -38 133l-222 -300q40 -29 94 -29q73 0 119.5 54.5t46.5 141.5zM118 244q0 -79 38 -133l222 300q-40 29 -94 29q-73 0 -119.5 -54.5
t-46.5 -141.5z" />
    <glyph glyph-name="zero.PPF" horiz-adv-x="562" 
d="M281 -11q-118 0 -176.5 98t-58.5 257t58.5 257t176.5 98t176.5 -98t58.5 -257t-58.5 -257t-176.5 -98zM281 51q81 0 122.5 77.5t41.5 215.5t-41.5 215.5t-122.5 77.5q-82 0 -123 -77t-41 -216q0 -138 41.5 -215.5t122.5 -77.5z" />
    <glyph glyph-name="one.PPF" horiz-adv-x="327" 
d="M45 516l-31 52l176 121h52v-689h-68v605z" />
    <glyph glyph-name="two.PPF" horiz-adv-x="516" 
d="M42 0q4 110 40 170.5t120 119.5l70 49q71 50 89 70q36 40 36 98q0 57 -34 95t-99 38q-67 0 -107 -38.5t-45 -116.5h-62q5 113 65 163.5t149 50.5q91 0 146 -50t55 -139q0 -39 -10 -70t-34 -57t-40 -39t-51 -38q-9 -7 -14 -10l-71 -49q-73 -51 -98 -92t-28 -96h355v-59
h-432z" />
    <glyph glyph-name="three.PPF" horiz-adv-x="535" 
d="M38 205h65q0 -77 44 -117t117 -40q72 0 116.5 37.5t44.5 103.5q0 62 -46.5 100.5t-114.5 38.5h-48v59h48q58 0 97 36t39 93q0 58 -39.5 91t-96.5 33q-59 0 -97.5 -35t-38.5 -103h-62q0 91 55.5 144t142.5 53q88 0 144.5 -50.5t56.5 -131.5q0 -52 -32 -96t-76 -60v-4
q59 -15 97.5 -61.5t38.5 -108.5q0 -91 -64.5 -144.5t-164.5 -53.5q-104 0 -165 55t-61 161z" />
    <glyph glyph-name="four.PPF" horiz-adv-x="537" 
d="M22 182v49l335 458h53v-448h99v-59h-99v-182h-68v182h-320zM95 241h247v334z" />
    <glyph glyph-name="five.PPF" horiz-adv-x="515" 
d="M37 180h68q8 -55 46 -93.5t107 -38.5q64 0 108.5 44.5t44.5 121.5t-42.5 122t-106.5 45q-80 0 -140 -81l-63 3l20 385h359v-62h-297l-14 -247h3q50 61 141 61q90 0 149 -59.5t59 -160.5q0 -109 -64.5 -170t-156.5 -61q-97 0 -154.5 52.5t-66.5 138.5z" />
    <glyph glyph-name="six.PPF" horiz-adv-x="544" 
d="M47 325q0 194 66 284t174 90q91 0 141.5 -49.5t59.5 -133.5h-68q-16 124 -133 124q-78 0 -123.5 -74t-45.5 -237q19 51 67 81t108 30q95 0 153 -61.5t58 -161.5q0 -105 -64.5 -166.5t-156.5 -61.5q-236 0 -236 336zM131 209q0 -69 42.5 -115t108.5 -46q68 0 111 45.5
t43 123.5q0 72 -42.5 118t-107.5 46q-70 0 -112.5 -47.5t-42.5 -124.5z" />
    <glyph glyph-name="seven.PPF" horiz-adv-x="448" 
d="M65 0l296 626h-342v62h416v-49l-299 -639h-71z" />
    <glyph glyph-name="eight.PPF" horiz-adv-x="548" 
d="M42 183q0 64 38.5 111t97.5 63v4q-46 15 -77 58.5t-31 97.5q0 81 57 131.5t147 50.5t147 -50.5t57 -131.5q0 -54 -31 -97.5t-77 -58.5v-4q59 -16 97.5 -63t38.5 -111q0 -90 -64 -142t-168 -52t-168 52t-64 142zM110 188q0 -66 45 -103t119 -37t119 37t45 103
q0 62 -47 101t-117 39t-117 -39t-47 -101zM274 387q59 0 99 36t40 93q0 58 -40 92.5t-99 34.5t-99 -34.5t-40 -92.5q0 -57 40 -93t99 -36z" />
    <glyph glyph-name="nine.PPF" horiz-adv-x="544" 
d="M492 366q0 -377 -239 -377q-90 0 -143.5 50.5t-58.5 132.5h68q6 -56 40 -90t94 -34q168 0 168 311q-19 -51 -67 -81t-108 -30q-95 0 -153 61.5t-58 161.5q0 105 64.5 166.5t156.5 61.5q236 0 236 -333zM408 479q0 65 -41 113t-109 48t-111.5 -45t-43.5 -124
q0 -72 42.5 -118t108.5 -46q70 0 112 47.5t42 124.5z" />
    <glyph glyph-name="slashedzero.PPF" horiz-adv-x="562" 
d="M281 -11q-118 0 -176.5 98t-58.5 257t58.5 257t176.5 98t176.5 -98t58.5 -257t-58.5 -257t-176.5 -98zM281 51q81 0 122.5 77.5t41.5 215.5q0 137 -40 211l-218 -466q38 -38 94 -38zM117 344q0 -134 39 -210l217 466q-37 37 -92 37q-82 0 -123 -77t-41 -216z" />
    <glyph glyph-name="currency.PPF" horiz-adv-x="474" 
d="M80 152l-34 34l59 60q-34 46 -34 98q0 54 35 99l-60 61l34 34l60 -61q42 31 97 31t97 -31l60 61l34 -34l-60 -60q36 -46 36 -100q0 -51 -35 -98l59 -60l-34 -34l-58 59q-42 -31 -99 -31q-58 0 -98 32zM237 230q48 0 79 31.5t31 82.5t-31 82.5t-79 31.5q-47 0 -78.5 -32
t-31.5 -82t31.5 -82t78.5 -32z" />
    <glyph glyph-name="dollar.PPF" horiz-adv-x="512" 
d="M30 188h68q4 -66 46.5 -103t106.5 -37q68 0 108 35t40 99q0 49 -30.5 78t-89.5 49l-92 30q-145 47 -145 178q0 72 48.5 121t125.5 59v107h68v-108q69 -10 116.5 -57.5t53.5 -118.5h-68q-8 59 -45.5 89.5t-90.5 30.5q-59 0 -98 -30.5t-39 -86.5q0 -52 27.5 -78.5
t88.5 -46.5l92 -30q76 -25 112.5 -69.5t36.5 -113.5q0 -82 -51 -134t-134 -60v-111h-68v111q-82 9 -132.5 61t-54.5 136z" />
    <glyph glyph-name="cent.PPF" horiz-adv-x="509" 
d="M235 -11v106q-89 11 -140.5 79t-51.5 174q0 104 54.5 173t140.5 80v98h68v-99q69 -10 113 -55t55 -114h-68q-10 52 -45 82.5t-92 30.5q-67 0 -111 -54.5t-44 -141.5t43.5 -141.5t111.5 -54.5q57 0 92 30.5t45 82.5h68q-11 -70 -55.5 -115.5t-115.5 -54.5v-106h-68z" />
    <glyph glyph-name="Euro.PPF" horiz-adv-x="587" 
d="M29 403l12 44h61q20 115 84.5 183.5t164.5 68.5q89 0 143.5 -47t72.5 -132h-66q-35 123 -150 123q-68 0 -114 -52t-63 -144h211l-12 -44h-206q-2 -19 -2 -59q0 -33 1 -48h200l-12 -44h-183q15 -97 61.5 -152t115.5 -55q110 0 146 103h66q-41 -159 -212 -159
q-105 0 -168 71t-80 192h-90l12 44h74q-2 30 -2 48q0 40 2 59h-67z" />
    <glyph glyph-name="yen.PPF" horiz-adv-x="516" 
d="M77 688l182 -320h4l182 320h71l-224 -384v-3h152v-44h-152v-88h152v-44h-152v-125h-68v125h-152v44h152v88h-152v44h152v3l-224 384h77z" />
    <glyph glyph-name="sterling.PPF" horiz-adv-x="540" 
d="M56 333v48h87q-30 86 -30 143q0 80 48 127.5t128 47.5q77 0 122 -45t50 -130h-68q-9 119 -107 119q-47 0 -76 -30.5t-29 -82.5q0 -49 34 -149h161v-48h-144q18 -61 18 -107q0 -54 -12 -100q6 -4 21 -15.5l22 -16.5l20 -14t22 -13l20.5 -9.5t22.5 -7.5t22 -2q74 0 79 116
h59q-13 -175 -141 -175q-29 0 -62 15.5t-50 28t-54 42.5q-42 -86 -125 -86q-46 0 -73 26t-27 65q0 47 30.5 75.5t78.5 28.5q38 0 80 -22q2 28 2 40q0 51 -26 131h-103zM95 30q57 0 79 80q-43 30 -77 30q-24 0 -40 -16t-16 -40t14 -39t40 -15z" />
    <glyph glyph-name="florin.PPF" horiz-adv-x="483" 
d="M55 305v50h129l19 181q9 82 49 122.5t103 40.5q139 0 124 -151l-4 -40h-61l3 40q7 95 -64 95t-82 -107l-19 -181h155v-50h-160l-35 -334q-9 -83 -49.5 -123t-103.5 -40q-138 0 -123 151l4 40h61l-3 -40q-7 -95 64 -95t82 107l35 334h-124z" />
    <glyph glyph-name="zero.scppf" horiz-adv-x="506" 
d="M253 -11q-100 0 -151.5 75.5t-51.5 195.5t51.5 195.5t151.5 75.5t151.5 -75.5t51.5 -195.5t-51.5 -195.5t-151.5 -75.5zM253 45q64 0 98 57.5t34 157.5q0 101 -33.5 158t-98.5 57t-98.5 -57t-33.5 -158q0 -100 34 -157.5t98 -57.5z" />
    <glyph glyph-name="one.scppf" horiz-adv-x="303" 
d="M36 371l-28 49l155 100h49v-520h-68v439z" />
    <glyph glyph-name="two.scppf" horiz-adv-x="452" 
d="M42 0q3 86 34 135t102 91l67 40q36 21 53 33t31 34t14 50q0 40 -29 66t-82 26q-54 0 -85.5 -27.5t-34.5 -82.5h-62q3 86 54.5 126t127.5 40q79 0 127.5 -38.5t48.5 -106.5q0 -31 -8.5 -54.5t-28.5 -44t-35.5 -31.5t-47.5 -31l-67 -40q-58 -36 -78.5 -63t-23.5 -66h298
v-56h-375z" />
    <glyph glyph-name="three.scppf" horiz-adv-x="454" 
d="M29 150h65q0 -54 35 -81t93 -27q59 0 94.5 26t35.5 77q0 45 -36 72.5t-90 27.5h-41v52h41q46 0 77 25.5t31 65.5q0 42 -31 66t-81 24q-47 0 -78.5 -24.5t-32.5 -71.5h-58q0 69 47 109t122 40q79 0 126 -39.5t47 -103.5q0 -42 -23.5 -72t-61.5 -42v-3q46 -13 77.5 -48
t31.5 -84q0 -71 -55 -110.5t-142 -39.5q-90 0 -141.5 39.5t-51.5 121.5z" />
    <glyph glyph-name="four.scppf" horiz-adv-x="462" 
d="M23 127v47l277 347h55v-338h83v-56h-83v-127h-68v127h-264zM95 183h192v242z" />
    <glyph glyph-name="five.scppf" horiz-adv-x="456" 
d="M47 134h68q7 -37 37 -63t84 -26q51 0 86 32.5t35 87.5q0 52 -34.5 84t-82.5 32q-71 0 -112 -63l-66 6l17 296h313v-59h-252l-10 -175h3q43 50 116 50q75 0 125.5 -46t50.5 -125q0 -81 -55 -128.5t-134 -47.5q-85 0 -133 39.5t-56 105.5z" />
    <glyph glyph-name="six.scppf" horiz-adv-x="482" 
d="M260 475q-135 0 -139 -214q16 34 55.5 54.5t85.5 20.5q81 0 131 -46t50 -125q0 -80 -55 -128t-135 -48q-94 0 -148.5 62t-54.5 197q0 146 58.5 214.5t151.5 68.5q79 0 122 -38.5t51 -103.5h-67q-15 86 -106 86zM132 161q0 -48 32.5 -80.5t88.5 -32.5q54 0 88 32t34 85
q0 50 -33.5 81.5t-87.5 31.5t-88 -32t-34 -85z" />
    <glyph glyph-name="seven.scppf" horiz-adv-x="406" 
d="M66 0l244 458h-282v62h359v-43l-250 -477h-71z" />
    <glyph glyph-name="eight.scppf" horiz-adv-x="470" 
d="M38 139q0 49 31.5 84t77.5 48v3q-37 12 -61 42.5t-24 71.5q0 64 47.5 103.5t125.5 39.5t125.5 -39.5t47.5 -103.5q0 -41 -24 -71.5t-61 -42.5v-3q46 -13 77.5 -48t31.5 -84q0 -71 -53.5 -110.5t-143.5 -39.5t-143.5 39.5t-53.5 110.5zM106 142q0 -47 35.5 -73.5
t93.5 -26.5t93.5 26.5t35.5 73.5q0 46 -36.5 74.5t-92.5 28.5t-92.5 -28.5t-36.5 -74.5zM124 388q0 -42 31.5 -66.5t79.5 -24.5t79.5 24.5t31.5 66.5q0 41 -32 65.5t-79 24.5t-79 -24.5t-32 -65.5z" />
    <glyph glyph-name="nine.scppf" horiz-adv-x="485" 
d="M230 45q130 0 134 213q-16 -34 -56 -54t-86 -20q-80 0 -130 46t-50 125q0 80 55 128t135 48q93 0 148 -62t55 -197q0 -147 -56 -215t-149 -68q-79 0 -125 39t-54 103h68q7 -37 34.5 -61.5t76.5 -24.5zM353 359q0 48 -33 80.5t-88 32.5q-54 0 -88 -32t-34 -85
q0 -50 33.5 -81t87.5 -31t88 31.5t34 84.5z" />
    <glyph glyph-name="slashedzero.scppf" horiz-adv-x="506" 
d="M253 -11q-100 0 -151.5 75.5t-51.5 195.5t51.5 195.5t151.5 75.5t151.5 -75.5t51.5 -195.5t-51.5 -195.5t-151.5 -75.5zM253 45q64 0 98 57.5t34 157.5t-33 156l-167 -348q28 -23 68 -23zM121 260q0 -100 32 -154l167 348q-28 21 -67 21q-65 0 -98.5 -57t-33.5 -158z" />
    <glyph glyph-name="currency.scppf" horiz-adv-x="466" 
d="M76 68l-34 34l59 60q-33 47 -33 98q0 55 34 99l-59 61l34 34l59 -61q42 31 98 31q54 0 96 -31l60 61l34 -34l-59 -60q35 -47 35 -100q0 -51 -35 -98l60 -60l-34 -34l-59 59q-42 -31 -98 -31q-58 0 -99 32zM234 146q47 0 78.5 32t31.5 82t-31.5 82t-78.5 32
q-48 0 -79 -31.5t-31 -82.5t31 -82.5t79 -31.5z" />
    <glyph glyph-name="dollar.scppf" horiz-adv-x="451" 
d="M37 144h64q4 -46 38.5 -74t86.5 -28q53 0 86.5 24.5t33.5 68.5q0 38 -23.5 59t-73.5 35l-75 21q-56 16 -90 46t-34 90q0 57 40 96t106 47v87h62v-87q59 -8 98 -45t43 -92h-64q-6 39 -36 62.5t-72 23.5q-49 0 -79 -22t-30 -61q0 -36 21.5 -55.5t70.5 -33.5l75 -22
q67 -19 98 -52.5t31 -90.5q0 -63 -43 -103t-114 -47v-91h-62v91q-69 8 -112.5 49t-45.5 104z" />
    <glyph glyph-name="cent.scppf" horiz-adv-x="445" 
d="M204 -11v79q-77 10 -121.5 63.5t-44.5 132.5q0 77 45.5 129.5t123.5 62.5v75h62v-75q60 -8 99 -44.5t46 -88.5h-68q-7 34 -36 57t-72 23q-61 0 -95 -39t-34 -100t34 -101.5t92 -40.5q45 0 74 24t37 59h65q-8 -52 -47.5 -90t-97.5 -47v-79h-62z" />
    <glyph glyph-name="Euro.scppf" horiz-adv-x="502" 
d="M9 189l11 38h60q-1 11 -1 33q0 27 1 40h-55l11 38h50q17 88 71 140.5t143 52.5q77 0 124 -40.5t59 -107.5h-61q-9 42 -39.5 67t-79.5 25q-59 0 -96 -36t-50 -101h171l-11 -38h-166q-1 -13 -1 -40q0 -23 1 -33h161l-12 -38h-145q12 -69 49.5 -106.5t98.5 -37.5
q90 0 115 79h61q-14 -62 -59.5 -98.5t-119.5 -36.5q-92 0 -146 54.5t-69 145.5h-76z" />
    <glyph glyph-name="yen.scppf" horiz-adv-x="430" 
d="M74 520l145 -236h1l145 236h71l-183 -294h121v-38h-122v-62h122v-38h-122v-88h-68v88h-125v38h125v62h-125v38h120l-185 294h80z" />
    <glyph glyph-name="sterling.scppf" horiz-adv-x="479" 
d="M71 249v42h69q-27 62 -27 99q0 65 41.5 103t111.5 38q66 0 103 -35t42 -100h-62q-8 82 -83 82q-39 0 -62 -22.5t-23 -62.5q0 -36 28 -102h132v-42h-114q15 -45 15 -77q0 -34 -11 -70q3 -2 12.5 -9.5t13 -10t12.5 -8.5l13 -8.5t12 -7t13.5 -6.5l12.5 -4.5t13 -3.5t13 -1
q33 0 45 21.5t14 59.5h56q-6 -135 -112 -135q-25 0 -52 12.5t-41.5 23.5t-42.5 35q-38 -68 -105 -68q-42 0 -66 21t-24 56q0 38 26.5 61t67.5 23q33 0 67 -18q1 8 1 25q0 38 -21 89h-88zM108 30q52 0 66 62q-33 23 -62 23q-24 0 -37 -13t-13 -30q0 -18 12 -30t34 -12z" />
    <glyph glyph-name="florin.scppf" horiz-adv-x="427" 
d="M57 224v44h108l15 133q15 130 131 130q57 0 87 -30t24 -91l-3 -29h-59l4 26q5 36 -9 55t-44 19q-54 0 -63 -80l-16 -133h126v-44h-131l-28 -245q-14 -129 -131 -129q-58 0 -89 29.5t-22 90.5l4 29h58l-4 -26q-10 -73 53 -73q55 0 64 79l28 245h-103z" />
    <glyph glyph-name="slashedzero.oldstyle" horiz-adv-x="574" 
d="M41 244q0 112 70 183.5t176 71.5q111 0 178.5 -70.5t67.5 -184.5q0 -112 -70 -183.5t-176 -71.5q-111 0 -178.5 70.5t-67.5 184.5zM462 244q0 85 -44 137l-227 -305q42 -28 96 -28q76 0 125.5 54.5t49.5 141.5zM112 244q0 -84 44 -137l226 306q-43 27 -95 27
q-76 0 -125.5 -54.5t-49.5 -141.5z" />
    <glyph glyph-name="plus.sc" horiz-adv-x="504" 
d="M60 233v59h161v165h62v-165h161v-59h-161v-166h-62v166h-161z" />
    <glyph glyph-name="minus.sc" horiz-adv-x="504" 
d="M60 233v59h384v-59h-384z" />
    <glyph glyph-name="multiply.sc" horiz-adv-x="504" 
d="M117 83l-41 41l135 138l-134 139l40 40l134 -138l134 138l40 -40l-135 -139l135 -138l-40 -41l-134 138z" />
    <glyph glyph-name="divide.sc" horiz-adv-x="504" 
d="M218 369v86h68v-86h-68zM60 233v59h384v-59h-384zM218 67v86h68v-86h-68z" />
    <glyph glyph-name="equal.sc" horiz-adv-x="504" 
d="M60 316v59h384v-59h-384zM60 150v59h384v-59h-384z" />
    <glyph glyph-name="less.sc" horiz-adv-x="504" 
d="M431 141v-62l-358 157v56l358 157v-62l-288 -123z" />
    <glyph glyph-name="greater.sc" horiz-adv-x="504" 
d="M73 387v62l358 -157v-56l-358 -157v62l287 123z" />
    <glyph glyph-name="plusminus.sc" horiz-adv-x="504" 
d="M79 248v56h142v137h59v-137h142v-56h-142v-138h-59v138h-142zM79 0v56h343v-56h-343z" />
    <glyph glyph-name="lessequal.sc" horiz-adv-x="504" 
d="M422 378l-275 -102l275 -102v-59l-344 133v56l344 133v-59zM79 0v56h342v-56h-342z" />
    <glyph glyph-name="greaterequal.sc" horiz-adv-x="504" 
d="M82 378v59l344 -133v-56l-344 -133v59l274 102zM83 56h342v-56h-342v56z" />
    <glyph glyph-name="notequal.sc" horiz-adv-x="504" 
d="M60 316v59h228l62 105l44 -25l-47 -80h97v-59h-132l-63 -107h195v-59h-230l-61 -104l-44 25l46 79h-95v59h130l63 107h-193z" />
    <glyph glyph-name="logicalnot.sc" horiz-adv-x="504" 
d="M60 233v59h384v-224h-62v165h-322z" />
    <glyph glyph-name="asciitilde.sc" horiz-adv-x="504" 
d="M64 201q0 62 29.5 93.5t73.5 31.5q41 0 93 -31t77 -31q48 0 48 63h55q0 -62 -29.5 -92t-73.5 -30q-39 0 -91.5 31t-78.5 31q-23 0 -35.5 -17.5t-12.5 -48.5h-55z" />
    <glyph glyph-name="approxequal.sc" horiz-adv-x="504" 
d="M64 113q0 61 30 93t73 32q41 0 93 -31t77 -31q48 0 48 63h55q0 -61 -29.5 -91.5t-73.5 -30.5q-39 0 -91.5 31t-78.5 31q-23 0 -35.5 -17.5t-12.5 -48.5h-55zM64 283q0 62 29.5 93.5t73.5 31.5q41 0 93 -31t77 -31q48 0 48 63h55q0 -61 -29.5 -91.5t-73.5 -30.5
q-39 0 -91.5 31t-78.5 31q-23 0 -35.5 -17.5t-12.5 -48.5h-55z" />
    <glyph glyph-name="infinity.sc" horiz-adv-x="605" 
d="M160 127q-60 0 -97.5 37t-37.5 96t37.5 96t97.5 37q85 0 142 -92q60 92 143 92q60 0 97.5 -37t37.5 -96t-37.5 -96t-97.5 -37q-84 0 -143 91q-57 -91 -142 -91zM160 177q59 0 112 83q-53 83 -112 83q-36 0 -59.5 -23t-23.5 -60t23.5 -60t59.5 -23zM333 260
q51 -83 112 -83q36 0 59 23t23 60t-23 60t-59 23q-61 0 -112 -83z" />
    <glyph glyph-name="numbersign.sc" horiz-adv-x="499" 
d="M43 353v50h104l21 117h59l-21 -117h153l21 117h59l-21 -117h84v-50h-93l-30 -174h92v-50h-101l-23 -129h-59l23 129h-153l-23 -129h-59l23 129h-87v50h96l30 174h-95zM197 353l-30 -174h153l30 174h-153z" />
    <glyph glyph-name="percent.sc" horiz-adv-x="578" 
d="M133 252q-54 0 -81.5 37.5t-27.5 99.5q0 63 27.5 100.5t81.5 37.5t81 -38t27 -100t-27 -99.5t-81 -37.5zM133 292q59 0 59 97q0 98 -59 98q-60 0 -60 -98q0 -97 60 -97zM120 -9l294 538h45l-295 -538h-44zM444 -7q-53 0 -80.5 37.5t-27.5 99.5t27.5 99.5t80.5 37.5
q55 0 82 -37.5t27 -99.5t-27 -99.5t-82 -37.5zM444 32q60 0 60 98t-60 98q-59 0 -59 -98t59 -98z" />
    <glyph glyph-name="perthousand.sc" horiz-adv-x="849" 
d="M133 252q-54 0 -81.5 37.5t-27.5 99.5q0 63 27.5 100.5t81.5 37.5t81 -38t27 -100t-27 -99.5t-81 -37.5zM133 292q59 0 59 97q0 98 -59 98q-60 0 -60 -98q0 -97 60 -97zM120 -9l294 538h45l-295 -538h-44zM444 -7q-53 0 -80.5 37.5t-27.5 99.5t27.5 99.5t80.5 37.5
q55 0 82 -37.5t27 -99.5t-27 -99.5t-82 -37.5zM444 32q60 0 60 98t-60 98q-59 0 -59 -98t59 -98zM716 -7q-53 0 -80.5 37.5t-27.5 99.5t27.5 99.5t80.5 37.5q55 0 82 -37.5t27 -99.5t-27 -99.5t-82 -37.5zM716 32q60 0 60 98t-60 98q-59 0 -59 -98t59 -98z" />
    <glyph glyph-name="hyphen.sc" horiz-adv-x="396" 
d="M60 233v62h276v-62h-276z" />
    <glyph glyph-name="endash.sc" horiz-adv-x="556" 
d="M60 233v62h436v-62h-436z" />
    <glyph glyph-name="emdash.sc" horiz-adv-x="840" 
d="M60 233v62h720v-62h-720z" />
    <glyph glyph-name="dagger.sc" horiz-adv-x="358" 
d="M44 337v50h107v133h56v-133h107v-50h-107v-337h-56v337h-107z" />
    <glyph glyph-name="daggerdbl.sc" horiz-adv-x="358" 
d="M44 343v50h107v127h56v-127h107v-50h-107v-169h107v-50h-107v-124h-56v124h-107v50h107v169h-107z" />
    <glyph glyph-name="parenleft.sc" horiz-adv-x="279" 
d="M261 -92h-59q-45 64 -78 158.5t-33 193.5t33 193.5t78 158.5h59q-43 -63 -75.5 -158.5t-32.5 -193.5t32.5 -193.5t75.5 -158.5z" />
    <glyph glyph-name="parenright.sc" horiz-adv-x="279" 
d="M18 -92q43 63 75.5 158.5t32.5 193.5t-32.5 193.5t-75.5 158.5h59q44 -65 77.5 -159t33.5 -193t-33.5 -193t-77.5 -159h-59z" />
    <glyph glyph-name="bracketleft.sc" horiz-adv-x="282" 
d="M91 -92v704h173v-53h-114v-598h114v-53h-173z" />
    <glyph glyph-name="bracketright.sc" horiz-adv-x="282" 
d="M18 -39h114v598h-114v53h173v-704h-173v53z" />
    <glyph glyph-name="braceleft.sc" horiz-adv-x="303" 
d="M120 31v105q0 57 -19.5 80t-69.5 26v40q50 4 69.5 27t19.5 80v99q0 61 29 92.5t95 31.5h40v-50h-34q-40 0 -56.5 -17t-16.5 -57v-114q0 -89 -87 -110v-3q46 -12 66.5 -38.5t20.5 -71.5v-120q0 -39 16.5 -56t56.5 -17h34v-50h-40q-66 0 -95 31t-29 92z" />
    <glyph glyph-name="braceright.sc" horiz-adv-x="303" 
d="M18 -42h35q40 0 56.5 17t16.5 56v120q0 87 86 110v3q-45 11 -65.5 37.5t-20.5 72.5v114q0 40 -16.5 57t-56.5 17h-35v50h41q66 0 94.5 -31.5t28.5 -92.5v-99q0 -57 19.5 -80t69.5 -27v-40q-50 -3 -69.5 -26t-19.5 -80v-105q0 -61 -28.5 -92t-94.5 -31h-41v50z" />
    <glyph glyph-name="slash.sc" horiz-adv-x="325" 
d="M17 -12l232 544h59l-232 -544h-59z" />
    <glyph glyph-name="backslash.sc" horiz-adv-x="325" 
d="M249 -12l-232 544h59l232 -544h-59z" />
    <glyph glyph-name="quoteleft.sc" horiz-adv-x="237" 
d="M79 268v100l38 152h38l-29 -146h33v-106h-80z" />
    <glyph glyph-name="quotedblleft.sc" horiz-adv-x="409" 
d="M79 268v100l38 152h38l-29 -146h33v-106h-80zM251 268v100l39 152h37l-29 -146h33v-106h-80z" />
    <glyph glyph-name="quoteright.sc" horiz-adv-x="237" 
d="M82 268l29 146h-33v106h80v-100l-39 -152h-37z" />
    <glyph glyph-name="quotedblright.sc" horiz-adv-x="409" 
d="M82 268l29 146h-33v106h80v-100l-39 -152h-37zM254 268l29 146h-33v106h80v-100l-39 -152h-37z" />
    <glyph glyph-name="guilsinglleft.sc" horiz-adv-x="275" 
d="M165 105l-110 159l110 159h55l-95 -159l95 -159h-55z" />
    <glyph glyph-name="guilsinglright.sc" horiz-adv-x="275" 
d="M55 105l95 159l-95 159h55l110 -159l-110 -159h-55z" />
    <glyph glyph-name="guillemotleft.sc" horiz-adv-x="432" 
d="M321 105l-109 159l109 159h56l-95 -159l95 -159h-56zM164 105l-109 159l109 159h55l-95 -159l95 -159h-55z" />
    <glyph glyph-name="guillemotright.sc" horiz-adv-x="432" 
d="M212 105l95 159l-95 159h56l109 -159l-109 -159h-56zM55 105l95 159l-95 159h55l109 -159l-109 -159h-55z" />
    <glyph glyph-name="quotesingle.sc" horiz-adv-x="208" 
d="M82 268l-12 165v87h68v-87l-12 -165h-44z" />
    <glyph glyph-name="quotedbl.sc" horiz-adv-x="384" 
d="M82 268l-12 165v87h68v-87l-12 -165h-44zM258 268l-12 165v87h68v-87l-12 -165h-44z" />
    <glyph glyph-name="asterisk.sc" horiz-adv-x="450" 
d="M197 528h56l-13 -141l129 57l17 -53l-137 -32l92 -104l-45 -32l-72 120l-71 -120l-44 32l91 105l-136 31l17 53l128 -55z" />
    <glyph glyph-name="degree.sc" horiz-adv-x="356" 
d="M178 260q-59 0 -98.5 38.5t-39.5 96.5q0 59 39.5 97.5t98.5 38.5t98.5 -38.5t39.5 -97.5q0 -58 -39.5 -96.5t-98.5 -38.5zM178 481q-36 0 -59 -24t-23 -62q0 -37 23 -61.5t59 -24.5t59 24.5t23 61.5q0 38 -23 62t-59 24z" />
    <glyph glyph-name="bullet.sc" horiz-adv-x="408" 
d="M204 132q-55 0 -93.5 38.5t-38.5 93.5t38.5 93.5t93.5 38.5t93.5 -38.5t38.5 -93.5t-38.5 -93.5t-93.5 -38.5z" />
    <glyph glyph-name="periodcentered.sc" horiz-adv-x="238" 
d="M76 214v100h86v-100h-86z" />
    <glyph glyph-name="paragraph.sc" horiz-adv-x="500" 
d="M347 0v520h62v-520h-62zM210 0v198q-75 7 -118.5 49.5t-43.5 111.5q0 73 49.5 117t135.5 44h40v-520h-63z" />
    <glyph glyph-name="section.sc" horiz-adv-x="427" 
d="M50 -55h59q3 -35 31 -52.5t68 -17.5q45 0 72 21t27 57q0 32 -19 47.5t-60 28.5l-71 23q-59 19 -85 47t-26 76q0 40 23.5 70.5t64.5 44.5q-77 33 -77 108q0 58 43.5 94t117.5 36q69 0 111.5 -29.5t46.5 -86.5h-59q-3 35 -31 52.5t-68 17.5q-45 0 -72 -21t-27 -57
q0 -32 19 -47.5t60 -29.5l71 -23q58 -19 84.5 -47t26.5 -75q0 -41 -24 -71.5t-65 -44.5q78 -36 78 -107q0 -58 -44 -94.5t-117 -36.5q-69 0 -111.5 30t-46.5 87zM239 254l-49 16q-39 -9 -62 -32.5t-23 -53.5q0 -33 19 -50t63 -32l48 -16q39 9 62.5 32.5t23.5 54.5
q0 33 -19 49.5t-63 31.5z" />
    </font>
</defs>
</svg>
