<?xml version="1.0" standalone="no"?>
<!DOCTYPE svg PUBLIC "-//W3C//DTD SVG 1.1//EN" "http://www.w3.org/Graphics/SVG/1.1/DTD/svg11.dtd" >
<svg>
<metadata>
Created by FontForge 20090622 at Tue Feb  6 14:12:41 2018
 By deploy user
&#194;&#169; Copyright (c) 2010. All rights reserved. Fakt is a design by Thomas Thiemich, published by OurType. www.ourtype.com
</metadata>
<defs>
<font id="FaktPro-Bold" horiz-adv-x="568" >
  <font-face 
    font-family="Fakt Pro Bd"
    font-weight="700"
    font-stretch="normal"
    units-per-em="1000"
    panose-1="2 0 0 0 0 0 0 0 0 0"
    ascent="748"
    descent="-252"
    x-height="488"
    cap-height="688"
    bbox="-178 -312 1258 1012"
    underline-thickness="50"
    underline-position="-50"
    unicode-range="U+0020-U+FB04"
  />
<missing-glyph horiz-adv-x="712" 
d="M0 0v720h712v-720h-712zM232 184l126 129l126 -129l52 52l-127 130l127 130l-52 52l-126 -129l-126 129l-52 -52l126 -130l-126 -130z" />
    <glyph glyph-name="f_b" unicode="fb" horiz-adv-x="976" 
d="M413 0v620h-93q-43 0 -60.5 -17.5t-17.5 -60.5v-54h91v-108h-91v-380h-149v380h-92v108h92v47q0 104 45.5 150.5t154.5 46.5h268v-148q0 -99 -6 -164h4q42 80 158 80q95 0 158.5 -66t63.5 -186q0 -121 -65.5 -190.5t-164.5 -69.5q-108 0 -150 80h-4v-68h-142zM561 244
q0 -66 31 -106.5t83 -40.5q51 0 81 42t30 109q0 66 -29.5 104.5t-81.5 38.5q-51 0 -81.5 -38.5t-32.5 -102.5v-6z" />
    <glyph glyph-name="f_f_b" unicode="ffb" horiz-adv-x="1295" 
d="M413 0v380h-171v-380h-149v380h-92v108h92v47q0 104 45.5 150.5t154.5 46.5h51v-112h-24q-43 0 -60.5 -17.5t-17.5 -60.5v-54h171v47q0 104 45 150.5t154 46.5h269v-148q0 -100 -7 -164h4q42 80 158 80q96 0 159 -66t63 -186q0 -121 -65.5 -190.5t-164.5 -69.5
q-108 0 -150 80h-4v-68h-142v620h-92q-44 0 -61.5 -17.5t-17.5 -60.5v-54h99v-108h-99v-380h-148zM994 391q-51 0 -81 -38.5t-32 -102.5v-13q2 -64 32 -102t81 -38t81 42t30 109q0 66 -29.5 104.5t-81.5 38.5z" />
    <glyph glyph-name="f_f_h" unicode="ffh" horiz-adv-x="1281" 
d="M413 0v380h-171v-380h-149v380h-92v108h92v47q0 104 45.5 150.5t154.5 46.5h51v-112h-24q-43 0 -60.5 -17.5t-17.5 -60.5v-54h171v47q0 104 45 150.5t154 46.5h269v-149q0 -95 -7 -164h4q43 81 149 81q85 0 138 -49t53 -156v-295h-149v278q0 110 -87 110q-45 0 -73 -34.5
t-28 -93.5v-260h-149v620h-92q-44 0 -61.5 -17.5t-17.5 -60.5v-54h99v-108h-99v-380h-148z" />
    <glyph glyph-name="f_f_j" unicode="ffj" horiz-adv-x="948" 
d="M413 0v380h-171v-380h-149v380h-92v108h92v47q0 104 45.5 150.5t154.5 46.5h53v-112h-26q-43 0 -60.5 -17.5t-17.5 -60.5v-54h171v47q0 104 45 150.5t154 46.5h51v-112h-23q-44 0 -61.5 -17.5t-17.5 -60.5v-54h320v-526q0 -93 -41.5 -137.5t-147.5 -44.5h-46v112h27
q33 0 46 17.5t13 57.5v413h-171v-380h-148zM728 602v130h157v-130h-157z" />
    <glyph glyph-name="f_f_k" unicode="ffk" horiz-adv-x="1237" 
d="M413 0v380h-171v-380h-149v380h-92v108h92v47q0 104 45.5 150.5t154.5 46.5h51v-112h-24q-43 0 -60.5 -17.5t-17.5 -60.5v-54h171v47q0 104 45 150.5t154 46.5h269v-430l167 186h168l-183 -195l200 -293h-170l-127 189l-55 -59v-130h-149v620h-92q-44 0 -61.5 -17.5
t-17.5 -60.5v-54h99v-108h-99v-380h-148z" />
    <glyph glyph-name="f_f_t" unicode="fft" horiz-adv-x="1019" 
d="M413 0v380h-171v-380h-149v380h-92v108h92v47q0 104 45.5 150.5t154.5 46.5h51v-112h-24q-43 0 -60.5 -17.5t-17.5 -60.5v-54h171v47q0 104 45 150.5t154 46.5h51v-112h-23q-44 0 -61.5 -17.5t-17.5 -60.5v-54h168v148h149v-148h117v-108h-117v-191q0 -40 14.5 -56
t52.5 -16h50v-117h-81q-106 0 -145.5 39t-39.5 141v200h-168v-380h-148z" />
    <glyph glyph-name="f_h" unicode="fh" horiz-adv-x="961" 
d="M413 0v620h-93q-43 0 -60.5 -17.5t-17.5 -60.5v-54h91v-108h-91v-380h-149v380h-92v108h92v47q0 104 45.5 150.5t154.5 46.5h268v-149q0 -95 -6 -164h4q43 81 149 81q84 0 137.5 -49t53.5 -156v-295h-149v278q0 110 -87 110q-45 0 -73.5 -34.5t-28.5 -94.5v-259h-148z
" />
    <glyph glyph-name="f_j" unicode="fj" horiz-adv-x="629" 
d="M327 -108h27q33 0 46 17.5t13 57.5v413h-171v-380h-149v380h-92v108h92v47q0 104 45.5 150.5t154.5 46.5h51v-112h-24q-43 0 -60.5 -17.5t-17.5 -60.5v-54h319v-526q0 -93 -41 -137.5t-147 -44.5h-46v112zM409 602v130h156v-130h-156z" />
    <glyph glyph-name="f_k" unicode="fk" horiz-adv-x="918" 
d="M413 0v620h-93q-43 0 -60.5 -17.5t-17.5 -60.5v-54h91v-108h-91v-380h-149v380h-92v108h92v47q0 104 45.5 150.5t154.5 46.5h268v-431l168 187h168l-183 -195l200 -293h-170l-127 189l-56 -60v-129h-148z" />
    <glyph glyph-name="f_t" unicode="ft" horiz-adv-x="700" 
d="M410 180v200h-168v-380h-149v380h-92v108h92v47q0 104 45.5 150.5t154.5 46.5h51v-112h-24q-43 0 -60.5 -17.5t-17.5 -60.5v-54h168v148h149v-148h117v-108h-117v-191q0 -40 14.5 -56t52.5 -16h50v-117h-81q-106 0 -145.5 39t-39.5 141z" />
    <glyph glyph-name="fi" unicode="fi" horiz-adv-x="629" 
d="M413 0v380h-171v-380h-149v380h-92v108h92v47q0 104 45.5 150.5t154.5 46.5h51v-112h-24q-43 0 -60.5 -17.5t-17.5 -60.5v-54h319v-488h-148zM409 602v130h156v-130h-156z" />
    <glyph glyph-name="fl" unicode="fl" horiz-adv-x="629" 
d="M93 0v380h-92v108h92v47q0 104 45.5 150.5t154.5 46.5h268v-732h-148v620h-93q-43 0 -60.5 -17.5t-17.5 -60.5v-54h91v-108h-91v-380h-149z" />
    <glyph glyph-name="ff" unicode="ff" horiz-adv-x="677" 
d="M93 0v380h-92v108h92v47q0 104 45.5 150.5t154.5 46.5h51v-112h-24q-43 0 -60.5 -17.5t-17.5 -60.5v-54h171v47q0 104 45 150.5t154 46.5h74v-112h-46q-44 0 -61.5 -17.5t-17.5 -60.5v-54h109v-108h-109v-380h-148v380h-171v-380h-149z" />
    <glyph glyph-name="ffi" unicode="ffi" horiz-adv-x="948" 
d="M413 0v380h-171v-380h-149v380h-92v108h92v47q0 104 45.5 150.5t154.5 46.5h53v-112h-26q-43 0 -60.5 -17.5t-17.5 -60.5v-54h171v47q0 104 45 150.5t154 46.5h51v-112h-23q-44 0 -61.5 -17.5t-17.5 -60.5v-54h320v-488h-149v380h-171v-380h-148zM728 602v130h157v-130
h-157z" />
    <glyph glyph-name="ffl" unicode="ffl" horiz-adv-x="948" 
d="M413 0v380h-171v-380h-149v380h-92v108h92v47q0 104 45.5 150.5t154.5 46.5h51v-112h-24q-43 0 -60.5 -17.5t-17.5 -60.5v-54h171v47q0 104 45 150.5t154 46.5h269v-732h-149v620h-92q-44 0 -61.5 -17.5t-17.5 -60.5v-54h99v-108h-99v-380h-148z" />
    <glyph glyph-name=".notdef" horiz-adv-x="712" 
d="M0 0v720h712v-720h-712zM232 184l126 129l126 -129l52 52l-127 130l127 130l-52 52l-126 -129l-126 129l-52 -52l126 -130l-126 -130z" />
    <glyph glyph-name=".null" horiz-adv-x="0" 
 />
    <glyph glyph-name="nonmarkingreturn" horiz-adv-x="333" 
 />
    <glyph glyph-name="space" unicode=" " horiz-adv-x="220" 
 />
    <glyph glyph-name="exclam" unicode="!" horiz-adv-x="291" 
d="M102 211l-36 291v186h159v-186l-36 -291h-87zM71 0v144h149v-144h-149z" />
    <glyph glyph-name="quotedbl" unicode="&#x22;" horiz-adv-x="450" 
d="M74 392l-18 190v106h132v-106l-19 -190h-95zM281 392l-19 190v106h132v-106l-19 -190h-94z" />
    <glyph glyph-name="numbersign" unicode="#" horiz-adv-x="638" 
d="M63 437v98h118l27 153h116l-27 -153h113l27 153h116l-27 -153h98v-98h-115l-33 -187h99l-2 -99h-114l-26 -151h-116l26 151h-113l-26 -151h-116l26 151h-100v99h117l33 187h-101zM280 437l-33 -187h113l33 187h-113z" />
    <glyph glyph-name="dollar" unicode="$" 
d="M27 198h146q4 -50 32.5 -76t74.5 -26t74.5 23.5t28.5 67.5q0 37 -24 54t-73 31l-80 23q-165 46 -165 198q0 79 49 133.5t135 68.5v109h110v-109q79 -13 128 -62.5t54 -122.5h-146q-5 39 -30 59t-61 20q-39 0 -64 -19.5t-25 -57.5q0 -37 20 -54.5t68 -31.5l80 -22
q85 -24 129.5 -71t44.5 -126q0 -87 -53 -144t-145 -71v-112h-110v112q-92 12 -143.5 66t-54.5 140z" />
    <glyph glyph-name="percent" unicode="%" horiz-adv-x="828" 
d="M641 -8q-81 0 -124 49.5t-43 130.5t43 130.5t124 49.5q82 0 125 -49.5t43 -130.5t-43 -130.5t-125 -49.5zM187 336q-81 0 -124 49.5t-43 130.5t43 130.5t124 49.5t124 -49.5t43 -130.5t-43 -130.5t-124 -49.5zM197 -12l348 712h87l-348 -712h-87zM641 77q59 0 59 95
t-59 95q-58 0 -58 -95t58 -95zM187 421q58 0 58 95t-58 95t-58 -95t58 -95z" />
    <glyph glyph-name="ampersand" unicode="&#x26;" horiz-adv-x="737" 
d="M34 180q0 68 39.5 113t108.5 80q-43 47 -57.5 79t-14.5 73q0 74 56.5 124.5t159.5 50.5t159 -43.5t56 -118.5q0 -66 -43 -107t-120 -77l139 -137q19 47 19 110v17h129v-20q0 -108 -57 -196l131 -128h-179l-41 40q-83 -52 -198 -52q-139 0 -213 51.5t-74 140.5zM321 96
q66 0 114 26l-176 174q-76 -44 -76 -102q0 -47 39.5 -72.5t98.5 -25.5zM248 529q0 -24 12 -45.5t43 -54.5q48 23 73.5 46t25.5 55q0 33 -20.5 52.5t-55.5 19.5q-36 0 -57 -21t-21 -52z" />
    <glyph glyph-name="quotesingle" unicode="'" horiz-adv-x="244" 
d="M74 392l-18 190v106h132v-106l-19 -190h-95z" />
    <glyph glyph-name="parenleft" unicode="(" horiz-adv-x="323" 
d="M10 260q0 144 49.5 270.5t114.5 213.5h135q-56 -73 -108 -207.5t-52 -276.5q0 -141 52 -275.5t108 -212.5h-135q-65 86 -114.5 215t-49.5 273z" />
    <glyph glyph-name="parenright" unicode=")" horiz-adv-x="323" 
d="M13 -228q56 78 108 212.5t52 275.5q0 142 -52 276.5t-108 207.5h135q65 -87 114.5 -213.5t49.5 -270.5t-49.5 -273t-114.5 -215h-135z" />
    <glyph glyph-name="asterisk" unicode="*" horiz-adv-x="478" 
d="M185 696h107l-15 -116l106 50l34 -102l-116 -23l80 -85l-86 -63l-57 103l-56 -102l-87 62l79 85l-113 23l32 102l106 -50z" />
    <glyph glyph-name="plus" unicode="+" 
d="M59 199v112h166v169h118v-169h166v-112h-166v-168h-118v168h-166z" />
    <glyph glyph-name="comma" unicode="," horiz-adv-x="292" 
d="M134 0h-69v152h162v-143l-61 -184h-68z" />
    <glyph glyph-name="hyphen" unicode="-" horiz-adv-x="396" 
d="M49 190v124h298v-124h-298z" />
    <glyph glyph-name="period" unicode="." horiz-adv-x="292" 
d="M65 0v152h162v-152h-162z" />
    <glyph glyph-name="slash" unicode="/" horiz-adv-x="439" 
d="M2 -12l308 712h126l-308 -712h-126z" />
    <glyph glyph-name="zero" unicode="0" 
d="M284 -12q-131 0 -194 97.5t-63 258.5t63 258.5t194 97.5t194 -97.5t63 -258.5t-63 -258.5t-194 -97.5zM284 107q104 0 104 237q0 121 -25.5 179t-78.5 58t-78.5 -58t-25.5 -179t25.5 -179t78.5 -58z" />
    <glyph glyph-name="one" unicode="1" 
d="M108 424l-59 104l237 160h92v-571h151v-117h-459v117h160v389z" />
    <glyph glyph-name="two" unicode="2" 
d="M39 0q4 125 38 197t119 124l82 49q50 31 72 57t22 66t-22 65t-68 25q-88 0 -93 -107h-146q2 79 38 131t87.5 72.5t116.5 20.5q107 0 172.5 -54.5t65.5 -147.5q0 -78 -34.5 -127.5t-110.5 -95.5l-81 -49q-50 -30 -66.5 -52.5t-19.5 -56.5h311l1 -117h-484z" />
    <glyph glyph-name="three" unicode="3" 
d="M31 208h148q0 -55 28 -83t73 -28q46 0 73.5 26t27.5 74q0 45 -28.5 72.5t-72.5 27.5h-55v115h55q38 0 64.5 25t26.5 67q0 40 -26 63.5t-65 23.5q-40 0 -65.5 -25t-25.5 -72h-135q0 98 64 152t162 54q102 0 167.5 -51t65.5 -136q0 -50 -28.5 -93t-71.5 -60v-4
q55 -18 87.5 -62.5t32.5 -106.5q0 -94 -70 -146.5t-183 -52.5q-117 0 -183 53.5t-66 166.5z" />
    <glyph glyph-name="four" unicode="4" 
d="M21 139v91l318 458h127v-432h81v-117h-81v-139h-148v139h-297zM163 256h155v223z" />
    <glyph glyph-name="five" unicode="5" 
d="M37 184h146q7 -36 31 -60t66 -24t69.5 30.5t27.5 84.5q0 52 -27 82.5t-70 30.5q-57 0 -89 -60l-136 18l23 402h410v-119h-280l-10 -160h5q38 31 107 31q97 0 156.5 -58t59.5 -162q0 -114 -69 -173t-176 -59q-112 0 -173.5 52.5t-70.5 143.5z" />
    <glyph glyph-name="six" unicode="6" 
d="M34 328q0 194 76.5 283t194.5 89q101 0 155.5 -49.5t63.5 -134.5h-143q-13 72 -79 72q-102 0 -114 -209q18 28 56.5 44.5t82.5 16.5q87 0 150 -56.5t63 -164.5t-70.5 -169.5t-172.5 -61.5q-120 0 -191.5 80.5t-71.5 259.5zM297 328q-43 0 -70.5 -30.5t-27.5 -82.5
q0 -53 26.5 -84t69.5 -31t70 30.5t27 85.5q0 51 -26.5 81.5t-68.5 30.5z" />
    <glyph glyph-name="seven" unicode="7" 
d="M112 0l264 561h-335v127h494v-86l-270 -602h-153z" />
    <glyph glyph-name="eight" unicode="8" 
d="M30 187q0 62 32.5 106.5t87.5 62.5v4q-44 15 -72 57t-28 93q0 88 65 139t169 51t169 -51t65 -139q0 -51 -28 -93t-72 -57v-4q55 -18 87.5 -62.5t32.5 -106.5q0 -95 -69.5 -147t-184.5 -52t-184.5 52t-69.5 147zM182 197q0 -48 28.5 -74t73.5 -26t73.5 26t28.5 74
q0 45 -28.5 72.5t-73.5 27.5t-73.5 -27.5t-28.5 -72.5zM284 412q40 0 66 24.5t26 67.5q0 40 -26.5 64t-65.5 24t-65.5 -24t-26.5 -64q0 -43 26 -67.5t66 -24.5z" />
    <glyph glyph-name="nine" unicode="9" 
d="M531 360q0 -372 -266 -372q-102 0 -158 49.5t-66 134.5h143q9 -72 84 -72q51 0 77.5 47.5t31.5 161.5q-18 -28 -55.5 -44.5t-80.5 -16.5q-89 0 -152.5 56.5t-63.5 164.5t71 169.5t172 61.5q120 0 191.5 -80.5t71.5 -259.5zM268 360q43 0 70.5 30.5t27.5 82.5t-26.5 83.5
t-68.5 31.5q-43 0 -70 -30.5t-27 -85.5q0 -51 26.5 -81.5t67.5 -30.5z" />
    <glyph glyph-name="colon" unicode=":" horiz-adv-x="292" 
d="M65 336v152h162v-152h-162zM65 0v152h162v-152h-162z" />
    <glyph glyph-name="semicolon" unicode=";" horiz-adv-x="292" 
d="M65 336v152h162v-152h-162zM134 0h-69v152h162v-143l-61 -184h-68z" />
    <glyph glyph-name="less" unicode="&#x3c;" 
d="M72 197v117l424 175v-125l-290 -108l290 -111v-126z" />
    <glyph glyph-name="equal" unicode="=" 
d="M56 309v112h456v-112h-456zM56 87v112h456v-112h-456z" />
    <glyph glyph-name="greater" unicode="&#x3e;" 
d="M496 311v-117l-424 -175v125l289 107l-289 112v126z" />
    <glyph glyph-name="question" unicode="?" horiz-adv-x="523" 
d="M185 213v22q0 49 17.5 85.5t43 57.5t51 38t43 38t17.5 48q0 35 -24.5 58t-66.5 23q-54 0 -79.5 -29.5t-25.5 -73.5h-140q0 94 60.5 157t184.5 63q109 0 173.5 -50.5t64.5 -140.5q0 -39 -13.5 -70t-33.5 -49.5t-44 -37t-44 -32.5t-33.5 -36t-13.5 -48v-23h-137zM179 0v144
h149v-144h-149z" />
    <glyph glyph-name="at" unicode="@" horiz-adv-x="1035" 
d="M272 128q0 124 169 148l93 13q38 6 49.5 14t11.5 28q0 31 -20 50t-59 19q-81 0 -87 -72h-139q7 85 67.5 128.5t157.5 43.5q229 0 229 -187v-148q0 -96 58 -96q41 0 66.5 50t25.5 153q0 160 -105 253.5t-269 93.5q-171 0 -275 -112.5t-104 -280.5q0 -175 98 -274t252 -99
q146 0 212 65h120q-107 -146 -332 -146q-191 0 -317 123.5t-126 330.5q0 130 57.5 237.5t166.5 172t248 64.5q203 0 335 -118t132 -310q0 -142 -61.5 -212.5t-156.5 -70.5q-117 0 -153 74q-56 -75 -177 -75q-81 0 -124 38t-43 102zM595 193v41q-13 -18 -46 -23l-69 -10
q-62 -10 -62 -61q0 -26 19 -41t49 -15q45 0 77 27t32 82z" />
    <glyph glyph-name="A" unicode="A" horiz-adv-x="707" 
d="M6 0l256 688h183l256 -688h-164l-48 141h-276l-48 -141h-159zM350 545l-96 -282h194l-94 282h-4z" />
    <glyph glyph-name="B" unicode="B" horiz-adv-x="719" 
d="M76 0v688h344q114 0 171.5 -47t57.5 -133q0 -51 -27 -89t-81 -52v-4q63 -11 99.5 -54.5t36.5 -104.5q0 -91 -62 -147.5t-175 -56.5h-364zM413 299h-182v-180h181q53 0 79.5 25t26.5 68q0 41 -27 64t-78 23zM396 569h-165v-159h162q100 0 100 84q0 75 -97 75z" />
    <glyph glyph-name="C" unicode="C" horiz-adv-x="742" 
d="M44 344q0 155 95.5 255.5t253.5 100.5q129 0 210.5 -65t100.5 -180h-154q-31 114 -157 114q-88 0 -139 -62t-51 -163q0 -99 52 -162t139 -63q125 0 156 114h154q-19 -115 -101 -180t-212 -65q-162 0 -254.5 99.5t-92.5 256.5z" />
    <glyph glyph-name="D" unicode="D" horiz-adv-x="751" 
d="M77 0v688h262q177 0 272.5 -95t95.5 -249t-95.5 -249t-272.5 -95h-262zM325 561h-93v-434h93q114 0 168 60.5t54 156.5t-54 156.5t-168 60.5z" />
    <glyph glyph-name="E" unicode="E" horiz-adv-x="653" 
d="M77 0v688h516v-127h-361v-150h294v-119h-294v-165h372v-127h-527z" />
    <glyph glyph-name="F" unicode="F" horiz-adv-x="617" 
d="M77 0v688h503v-127h-348v-193h280v-124h-280v-244h-155z" />
    <glyph glyph-name="G" unicode="G" horiz-adv-x="782" 
d="M613 0l-13 74h-3q-70 -86 -206 -86q-158 0 -252.5 100.5t-94.5 255.5q0 157 98.5 256.5t260.5 99.5q129 0 212 -63.5t99 -160.5h-154q-12 40 -52 66.5t-105 26.5q-90 0 -145 -61.5t-55 -163.5q0 -103 54 -164t145 -61q75 0 124 38.5t49 104.5h-172v113h309v-375h-99z" />
    <glyph glyph-name="H" unicode="H" horiz-adv-x="767" 
d="M77 0v688h155v-275h302v275h156v-688h-156v283h-302v-283h-155z" />
    <glyph glyph-name="I" unicode="I" horiz-adv-x="309" 
d="M77 0v688h155v-688h-155z" />
    <glyph glyph-name="J" unicode="J" horiz-adv-x="578" 
d="M36 212v30h153v-30q0 -97 83 -97t83 106v467h156v-462q0 -238 -239 -238q-110 0 -173 55t-63 169z" />
    <glyph glyph-name="K" unicode="K" horiz-adv-x="718" 
d="M77 0v688h155v-305l281 305h180l-277 -294l294 -394h-178l-216 288l-84 -89v-199h-155z" />
    <glyph glyph-name="L" unicode="L" horiz-adv-x="596" 
d="M77 0v688h155v-558h325v-130h-480z" />
    <glyph glyph-name="M" unicode="M" horiz-adv-x="954" 
d="M77 0v688h214l186 -476h4l187 476h209v-688h-156l11 483h-4l-193 -483h-116l-193 480h-4l10 -480h-155z" />
    <glyph glyph-name="N" unicode="N" horiz-adv-x="775" 
d="M77 0v688h138l327 -424h4l-4 424h156v-688h-135l-331 426h-4l4 -426h-155z" />
    <glyph glyph-name="O" unicode="O" horiz-adv-x="804" 
d="M44 344q0 156 98 256t260 100q160 0 259 -100.5t99 -255.5t-99 -255.5t-259 -100.5q-162 0 -260 100t-98 256zM203 344q0 -100 55 -162.5t144 -62.5t144 63.5t55 161.5t-55 161.5t-144 63.5t-144 -62.5t-55 -162.5z" />
    <glyph glyph-name="P" unicode="P" horiz-adv-x="694" 
d="M77 0v688h315q124 0 192.5 -63t68.5 -168q0 -107 -69 -173t-192 -66h-160v-218h-155zM371 567h-139v-228h139q59 0 91 31t32 84t-31.5 83t-91.5 30z" />
    <glyph glyph-name="Q" unicode="Q" horiz-adv-x="805" 
d="M44 344q0 156 98 256t260 100q160 0 259 -100.5t99 -255.5q0 -154 -98 -255l125 -130l-94 -91l-140 149q-73 -29 -151 -29q-162 0 -260 100t-98 256zM203 344q0 -100 55 -162.5t144 -62.5t144 63.5t55 161.5t-55 161.5t-144 63.5t-144 -62.5t-55 -162.5z" />
    <glyph glyph-name="R" unicode="R" horiz-adv-x="715" 
d="M77 0v688h312q127 0 194.5 -58t67.5 -161q0 -73 -36.5 -128t-105.5 -81l169 -260h-169l-152 240h-125v-240h-155zM380 567h-148v-208h148q54 0 83.5 29.5t29.5 78.5q0 46 -30 73t-83 27z" />
    <glyph glyph-name="S" unicode="S" horiz-adv-x="678" 
d="M48 196h150q0 -46 37 -71t99 -25q65 0 102.5 24.5t37.5 67.5q0 29 -23 47t-59.5 27t-81 16t-88.5 19t-80.5 32t-59.5 59.5t-23 96.5q0 92 75.5 151.5t202.5 59.5q125 0 198 -54.5t73 -144.5h-150q0 41 -33.5 64t-87.5 23q-56 0 -90.5 -22t-34.5 -61q0 -29 23 -47.5
t60 -27t82 -15.5t89.5 -19t81.5 -32t60 -59t23 -95q0 -101 -78 -161.5t-219 -60.5q-139 0 -212.5 54.5t-73.5 153.5z" />
    <glyph glyph-name="T" unicode="T" horiz-adv-x="629" 
d="M8 559v129h613v-129h-229v-559h-155v559h-229z" />
    <glyph glyph-name="U" unicode="U" horiz-adv-x="746" 
d="M66 278v410h156v-408q0 -78 38 -119.5t113 -41.5t113 41.5t38 119.5v408h155v-410q0 -290 -306 -290q-307 0 -307 290z" />
    <glyph glyph-name="V" unicode="V" horiz-adv-x="695" 
d="M254 0l-246 688h164l175 -545h4l177 545h159l-247 -688h-186z" />
    <glyph glyph-name="W" unicode="W" horiz-adv-x="999" 
d="M182 0l-173 688h168l112 -520h4l131 520h154l137 -520h4l107 520h164l-171 -688h-191l-127 485h-4l-124 -485h-191z" />
    <glyph glyph-name="X" unicode="X" horiz-adv-x="684" 
d="M8 0l243 352l-235 336h179l148 -224l146 224h171l-231 -335l247 -353h-178l-161 240l-157 -240h-172z" />
    <glyph glyph-name="Y" unicode="Y" horiz-adv-x="694" 
d="M267 0v261l-258 427h176l161 -283h4l169 283h165l-261 -426v-262h-156z" />
    <glyph glyph-name="Z" unicode="Z" horiz-adv-x="625" 
d="M45 562v126h547v-88l-352 -474h351v-126h-558v88l354 474h-342z" />
    <glyph glyph-name="bracketleft" unicode="[" horiz-adv-x="357" 
d="M204 -115h140v-113h-275v972h275v-113h-140v-746z" />
    <glyph glyph-name="backslash" unicode="\" horiz-adv-x="439" 
d="M310 -12l-308 712h126l308 -712h-126z" />
    <glyph glyph-name="bracketright" unicode="]" horiz-adv-x="357" 
d="M13 -115h140v746h-140v113h275v-972h-275v113z" />
    <glyph glyph-name="asciicircum" unicode="^" 
d="M42 352l179 336h119v-1l2 1l180 -336h-128l-113 219l-113 -219h-126z" />
    <glyph glyph-name="underscore" unicode="_" horiz-adv-x="500" 
d="M0 -72h500v-120h-500v120z" />
    <glyph glyph-name="grave" unicode="`" horiz-adv-x="599" 
d="M251 568l-150 164h151l99 -164h-100z" />
    <glyph glyph-name="a" unicode="a" horiz-adv-x="574" 
d="M40 127q0 63 40.5 99t127.5 49l93 14q37 5 49 13t12 26q0 33 -19.5 52.5t-59.5 19.5q-81 0 -87 -72h-139q6 84 68.5 128t157.5 44q228 0 228 -177v-323h-142v60h-4q-46 -72 -159 -72q-82 0 -124 37.5t-42 101.5zM362 194v40q-13 -18 -46 -23l-67 -10q-63 -10 -63 -58
q0 -55 67 -55q44 0 76.5 26.5t32.5 79.5z" />
    <glyph glyph-name="b" unicode="b" horiz-adv-x="631" 
d="M68 0v732h148v-148q0 -100 -6 -164h4q42 80 158 80q95 0 158.5 -66t63.5 -186q0 -121 -65.5 -190.5t-164.5 -69.5q-108 0 -150 80h-4v-68h-142zM216 244q0 -66 31 -106.5t83 -40.5q51 0 81 42t30 109q0 66 -29.5 104.5t-81.5 38.5q-51 0 -81.5 -38.5t-32.5 -102.5v-6z
" />
    <glyph glyph-name="c" unicode="c" horiz-adv-x="571" 
d="M34 244q0 120 72 188t194 68q109 0 171.5 -52t70.5 -132h-146q-5 30 -29.5 52.5t-66.5 22.5q-51 0 -82 -41t-31 -106t31 -106t82 -41q43 0 66.5 22t29.5 53h146q-8 -80 -69.5 -132t-172.5 -52q-125 0 -195.5 66t-70.5 190z" />
    <glyph glyph-name="d" unicode="d" horiz-adv-x="631" 
d="M37 240q0 121 65.5 190.5t164.5 69.5q108 0 150 -80h4q-7 64 -7 164v148h149v-732h-142v68h-4q-42 -80 -158 -80q-95 0 -158.5 66t-63.5 186zM190 240q0 -66 29.5 -104.5t81.5 -38.5t82.5 40.5t30.5 106.5t-30.5 106.5t-82.5 40.5q-51 0 -81 -42t-30 -109z" />
    <glyph glyph-name="e" unicode="e" horiz-adv-x="585" 
d="M34 241q0 120 72 189.5t191 69.5q118 0 185 -65t67 -184v-36h-364q12 -123 116 -123q76 0 98 56h143q-13 -68 -78.5 -114t-165.5 -46q-126 0 -195 64.5t-69 188.5zM297 399q-86 0 -108 -97h207q-13 97 -99 97z" />
    <glyph glyph-name="f" unicode="f" horiz-adv-x="358" 
d="M93 0v380h-92v108h92v47q0 104 45.5 150.5t154.5 46.5h74v-112h-47q-43 0 -60.5 -17.5t-17.5 -60.5v-54h109v-108h-109v-380h-149z" />
    <glyph glyph-name="g" unicode="g" horiz-adv-x="631" 
d="M52 -60h139q2 -31 30 -49.5t75 -18.5q65 0 95 36.5t30 118.5v41h-4q-42 -80 -158 -80q-95 0 -158.5 66t-63.5 186q0 121 65.5 190.5t164.5 69.5q108 0 150 -80h4v68h142v-461q0 -255 -267 -255q-235 0 -244 168zM190 240q0 -66 29.5 -104.5t81.5 -38.5q50 0 80.5 38.5
t32.5 101.5v13q-2 64 -32.5 102.5t-80.5 38.5q-51 0 -81 -42t-30 -109z" />
    <glyph glyph-name="h" unicode="h" horiz-adv-x="616" 
d="M68 0v732h148v-149q0 -98 -6 -164h4q43 81 149 81q84 0 137.5 -49t53.5 -156v-295h-149v278q0 110 -87 110q-45 0 -73.5 -34.5t-28.5 -93.5v-260h-148z" />
    <glyph glyph-name="i" unicode="i" horiz-adv-x="284" 
d="M64 602v130h156v-130h-156zM68 0v488h148v-488h-148z" />
    <glyph glyph-name="j" unicode="j" horiz-adv-x="284" 
d="M64 602v130h156v-130h-156zM68 -33v521h148v-526q0 -93 -41 -137.5t-147 -44.5h-46v112h27q33 0 46 17.5t13 57.5z" />
    <glyph glyph-name="k" unicode="k" horiz-adv-x="573" 
d="M68 0v732h148v-431l168 187h168l-183 -195l200 -293h-170l-127 189l-56 -60v-129h-148z" />
    <glyph glyph-name="l" unicode="l" horiz-adv-x="284" 
d="M68 0v732h148v-732h-148z" />
    <glyph glyph-name="m" unicode="m" horiz-adv-x="933" 
d="M68 0v488h142v-69h4q43 81 148 81q121 0 162 -94q48 94 165 94q82 0 132 -48t50 -154v-298h-149v284q0 104 -81 104q-42 0 -70 -33.5t-28 -93.5v-261h-148v284q0 104 -81 104q-42 0 -70 -33.5t-28 -93.5v-261h-148z" />
    <glyph glyph-name="n" unicode="n" horiz-adv-x="616" 
d="M68 0v488h142v-69h4q43 81 149 81q84 0 137.5 -49t53.5 -156v-295h-149v278q0 110 -87 110q-45 0 -73.5 -34.5t-28.5 -95.5v-258h-148z" />
    <glyph glyph-name="o" unicode="o" horiz-adv-x="610" 
d="M37 244q0 119 75 187.5t193 68.5q121 0 194 -67.5t73 -188.5q0 -119 -74.5 -187.5t-192.5 -68.5q-122 0 -195 67.5t-73 188.5zM190 244q0 -68 31 -107.5t84 -39.5t84 39.5t31 107.5q0 69 -31 107.5t-84 38.5t-84 -39t-31 -107z" />
    <glyph glyph-name="p" unicode="p" horiz-adv-x="631" 
d="M216 -97v-123h-148v708h142v-68h4q42 80 158 80q95 0 158.5 -66t63.5 -186q0 -121 -65.5 -190.5t-164.5 -69.5q-108 0 -150 80h-4q6 -64 6 -165zM441 248q0 66 -29.5 104.5t-81.5 38.5q-51 0 -81.5 -38.5t-32.5 -102.5v-6q0 -66 31 -106.5t83 -40.5q51 0 81 42t30 109z
" />
    <glyph glyph-name="q" unicode="q" horiz-adv-x="630" 
d="M414 -96q0 100 7 164h-4q-42 -80 -158 -80q-95 0 -158.5 66t-63.5 186q0 121 65.5 190.5t164.5 69.5q108 0 150 -80h4v68h142v-708h-149v124zM190 240q0 -66 29.5 -104.5t81.5 -38.5q50 0 80.5 38.5t32.5 101.5v13q-2 64 -32.5 102.5t-80.5 38.5q-51 0 -81 -42t-30 -109z
" />
    <glyph glyph-name="r" unicode="r" horiz-adv-x="412" 
d="M68 0v488h142v-71h4q40 83 128 83q39 0 68 -20l-26 -127q-32 16 -60 16q-53 0 -80.5 -39.5t-27.5 -104.5v-225h-148z" />
    <glyph glyph-name="s" unicode="s" horiz-adv-x="544" 
d="M32 140h139q0 -59 94 -59q95 0 95 52q0 24 -16.5 34.5t-53.5 15.5l-87 14q-76 11 -116.5 43.5t-40.5 96.5q0 78 62.5 120.5t163.5 42.5t161.5 -38t60.5 -110h-136q0 55 -88 55q-37 0 -59.5 -13.5t-22.5 -34.5t16 -32t57 -18l87 -13q73 -12 117 -43.5t44 -97.5
q0 -83 -66.5 -125t-177.5 -42q-107 0 -170 38t-63 114z" />
    <glyph glyph-name="t" unicode="t" horiz-adv-x="378" 
d="M88 180v200h-92v108h92v148h149v-148h117v-108h-117v-191q0 -40 14 -56t54 -16h49v-117h-81q-106 0 -145.5 39t-39.5 141z" />
    <glyph glyph-name="u" unicode="u" horiz-adv-x="612" 
d="M60 193v295h148v-278q0 -110 88 -110q45 0 72.5 35t27.5 95v258h149v-488h-142v69h-4q-43 -81 -148 -81q-85 0 -138 49t-53 156z" />
    <glyph glyph-name="v" unicode="v" horiz-adv-x="543" 
d="M182 0l-178 488h162l109 -345h4l108 345h152l-172 -488h-185z" />
    <glyph glyph-name="w" unicode="w" horiz-adv-x="801" 
d="M150 0l-143 488h147l83 -344h4l93 344h137l93 -344h4l83 344h144l-143 -488h-163l-86 334h-4l-86 -334h-163z" />
    <glyph glyph-name="x" unicode="x" horiz-adv-x="525" 
d="M6 0l174 246l-170 242h165l94 -145l91 145h154l-170 -241l174 -247h-164l-99 150l-95 -150h-154z" />
    <glyph glyph-name="y" unicode="y" horiz-adv-x="543" 
d="M182 0l-178 488h162l109 -345h4l108 345h152l-189 -541q-60 -175 -209 -175h-65v115h30q88 0 114 86l8 27h-46z" />
    <glyph glyph-name="z" unicode="z" horiz-adv-x="496" 
d="M32 377v111h428v-82l-238 -295h242v-111h-431v80l241 297h-242z" />
    <glyph glyph-name="braceleft" unicode="{" horiz-adv-x="397" 
d="M121 -63v138q0 76 -22.5 104t-89.5 28v110q67 0 89.5 28t22.5 104v130q0 90 42 127.5t144 37.5h77v-112h-53q-44 0 -59.5 -17t-15.5 -63v-158q0 -55 -22.5 -85t-77.5 -45v-4q55 -15 77.5 -45t22.5 -85v-166q0 -46 15.5 -63t59.5 -17h53v-112h-77q-102 0 -144 37.5
t-42 127.5z" />
    <glyph glyph-name="bar" unicode="|" horiz-adv-x="300" 
d="M88 -240v1000h124v-1000h-124z" />
    <glyph glyph-name="braceright" unicode="}" horiz-adv-x="397" 
d="M13 -116h54q44 0 59 17t15 63v166q0 55 22.5 85t77.5 45v4q-55 15 -77.5 45t-22.5 85v158q0 46 -15 63t-59 17h-54v112h77q102 0 144 -37.5t42 -127.5v-130q0 -76 22.5 -104t89.5 -28v-110q-67 0 -89.5 -28t-22.5 -104v-138q0 -90 -42 -127.5t-144 -37.5h-77v112z" />
    <glyph glyph-name="asciitilde" unicode="~" 
d="M45 170q0 93 41 139t101 46q39 0 75 -16.5t64.5 -33.5t49.5 -17q46 0 46 73h104q0 -93 -41 -139t-100 -46q-39 0 -75.5 17t-65.5 34.5t-49 17.5q-46 0 -46 -75h-104z" />
    <glyph glyph-name="exclamdown" unicode="&#xa1;" horiz-adv-x="291" 
d="M71 344v144h149v-144h-149zM69 -14l33 291h87l33 -291v-186h-153v186z" />
    <glyph glyph-name="cent" unicode="&#xa2;" 
d="M241 -12v108q-95 17 -149.5 83.5t-54.5 168.5q0 101 56.5 168t151.5 83v101h110v-101q81 -13 129 -62.5t54 -116.5h-146q-5 31 -28.5 53t-64.5 22q-50 0 -80 -41t-30 -106t30 -106t80 -41q41 0 64 22t29 53h146q-6 -69 -54.5 -118.5t-132.5 -61.5v-108h-110z" />
    <glyph glyph-name="sterling" unicode="&#xa3;" 
d="M60 314v80h74q-31 75 -31 130q0 81 56 128.5t153 47.5q189 0 197 -176h-132q-4 41 -19.5 58.5t-46.5 17.5q-28 0 -46 -18t-18 -50q0 -49 35 -138h151v-80h-123q13 -42 13 -81q0 -53 -16 -101q56 -38 83 -38q53 0 54 87h110q-3 -193 -146 -193q-67 0 -143 65
q-52 -65 -135 -65q-56 0 -92.5 27.5t-36.5 81.5q0 53 34.5 84.5t92.5 31.5q26 0 58 -10v18q0 41 -19 93h-107zM128 57q40 0 52 66q-29 17 -51 17q-19 0 -31 -12t-12 -30t10.5 -29.5t31.5 -11.5z" />
    <glyph glyph-name="currency" unicode="&#xa4;" 
d="M140 136l-63 62l61 61q-25 40 -25 85t25 83l-58 59l63 62l59 -60q40 20 82 20q41 0 81 -20l60 60l63 -62l-58 -59q25 -38 25 -83t-25 -85l61 -61l-63 -62l-64 63q-36 -19 -80 -19q-45 0 -80 19zM284 263q34 0 55.5 22t21.5 59t-21.5 59t-55.5 22t-55.5 -22t-21.5 -59
t21.5 -59t55.5 -22z" />
    <glyph glyph-name="yen" unicode="&#xa5;" 
d="M80 226v72h127l-213 390h172l119 -246h4l124 246h161l-212 -390h126v-72h-130v-60h130v-72h-130v-94h-148v94h-130v72h130v60h-130z" />
    <glyph glyph-name="brokenbar" unicode="&#xa6;" horiz-adv-x="300" 
d="M88 336v352h124v-352h-124zM88 -164v352h124v-352h-124z" />
    <glyph glyph-name="section" unicode="&#xa7;" horiz-adv-x="578" 
d="M49 -71h136q2 -32 30.5 -48t67.5 -16q47 0 73 18.5t26 52.5q0 29 -20.5 45.5t-67.5 29.5l-103 28q-148 41 -148 171q0 51 30 94t83 66q-95 47 -95 147q0 82 60 132.5t174 50.5q100 0 164 -41.5t70 -115.5h-137q-2 32 -30.5 48t-66.5 16q-99 0 -99 -71q0 -30 20.5 -46
t66.5 -29l103 -28q148 -41 148 -171q0 -51 -30 -94.5t-83 -65.5q96 -48 96 -147q0 -81 -60.5 -132t-173.5 -51q-100 0 -164 41.5t-70 115.5zM317 321l-55 15q-40 -10 -62.5 -36.5t-22.5 -58.5q0 -68 83 -90l53 -15q41 10 64 36t23 59q0 34 -19.5 55.5t-63.5 34.5z" />
    <glyph glyph-name="dieresis" unicode="&#xa8;" horiz-adv-x="599" 
d="M347 593v128h132v-128h-132zM119 593v128h133v-128h-133z" />
    <glyph glyph-name="copyright" unicode="&#xa9;" horiz-adv-x="776" 
d="M33 348q0 151 100.5 251.5t254.5 100.5q152 0 253.5 -100.5t101.5 -251.5q0 -152 -101 -256t-254 -104t-254 104t-101 256zM119 348q0 -122 75.5 -205.5t193.5 -83.5q115 0 192 83.5t77 205.5q0 121 -75 199t-194 78t-194 -78t-75 -199zM213 347q0 76 48 126t130 50
q63 0 105.5 -33t51.5 -88h-94q-17 42 -63 42q-35 0 -56.5 -27.5t-21.5 -69.5t21.5 -69t56.5 -27q46 0 63 42h94q-9 -55 -51.5 -88.5t-105.5 -33.5q-82 0 -130 50t-48 126z" />
    <glyph glyph-name="ordfeminine" unicode="&#xaa;" horiz-adv-x="414" 
d="M149 336q-56 0 -86 26t-30 71q0 91 116 107l64 8q25 3 34.5 9.5t9.5 21.5q0 18 -12.5 29.5t-37.5 11.5q-53 0 -57 -49h-104q4 64 48.5 94.5t112.5 30.5q163 0 163 -135v-217h-109v37h-4q-35 -45 -108 -45zM257 470v32q-8 -11 -30 -14l-39 -5q-42 -5 -42 -37q0 -37 46 -37
q27 0 46 16t19 45z" />
    <glyph glyph-name="guillemotleft" unicode="&#xab;" horiz-adv-x="587" 
d="M277 252l141 204h122l-110 -204l110 -204h-122zM188 48l-142 204l142 204h121l-110 -204l110 -204h-121z" />
    <glyph glyph-name="logicalnot" unicode="&#xac;" 
d="M59 199v112h450v-283h-118v171h-332z" />
    <glyph glyph-name="uni00AD" unicode="&#xad;" horiz-adv-x="396" 
d="M49 190v124h298v-124h-298z" />
    <glyph glyph-name="registered" unicode="&#xae;" horiz-adv-x="776" 
d="M33 348q0 151 100.5 251.5t254.5 100.5q152 0 253.5 -100.5t101.5 -251.5q0 -152 -101 -256t-254 -104t-254 104t-101 256zM119 348q0 -122 75.5 -205.5t193.5 -83.5q115 0 192 83.5t77 205.5q0 121 -75 199t-194 78t-194 -78t-75 -199zM237 176v344h173
q66 0 101.5 -30.5t35.5 -83.5q0 -34 -19 -62.5t-54 -42.5l85 -125h-104l-70 113h-51v-113h-97zM404 443h-70v-80h70q22 0 34 11t12 30q0 39 -46 39z" />
    <glyph glyph-name="macron" unicode="&#xaf;" horiz-adv-x="599" 
d="M143 602v96h309v-96h-309z" />
    <glyph glyph-name="degree" unicode="&#xb0;" horiz-adv-x="415" 
d="M208 384q-73 0 -120.5 44t-47.5 114t47.5 114t120.5 44t120 -44t47 -114t-47 -114t-120 -44zM208 614q-29 0 -48.5 -19.5t-19.5 -52.5t19.5 -52.5t48.5 -19.5t48.5 19.5t19.5 52.5t-19.5 52.5t-48.5 19.5z" />
    <glyph glyph-name="plusminus" unicode="&#xb1;" 
d="M62 333v111h163v154h118v-154h169v-111h-169v-154h-118v154h-163zM56 0v112h456v-112h-456z" />
    <glyph glyph-name="acute" unicode="&#xb4;" horiz-adv-x="599" 
d="M248 568l98 164h151l-149 -164h-100z" />
    <glyph glyph-name="mu" unicode="&#xb5;" horiz-adv-x="609" 
d="M405 0v69h-4q-41 -81 -145 -81q-28 0 -57 13q12 -95 12 -167v-54h-149v708h149v-278q0 -110 87 -110q45 0 72.5 35t27.5 95v258h149v-488h-142z" />
    <glyph glyph-name="paragraph" unicode="&#xb6;" horiz-adv-x="628" 
d="M436 0v688h129v-688h-129zM239 0v249q-93 14 -146 70.5t-53 148.5q0 100 67.5 160t184.5 60h77v-688h-130z" />
    <glyph glyph-name="periodcentered" unicode="&#xb7;" horiz-adv-x="292" 
d="M65 179v148h162v-148h-162z" />
    <glyph glyph-name="cedilla" unicode="&#xb8;" horiz-adv-x="599" 
d="M244 -90l34 90h46v-39q44 -1 68 -25t24 -60q0 -42 -30 -69t-89 -27h-73v64h55q44 0 44 35q0 31 -44 31h-35z" />
    <glyph glyph-name="ordmasculine" unicode="&#xba;" horiz-adv-x="438" 
d="M218 336q-88 0 -138.5 48.5t-50.5 131.5t51 131.5t138 48.5q89 0 140 -48.5t51 -131.5t-51.5 -131.5t-139.5 -48.5zM218 425q35 0 54.5 25.5t19.5 65.5q0 41 -19.5 66t-54.5 25q-34 0 -53.5 -25t-19.5 -66q0 -40 19.5 -65.5t53.5 -25.5z" />
    <glyph glyph-name="guillemotright" unicode="&#xbb;" horiz-adv-x="587" 
d="M277 48l111 204l-111 204h122l141 -204l-141 -204h-122zM46 48l111 204l-111 204h122l141 -204l-141 -204h-122z" />
    <glyph glyph-name="onequarter" unicode="&#xbc;" horiz-adv-x="828" 
d="M473 56v59l188 232h97v-212h45v-79h-45v-56h-112v56h-173zM235 -12l348 712h88l-348 -712h-88zM80 524l-43 75l154 89h67v-261h92v-83h-301v83h95v133zM576 135h70v89z" />
    <glyph glyph-name="onehalf" unicode="&#xbd;" horiz-adv-x="828" 
d="M481 0q0 76 32.5 117t91.5 66l15 6q39 17 54.5 27.5t15.5 24.5q0 34 -46 34q-50 0 -51 -50h-108q1 62 46 94.5t110 32.5q73 0 115.5 -29.5t42.5 -77.5q0 -43 -23.5 -67.5t-78.5 -47.5l-14 -7q-67 -28 -67 -40h181v-83h-316zM80 524l-43 75l154 89h67v-261h92v-83h-301v83
h95v133zM214 -12l348 712h87l-348 -712h-87z" />
    <glyph glyph-name="threequarters" unicode="&#xbe;" horiz-adv-x="828" 
d="M473 56v59l188 232h97v-212h45v-79h-45v-56h-112v56h-173zM35 451h103q0 -48 49 -48q23 0 36 11.5t13 30.5q0 43 -54 43h-17v63h17q49 0 49 39t-44 39t-44 -44h-100q2 54 41 82.5t104 28.5q68 0 108.5 -27t40.5 -72q0 -61 -59 -76v-3q31 -7 49.5 -27.5t18.5 -51.5
q0 -103 -159 -103q-148 0 -152 115zM215 -12l348 712h87l-348 -712h-87zM576 135h70v89z" />
    <glyph glyph-name="questiondown" unicode="&#xbf;" horiz-adv-x="523" 
d="M197 344v144h148v-144h-148zM21 -21q0 39 13.5 70t33.5 49.5t43.5 37t43.5 32.5t33.5 36t13.5 48v23h138v-22q0 -49 -17.5 -85.5t-43 -57.5t-51 -38t-43 -38t-17.5 -48q0 -35 24 -58t67 -23q54 0 79 29.5t25 73.5h141q0 -94 -60.5 -157t-184.5 -63q-109 0 -173.5 50.5
t-64.5 140.5z" />
    <glyph glyph-name="Agrave" unicode="&#xc0;" horiz-adv-x="707" 
d="M6 0l256 688h183l256 -688h-164l-48 141h-276l-48 -141h-159zM350 545l-96 -282h194l-94 282h-4zM305 768l-150 164h151l99 -164h-100z" />
    <glyph glyph-name="Aacute" unicode="&#xc1;" horiz-adv-x="707" 
d="M6 0l256 688h183l256 -688h-164l-48 141h-276l-48 -141h-159zM350 545l-96 -282h194l-94 282h-4zM302 768l98 164h151l-149 -164h-100z" />
    <glyph glyph-name="Acircumflex" unicode="&#xc2;" horiz-adv-x="707" 
d="M6 0l256 688h183l256 -688h-164l-48 141h-276l-48 -141h-159zM350 545l-96 -282h194l-94 282h-4zM172 768l128 164h106l129 -164h-117l-65 93l-64 -93h-117z" />
    <glyph glyph-name="Atilde" unicode="&#xc3;" horiz-adv-x="707" 
d="M6 0l256 688h183l256 -688h-164l-48 141h-276l-48 -141h-159zM350 545l-96 -282h194l-94 282h-4zM173 782q1 64 28.5 98.5t78.5 34.5q32 0 82.5 -21t68.5 -21q32 0 36 48h67q-1 -64 -28.5 -98.5t-78.5 -34.5q-33 0 -83.5 21t-67.5 21q-34 0 -36 -48h-67z" />
    <glyph glyph-name="Adieresis" unicode="&#xc4;" horiz-adv-x="707" 
d="M6 0l256 688h183l256 -688h-164l-48 141h-276l-48 -141h-159zM350 545l-96 -282h194l-94 282h-4zM401 793v128h132v-128h-132zM173 793v128h133v-128h-133z" />
    <glyph glyph-name="Aring" unicode="&#xc5;" horiz-adv-x="707" 
d="M6 0l256 688h183l256 -688h-164l-48 141h-276l-48 -141h-159zM350 545l-96 -282h194l-94 282h-4zM353 750q-48 0 -79.5 30t-31.5 74q0 46 32 75.5t79 29.5t79 -29.5t32 -75.5q0 -44 -31.5 -74t-79.5 -30zM353 808q19 0 33 13t14 33t-14 33.5t-33 13.5t-32.5 -13
t-13.5 -34q0 -20 13.5 -33t32.5 -13z" />
    <glyph glyph-name="AE" unicode="&#xc6;" horiz-adv-x="1144" 
d="M1 0l499 688h584v-127h-364v-150h296v-119h-296v-165h375v-127h-530v152h-280l-107 -152h-177zM561 541l-192 -271h196v271h-4z" />
    <glyph glyph-name="Ccedilla" unicode="&#xc7;" horiz-adv-x="742" 
d="M339 -90l29 79q-152 7 -238 105.5t-86 249.5q0 155 95.5 255.5t253.5 100.5q129 0 210.5 -65t100.5 -180h-154q-31 114 -157 114q-88 0 -139 -62t-51 -163q0 -99 52 -162t139 -63q125 0 156 114h154q-18 -109 -92.5 -173t-192.5 -71v-28q44 -1 68 -25t24 -60
q0 -42 -30 -69t-89 -27h-73v64h55q44 0 44 35q0 31 -44 31h-35z" />
    <glyph glyph-name="Egrave" unicode="&#xc8;" horiz-adv-x="653" 
d="M77 0v688h516v-127h-361v-150h294v-119h-294v-165h372v-127h-527zM289 768l-150 164h151l99 -164h-100z" />
    <glyph glyph-name="Eacute" unicode="&#xc9;" horiz-adv-x="653" 
d="M77 0v688h516v-127h-361v-150h294v-119h-294v-165h372v-127h-527zM286 768l98 164h151l-149 -164h-100z" />
    <glyph glyph-name="Ecircumflex" unicode="&#xca;" horiz-adv-x="653" 
d="M77 0v688h516v-127h-361v-150h294v-119h-294v-165h372v-127h-527zM156 768l128 164h106l129 -164h-117l-65 93l-64 -93h-117z" />
    <glyph glyph-name="Edieresis" unicode="&#xcb;" horiz-adv-x="653" 
d="M77 0v688h516v-127h-361v-150h294v-119h-294v-165h372v-127h-527zM385 793v128h132v-128h-132zM157 793v128h133v-128h-133z" />
    <glyph glyph-name="Igrave" unicode="&#xcc;" horiz-adv-x="309" 
d="M77 0v688h155v-688h-155zM107 768l-150 164h151l99 -164h-100z" />
    <glyph glyph-name="Iacute" unicode="&#xcd;" horiz-adv-x="309" 
d="M77 0v688h155v-688h-155zM104 768l98 164h151l-149 -164h-100z" />
    <glyph glyph-name="Icircumflex" unicode="&#xce;" horiz-adv-x="309" 
d="M77 0v688h155v-688h-155zM-26 768l128 164h106l129 -164h-117l-65 93l-64 -93h-117z" />
    <glyph glyph-name="Idieresis" unicode="&#xcf;" horiz-adv-x="309" 
d="M77 0v688h155v-688h-155zM203 793v128h132v-128h-132zM-25 793v128h133v-128h-133z" />
    <glyph glyph-name="Eth" unicode="&#xd0;" horiz-adv-x="751" 
d="M4 302v85h73v301h262q177 0 272.5 -95t95.5 -249t-95.5 -249t-272.5 -95h-262v302h-73zM325 561h-93v-174h144v-85h-144v-175h93q114 0 168 60.5t54 156.5t-54 156.5t-168 60.5z" />
    <glyph glyph-name="Ntilde" unicode="&#xd1;" horiz-adv-x="775" 
d="M77 0v688h138l327 -424h4l-4 424h156v-688h-135l-331 426h-4l4 -426h-155zM207 782q1 64 28.5 98.5t78.5 34.5q32 0 82.5 -21t68.5 -21q32 0 36 48h67q-1 -64 -28.5 -98.5t-78.5 -34.5q-33 0 -83.5 21t-67.5 21q-34 0 -36 -48h-67z" />
    <glyph glyph-name="Ograve" unicode="&#xd2;" horiz-adv-x="804" 
d="M44 344q0 156 98 256t260 100q160 0 259 -100.5t99 -255.5t-99 -255.5t-259 -100.5q-162 0 -260 100t-98 256zM203 344q0 -100 55 -162.5t144 -62.5t144 63.5t55 161.5t-55 161.5t-144 63.5t-144 -62.5t-55 -162.5zM354 768l-150 164h151l99 -164h-100z" />
    <glyph glyph-name="Oacute" unicode="&#xd3;" horiz-adv-x="804" 
d="M44 344q0 156 98 256t260 100q160 0 259 -100.5t99 -255.5t-99 -255.5t-259 -100.5q-162 0 -260 100t-98 256zM203 344q0 -100 55 -162.5t144 -62.5t144 63.5t55 161.5t-55 161.5t-144 63.5t-144 -62.5t-55 -162.5zM351 768l98 164h151l-149 -164h-100z" />
    <glyph glyph-name="Ocircumflex" unicode="&#xd4;" horiz-adv-x="804" 
d="M44 344q0 156 98 256t260 100q160 0 259 -100.5t99 -255.5t-99 -255.5t-259 -100.5q-162 0 -260 100t-98 256zM203 344q0 -100 55 -162.5t144 -62.5t144 63.5t55 161.5t-55 161.5t-144 63.5t-144 -62.5t-55 -162.5zM221 768l128 164h106l129 -164h-117l-65 93l-64 -93
h-117z" />
    <glyph glyph-name="Otilde" unicode="&#xd5;" horiz-adv-x="804" 
d="M44 344q0 156 98 256t260 100q160 0 259 -100.5t99 -255.5t-99 -255.5t-259 -100.5q-162 0 -260 100t-98 256zM203 344q0 -100 55 -162.5t144 -62.5t144 63.5t55 161.5t-55 161.5t-144 63.5t-144 -62.5t-55 -162.5zM222 782q1 64 28.5 98.5t78.5 34.5q32 0 82.5 -21
t68.5 -21q32 0 36 48h67q-1 -64 -28.5 -98.5t-78.5 -34.5q-33 0 -83.5 21t-67.5 21q-34 0 -36 -48h-67z" />
    <glyph glyph-name="Odieresis" unicode="&#xd6;" horiz-adv-x="804" 
d="M44 344q0 156 98 256t260 100q160 0 259 -100.5t99 -255.5t-99 -255.5t-259 -100.5q-162 0 -260 100t-98 256zM203 344q0 -100 55 -162.5t144 -62.5t144 63.5t55 161.5t-55 161.5t-144 63.5t-144 -62.5t-55 -162.5zM450 793v128h132v-128h-132zM222 793v128h133v-128
h-133z" />
    <glyph glyph-name="multiply" unicode="&#xd7;" 
d="M62 395l83 81l139 -140l139 140l83 -81l-140 -141l143 -144l-83 -81l-142 142l-142 -142l-83 81l143 144z" />
    <glyph glyph-name="Oslash" unicode="&#xd8;" horiz-adv-x="804" 
d="M59 -12l83 100q-98 100 -98 256t98.5 256t259.5 100q114 0 202 -55l46 55h95l-84 -101q99 -101 99 -255q0 -155 -99.5 -255.5t-258.5 -100.5q-117 0 -203 54l-45 -54h-95zM203 344q0 -80 36 -138l274 329q-50 34 -111 34q-89 0 -144 -62.5t-55 -162.5zM601 344
q0 80 -37 137l-274 -329q47 -33 112 -33q89 0 144 63.5t55 161.5z" />
    <glyph glyph-name="Ugrave" unicode="&#xd9;" horiz-adv-x="746" 
d="M66 278v410h156v-408q0 -78 38 -119.5t113 -41.5t113 41.5t38 119.5v408h155v-410q0 -290 -306 -290q-307 0 -307 290zM325 768l-150 164h151l99 -164h-100z" />
    <glyph glyph-name="Uacute" unicode="&#xda;" horiz-adv-x="746" 
d="M66 278v410h156v-408q0 -78 38 -119.5t113 -41.5t113 41.5t38 119.5v408h155v-410q0 -290 -306 -290q-307 0 -307 290zM322 768l98 164h151l-149 -164h-100z" />
    <glyph glyph-name="Ucircumflex" unicode="&#xdb;" horiz-adv-x="746" 
d="M66 278v410h156v-408q0 -78 38 -119.5t113 -41.5t113 41.5t38 119.5v408h155v-410q0 -290 -306 -290q-307 0 -307 290zM192 768l128 164h106l129 -164h-117l-65 93l-64 -93h-117z" />
    <glyph glyph-name="Udieresis" unicode="&#xdc;" horiz-adv-x="746" 
d="M66 278v410h156v-408q0 -78 38 -119.5t113 -41.5t113 41.5t38 119.5v408h155v-410q0 -290 -306 -290q-307 0 -307 290zM421 793v128h132v-128h-132zM193 793v128h133v-128h-133z" />
    <glyph glyph-name="Yacute" unicode="&#xdd;" horiz-adv-x="694" 
d="M267 0v261l-258 427h176l161 -283h4l169 283h165l-261 -426v-262h-156zM296 768l98 164h151l-149 -164h-100z" />
    <glyph glyph-name="Thorn" unicode="&#xde;" horiz-adv-x="694" 
d="M77 0v688h155v-104h160q124 0 192.5 -63t68.5 -168q0 -107 -69 -173t-192 -66h-160v-114h-155zM371 463h-139v-227h139q59 0 91 31t32 83q0 53 -31.5 83t-91.5 30z" />
    <glyph glyph-name="germandbls" unicode="&#xdf;" horiz-adv-x="637" 
d="M68 0v495q0 119 68 184t189 65q114 0 168.5 -47t54.5 -116q0 -34 -14 -62.5t-30 -44t-30 -34.5t-14 -35t15.5 -32t37 -32t43.5 -35.5t37.5 -51t15.5 -71.5q0 -89 -56 -136t-138 -47h-118v113h98q65 0 65 57q0 26 -22.5 48t-49 37t-49 48.5t-22.5 79.5q0 34 14 63t31 45
t31 37t14 42q0 29 -22 47.5t-64 18.5q-47 0 -76 -32t-29 -100v-504h-148z" />
    <glyph glyph-name="agrave" unicode="&#xe0;" horiz-adv-x="574" 
d="M40 127q0 63 40.5 99t127.5 49l93 14q37 5 49 13t12 26q0 33 -19.5 52.5t-59.5 19.5q-81 0 -87 -72h-139q6 84 68.5 128t157.5 44q228 0 228 -177v-323h-142v60h-4q-46 -72 -159 -72q-82 0 -124 37.5t-42 101.5zM362 194v40q-13 -18 -46 -23l-67 -10q-63 -10 -63 -58
q0 -55 67 -55q44 0 76.5 26.5t32.5 79.5zM242 568l-150 164h151l99 -164h-100z" />
    <glyph glyph-name="aacute" unicode="&#xe1;" horiz-adv-x="574" 
d="M40 127q0 63 40.5 99t127.5 49l93 14q37 5 49 13t12 26q0 33 -19.5 52.5t-59.5 19.5q-81 0 -87 -72h-139q6 84 68.5 128t157.5 44q228 0 228 -177v-323h-142v60h-4q-46 -72 -159 -72q-82 0 -124 37.5t-42 101.5zM362 194v40q-13 -18 -46 -23l-67 -10q-63 -10 -63 -58
q0 -55 67 -55q44 0 76.5 26.5t32.5 79.5zM223 568l98 164h151l-149 -164h-100z" />
    <glyph glyph-name="acircumflex" unicode="&#xe2;" horiz-adv-x="574" 
d="M40 127q0 63 40.5 99t127.5 49l93 14q37 5 49 13t12 26q0 33 -19.5 52.5t-59.5 19.5q-81 0 -87 -72h-139q6 84 68.5 128t157.5 44q228 0 228 -177v-323h-142v60h-4q-46 -72 -159 -72q-82 0 -124 37.5t-42 101.5zM362 194v40q-13 -18 -46 -23l-67 -10q-63 -10 -63 -58
q0 -55 67 -55q44 0 76.5 26.5t32.5 79.5zM101 568l128 164h106l129 -164h-117l-65 93l-64 -93h-117z" />
    <glyph glyph-name="atilde" unicode="&#xe3;" horiz-adv-x="574" 
d="M40 127q0 63 40.5 99t127.5 49l93 14q37 5 49 13t12 26q0 33 -19.5 52.5t-59.5 19.5q-81 0 -87 -72h-139q6 84 68.5 128t157.5 44q228 0 228 -177v-323h-142v60h-4q-46 -72 -159 -72q-82 0 -124 37.5t-42 101.5zM362 194v40q-13 -18 -46 -23l-67 -10q-63 -10 -63 -58
q0 -55 67 -55q44 0 76.5 26.5t32.5 79.5zM102 582q1 64 28.5 98.5t78.5 34.5q32 0 82.5 -21t68.5 -21q32 0 36 48h67q-1 -64 -28.5 -98.5t-78.5 -34.5q-33 0 -83.5 21t-67.5 21q-34 0 -36 -48h-67z" />
    <glyph glyph-name="adieresis" unicode="&#xe4;" horiz-adv-x="574" 
d="M40 127q0 63 40.5 99t127.5 49l93 14q37 5 49 13t12 26q0 33 -19.5 52.5t-59.5 19.5q-81 0 -87 -72h-139q6 84 68.5 128t157.5 44q228 0 228 -177v-323h-142v60h-4q-46 -72 -159 -72q-82 0 -124 37.5t-42 101.5zM362 194v40q-13 -18 -46 -23l-67 -10q-63 -10 -63 -58
q0 -55 67 -55q44 0 76.5 26.5t32.5 79.5zM330 593v128h132v-128h-132zM102 593v128h133v-128h-133z" />
    <glyph glyph-name="aring" unicode="&#xe5;" horiz-adv-x="574" 
d="M40 127q0 63 40.5 99t127.5 49l93 14q37 5 49 13t12 26q0 33 -19.5 52.5t-59.5 19.5q-81 0 -87 -72h-139q6 84 68.5 128t157.5 44q228 0 228 -177v-323h-142v60h-4q-46 -72 -159 -72q-82 0 -124 37.5t-42 101.5zM362 194v40q-13 -18 -46 -23l-67 -10q-63 -10 -63 -58
q0 -55 67 -55q44 0 76.5 26.5t32.5 79.5zM282 550q-48 0 -79.5 30t-31.5 74q0 46 32 75.5t79 29.5t79 -29.5t32 -75.5q0 -44 -31.5 -74t-79.5 -30zM282 608q19 0 33 13t14 33t-14 33.5t-33 13.5t-32.5 -13t-13.5 -34q0 -20 13.5 -33t32.5 -13z" />
    <glyph glyph-name="ae" unicode="&#xe6;" horiz-adv-x="880" 
d="M57 328q6 88 69 130t157 42q116 0 165 -52q61 52 154 52q111 0 176.5 -65.5t65.5 -183.5v-36h-344q10 -123 106 -123q66 0 88 56h143q-12 -68 -76 -114t-158 -46q-128 0 -190 90q-56 -90 -190 -90q-91 0 -137 37.5t-46 101.5q0 123 168 148l93 14q38 5 49.5 13.5
t11.5 28.5q0 29 -20 49t-59 20q-81 0 -87 -72h-139zM362 192v42q-13 -18 -46 -23l-67 -10q-63 -10 -63 -58q0 -55 67 -55q44 0 76.5 25.5t32.5 78.5zM602 399q-82 0 -99 -100h190q-8 100 -91 100z" />
    <glyph glyph-name="ccedilla" unicode="&#xe7;" horiz-adv-x="571" 
d="M245 -90l29 79q-113 7 -176.5 72.5t-63.5 182.5q0 120 72 188t194 68q109 0 171.5 -52t70.5 -132h-146q-5 30 -29.5 52.5t-66.5 22.5q-51 0 -82 -41t-31 -106t31 -106t82 -41q43 0 66.5 22t29.5 53h146q-8 -76 -63 -126.5t-154 -56.5v-28q44 -1 68 -25t24 -60
q0 -42 -30 -69t-89 -27h-73v64h55q44 0 44 35q0 31 -44 31h-35z" />
    <glyph glyph-name="egrave" unicode="&#xe8;" horiz-adv-x="585" 
d="M34 241q0 120 72 189.5t191 69.5q118 0 185 -65t67 -184v-36h-364q12 -123 116 -123q76 0 98 56h143q-13 -68 -78.5 -114t-165.5 -46q-126 0 -195 64.5t-69 188.5zM297 399q-86 0 -108 -97h207q-13 97 -99 97zM249 568l-150 164h151l99 -164h-100z" />
    <glyph glyph-name="eacute" unicode="&#xe9;" horiz-adv-x="585" 
d="M34 241q0 120 72 189.5t191 69.5q118 0 185 -65t67 -184v-36h-364q12 -123 116 -123q76 0 98 56h143q-13 -68 -78.5 -114t-165.5 -46q-126 0 -195 64.5t-69 188.5zM297 399q-86 0 -108 -97h207q-13 97 -99 97zM246 568l98 164h151l-149 -164h-100z" />
    <glyph glyph-name="ecircumflex" unicode="&#xea;" horiz-adv-x="585" 
d="M34 241q0 120 72 189.5t191 69.5q118 0 185 -65t67 -184v-36h-364q12 -123 116 -123q76 0 98 56h143q-13 -68 -78.5 -114t-165.5 -46q-126 0 -195 64.5t-69 188.5zM297 399q-86 0 -108 -97h207q-13 97 -99 97zM116 568l128 164h106l129 -164h-117l-65 93l-64 -93h-117z
" />
    <glyph glyph-name="edieresis" unicode="&#xeb;" horiz-adv-x="585" 
d="M34 241q0 120 72 189.5t191 69.5q118 0 185 -65t67 -184v-36h-364q12 -123 116 -123q76 0 98 56h143q-13 -68 -78.5 -114t-165.5 -46q-126 0 -195 64.5t-69 188.5zM297 399q-86 0 -108 -97h207q-13 97 -99 97zM345 593v128h132v-128h-132zM117 593v128h133v-128h-133z
" />
    <glyph glyph-name="igrave" unicode="&#xec;" horiz-adv-x="284" 
d="M68 0v488h148v-488h-148zM94 568l-150 164h151l99 -164h-100z" />
    <glyph glyph-name="iacute" unicode="&#xed;" horiz-adv-x="284" 
d="M68 0v488h148v-488h-148zM91 568l98 164h151l-149 -164h-100z" />
    <glyph glyph-name="icircumflex" unicode="&#xee;" horiz-adv-x="284" 
d="M68 0v488h148v-488h-148zM-39 568l128 164h106l129 -164h-117l-65 93l-64 -93h-117z" />
    <glyph glyph-name="idieresis" unicode="&#xef;" horiz-adv-x="284" 
d="M68 0v488h148v-488h-148zM190 593v128h132v-128h-132zM-38 593v128h133v-128h-133z" />
    <glyph glyph-name="eth" unicode="&#xf0;" horiz-adv-x="626" 
d="M218 495l-43 59l72 49q-37 16 -98 38l39 103q97 -29 169 -64l88 61l43 -59l-63 -44q76 -55 113.5 -136.5t39.5 -205.5v-28q0 -140 -70.5 -210t-197.5 -70q-124 0 -195 65t-71 175q0 108 69 174t175 66q83 0 129 -46h5q-26 90 -104 142zM194 228q0 -58 31.5 -94.5
t84.5 -36.5t84.5 36t31.5 95t-31.5 95t-84.5 36t-84.5 -36.5t-31.5 -94.5z" />
    <glyph glyph-name="ntilde" unicode="&#xf1;" horiz-adv-x="616" 
d="M68 0v488h142v-69h4q43 81 149 81q84 0 137.5 -49t53.5 -156v-295h-149v278q0 110 -87 110q-45 0 -73.5 -34.5t-28.5 -95.5v-258h-148zM132 582q1 64 28.5 98.5t78.5 34.5q32 0 82.5 -21t68.5 -21q32 0 36 48h67q-1 -64 -28.5 -98.5t-78.5 -34.5q-33 0 -83.5 21t-67.5 21
q-34 0 -36 -48h-67z" />
    <glyph glyph-name="ograve" unicode="&#xf2;" horiz-adv-x="610" 
d="M37 244q0 119 75 187.5t193 68.5q121 0 194 -67.5t73 -188.5q0 -119 -74.5 -187.5t-192.5 -68.5q-122 0 -195 67.5t-73 188.5zM190 244q0 -68 31 -107.5t84 -39.5t84 39.5t31 107.5q0 69 -31 107.5t-84 38.5t-84 -39t-31 -107zM257 568l-150 164h151l99 -164h-100z" />
    <glyph glyph-name="oacute" unicode="&#xf3;" horiz-adv-x="610" 
d="M37 244q0 119 75 187.5t193 68.5q121 0 194 -67.5t73 -188.5q0 -119 -74.5 -187.5t-192.5 -68.5q-122 0 -195 67.5t-73 188.5zM190 244q0 -68 31 -107.5t84 -39.5t84 39.5t31 107.5q0 69 -31 107.5t-84 38.5t-84 -39t-31 -107zM254 568l98 164h151l-149 -164h-100z" />
    <glyph glyph-name="ocircumflex" unicode="&#xf4;" horiz-adv-x="610" 
d="M37 244q0 119 75 187.5t193 68.5q121 0 194 -67.5t73 -188.5q0 -119 -74.5 -187.5t-192.5 -68.5q-122 0 -195 67.5t-73 188.5zM190 244q0 -68 31 -107.5t84 -39.5t84 39.5t31 107.5q0 69 -31 107.5t-84 38.5t-84 -39t-31 -107zM124 568l128 164h106l129 -164h-117l-65 93
l-64 -93h-117z" />
    <glyph glyph-name="otilde" unicode="&#xf5;" horiz-adv-x="610" 
d="M37 244q0 119 75 187.5t193 68.5q121 0 194 -67.5t73 -188.5q0 -119 -74.5 -187.5t-192.5 -68.5q-122 0 -195 67.5t-73 188.5zM190 244q0 -68 31 -107.5t84 -39.5t84 39.5t31 107.5q0 69 -31 107.5t-84 38.5t-84 -39t-31 -107zM125 582q1 64 28.5 98.5t78.5 34.5
q32 0 82.5 -21t68.5 -21q32 0 36 48h67q-1 -64 -28.5 -98.5t-78.5 -34.5q-33 0 -83.5 21t-67.5 21q-34 0 -36 -48h-67z" />
    <glyph glyph-name="odieresis" unicode="&#xf6;" horiz-adv-x="610" 
d="M37 244q0 119 75 187.5t193 68.5q121 0 194 -67.5t73 -188.5q0 -119 -74.5 -187.5t-192.5 -68.5q-122 0 -195 67.5t-73 188.5zM190 244q0 -68 31 -107.5t84 -39.5t84 39.5t31 107.5q0 69 -31 107.5t-84 38.5t-84 -39t-31 -107zM353 593v128h132v-128h-132zM125 593v128
h133v-128h-133z" />
    <glyph glyph-name="divide" unicode="&#xf7;" 
d="M222 380v125h124v-125h-124zM56 199v112h456v-112h-456zM222 5v125h124v-125h-124z" />
    <glyph glyph-name="oslash" unicode="&#xf8;" horiz-adv-x="604" 
d="M54 -12l55 66q-75 69 -75 190q0 116 75 186t193 70q87 0 149 -35l30 35h80l-60 -73q69 -69 69 -183q0 -116 -74.5 -186t-193.5 -70q-80 0 -142 31l-26 -31h-80zM187 244q0 -45 14 -79l169 202q-29 23 -68 23q-53 0 -84 -39.5t-31 -106.5zM417 244q0 39 -11 70l-166 -199
q26 -18 62 -18q52 0 83.5 40t31.5 107z" />
    <glyph glyph-name="ugrave" unicode="&#xf9;" horiz-adv-x="612" 
d="M60 193v295h148v-278q0 -110 88 -110q45 0 72.5 35t27.5 95v258h149v-488h-142v69h-4q-43 -81 -148 -81q-85 0 -138 49t-53 156zM259 568l-150 164h151l99 -164h-100z" />
    <glyph glyph-name="uacute" unicode="&#xfa;" horiz-adv-x="612" 
d="M60 193v295h148v-278q0 -110 88 -110q45 0 72.5 35t27.5 95v258h149v-488h-142v69h-4q-43 -81 -148 -81q-85 0 -138 49t-53 156zM256 568l98 164h151l-149 -164h-100z" />
    <glyph glyph-name="ucircumflex" unicode="&#xfb;" horiz-adv-x="612" 
d="M60 193v295h148v-278q0 -110 88 -110q45 0 72.5 35t27.5 95v258h149v-488h-142v69h-4q-43 -81 -148 -81q-85 0 -138 49t-53 156zM126 568l128 164h106l129 -164h-117l-65 93l-64 -93h-117z" />
    <glyph glyph-name="udieresis" unicode="&#xfc;" horiz-adv-x="612" 
d="M60 193v295h148v-278q0 -110 88 -110q45 0 72.5 35t27.5 95v258h149v-488h-142v69h-4q-43 -81 -148 -81q-85 0 -138 49t-53 156zM355 593v128h132v-128h-132zM127 593v128h133v-128h-133z" />
    <glyph glyph-name="yacute" unicode="&#xfd;" horiz-adv-x="543" 
d="M182 0l-178 488h162l109 -345h4l108 345h152l-189 -541q-60 -175 -209 -175h-65v115h30q88 0 114 86l8 27h-46zM220 568l98 164h151l-149 -164h-100z" />
    <glyph glyph-name="thorn" unicode="&#xfe;" horiz-adv-x="631" 
d="M594 248q0 -121 -65.5 -190.5t-164.5 -69.5q-108 0 -150 80h-4q6 -66 6 -164v-124h-148v952h148v-148q0 -99 -6 -164h4q42 80 158 80q95 0 158.5 -66t63.5 -186zM441 248q0 66 -29.5 104.5t-81.5 38.5q-51 0 -81.5 -38.5t-32.5 -102.5v-6q0 -66 31 -106.5t83 -40.5
q51 0 81 42t30 109z" />
    <glyph glyph-name="ydieresis" unicode="&#xff;" horiz-adv-x="543" 
d="M182 0l-178 488h162l109 -345h4l108 345h152l-189 -541q-60 -175 -209 -175h-65v115h30q88 0 114 86l8 27h-46zM319 593v128h132v-128h-132zM91 593v128h133v-128h-133z" />
    <glyph glyph-name="Amacron" unicode="&#x100;" horiz-adv-x="707" 
d="M6 0l256 688h183l256 -688h-164l-48 141h-276l-48 -141h-159zM350 545l-96 -282h194l-94 282h-4zM197 802v96h309v-96h-309z" />
    <glyph glyph-name="amacron" unicode="&#x101;" horiz-adv-x="574" 
d="M40 127q0 63 40.5 99t127.5 49l93 14q37 5 49 13t12 26q0 33 -19.5 52.5t-59.5 19.5q-81 0 -87 -72h-139q6 84 68.5 128t157.5 44q228 0 228 -177v-323h-142v60h-4q-46 -72 -159 -72q-82 0 -124 37.5t-42 101.5zM362 194v40q-13 -18 -46 -23l-67 -10q-63 -10 -63 -58
q0 -55 67 -55q44 0 76.5 26.5t32.5 79.5zM126 602v96h309v-96h-309z" />
    <glyph glyph-name="Abreve" unicode="&#x102;" horiz-adv-x="707" 
d="M6 0l256 688h183l256 -688h-164l-48 141h-276l-48 -141h-159zM350 545l-96 -282h194l-94 282h-4zM353 772q-65 0 -109.5 37t-50.5 119h78q6 -36 27.5 -55.5t54.5 -19.5t55 20t28 55h78q-6 -82 -50.5 -119t-110.5 -37z" />
    <glyph glyph-name="abreve" unicode="&#x103;" horiz-adv-x="574" 
d="M40 127q0 63 40.5 99t127.5 49l93 14q37 5 49 13t12 26q0 33 -19.5 52.5t-59.5 19.5q-81 0 -87 -72h-139q6 84 68.5 128t157.5 44q228 0 228 -177v-323h-142v60h-4q-46 -72 -159 -72q-82 0 -124 37.5t-42 101.5zM362 194v40q-13 -18 -46 -23l-67 -10q-63 -10 -63 -58
q0 -55 67 -55q44 0 76.5 26.5t32.5 79.5zM282 572q-65 0 -109.5 37t-50.5 119h78q6 -36 27.5 -55.5t54.5 -19.5t55 20t28 55h78q-6 -82 -50.5 -119t-110.5 -37z" />
    <glyph glyph-name="Aogonek" unicode="&#x104;" horiz-adv-x="707" 
d="M549 -128q0 34 19.5 62.5t63.5 65.5h-95l-48 141h-276l-48 -141h-159l256 688h183l256 -688h1q-60 -63 -60 -101q0 -40 47 -40h31v-79h-40q-131 0 -131 92zM350 545l-96 -282h194l-94 282h-4z" />
    <glyph glyph-name="aogonek" unicode="&#x105;" horiz-adv-x="574" 
d="M356 -128q0 34 19.5 62.5t63.5 65.5h-70v60h-4q-46 -72 -159 -72q-82 0 -124 37.5t-42 101.5q0 63 40.5 99t127.5 49l93 14q37 5 49 13t12 26q0 33 -19.5 52.5t-59.5 19.5q-81 0 -87 -72h-139q6 84 68.5 128t157.5 44q228 0 228 -177v-323h-2q-60 -63 -60 -101
q0 -40 47 -40h31v-79h-40q-131 0 -131 92zM362 194v40q-13 -18 -46 -23l-67 -10q-63 -10 -63 -58q0 -55 67 -55q44 0 76.5 26.5t32.5 79.5z" />
    <glyph glyph-name="Cacute" unicode="&#x106;" horiz-adv-x="742" 
d="M44 344q0 155 95.5 255.5t253.5 100.5q129 0 210.5 -65t100.5 -180h-154q-31 114 -157 114q-88 0 -139 -62t-51 -163q0 -99 52 -162t139 -63q125 0 156 114h154q-19 -115 -101 -180t-212 -65q-162 0 -254.5 99.5t-92.5 256.5zM342 768l98 164h151l-149 -164h-100z" />
    <glyph glyph-name="cacute" unicode="&#x107;" horiz-adv-x="571" 
d="M34 244q0 120 72 188t194 68q109 0 171.5 -52t70.5 -132h-146q-5 30 -29.5 52.5t-66.5 22.5q-51 0 -82 -41t-31 -106t31 -106t82 -41q43 0 66.5 22t29.5 53h146q-8 -80 -69.5 -132t-172.5 -52q-125 0 -195.5 66t-70.5 190zM249 568l98 164h151l-149 -164h-100z" />
    <glyph glyph-name="Ccircumflex" unicode="&#x108;" horiz-adv-x="742" 
d="M44 344q0 155 95.5 255.5t253.5 100.5q129 0 210.5 -65t100.5 -180h-154q-31 114 -157 114q-88 0 -139 -62t-51 -163q0 -99 52 -162t139 -63q125 0 156 114h154q-19 -115 -101 -180t-212 -65q-162 0 -254.5 99.5t-92.5 256.5zM212 768l128 164h106l129 -164h-117l-65 93
l-64 -93h-117z" />
    <glyph glyph-name="ccircumflex" unicode="&#x109;" horiz-adv-x="571" 
d="M34 244q0 120 72 188t194 68q109 0 171.5 -52t70.5 -132h-146q-5 30 -29.5 52.5t-66.5 22.5q-51 0 -82 -41t-31 -106t31 -106t82 -41q43 0 66.5 22t29.5 53h146q-8 -80 -69.5 -132t-172.5 -52q-125 0 -195.5 66t-70.5 190zM119 568l128 164h106l129 -164h-117l-65 93
l-64 -93h-117z" />
    <glyph glyph-name="Cdotaccent" unicode="&#x10a;" horiz-adv-x="742" 
d="M44 344q0 155 95.5 255.5t253.5 100.5q129 0 210.5 -65t100.5 -180h-154q-31 114 -157 114q-88 0 -139 -62t-51 -163q0 -99 52 -162t139 -63q125 0 156 114h154q-19 -115 -101 -180t-212 -65q-162 0 -254.5 99.5t-92.5 256.5zM327 793v128h132v-128h-132z" />
    <glyph glyph-name="cdotaccent" unicode="&#x10b;" horiz-adv-x="571" 
d="M34 244q0 120 72 188t194 68q109 0 171.5 -52t70.5 -132h-146q-5 30 -29.5 52.5t-66.5 22.5q-51 0 -82 -41t-31 -106t31 -106t82 -41q43 0 66.5 22t29.5 53h146q-8 -80 -69.5 -132t-172.5 -52q-125 0 -195.5 66t-70.5 190zM234 593v128h132v-128h-132z" />
    <glyph glyph-name="Ccaron" unicode="&#x10c;" horiz-adv-x="742" 
d="M44 344q0 155 95.5 255.5t253.5 100.5q129 0 210.5 -65t100.5 -180h-154q-31 114 -157 114q-88 0 -139 -62t-51 -163q0 -99 52 -162t139 -63q125 0 156 114h154q-19 -115 -101 -180t-212 -65q-162 0 -254.5 99.5t-92.5 256.5zM340 768l-128 164h117l64 -93l65 93h117
l-129 -164h-106z" />
    <glyph glyph-name="ccaron" unicode="&#x10d;" horiz-adv-x="571" 
d="M34 244q0 120 72 188t194 68q109 0 171.5 -52t70.5 -132h-146q-5 30 -29.5 52.5t-66.5 22.5q-51 0 -82 -41t-31 -106t31 -106t82 -41q43 0 66.5 22t29.5 53h146q-8 -80 -69.5 -132t-172.5 -52q-125 0 -195.5 66t-70.5 190zM247 568l-128 164h117l64 -93l65 93h117
l-129 -164h-106z" />
    <glyph glyph-name="Dcaron" unicode="&#x10e;" horiz-adv-x="751" 
d="M77 0v688h262q177 0 272.5 -95t95.5 -249t-95.5 -249t-272.5 -95h-262zM325 561h-93v-434h93q114 0 168 60.5t54 156.5t-54 156.5t-168 60.5zM296 768l-128 164h117l64 -93l65 93h117l-129 -164h-106z" />
    <glyph glyph-name="dcaron" unicode="&#x10f;" horiz-adv-x="631" 
d="M37 240q0 121 65.5 190.5t164.5 69.5q108 0 150 -80h4q-7 65 -7 164v148h149v-732h-142v68h-4q-42 -80 -158 -80q-95 0 -158.5 66t-63.5 186zM190 240q0 -66 29.5 -104.5t81.5 -38.5q50 0 80.5 38.5t32.5 101.5v13q-2 64 -32.5 102.5t-80.5 38.5q-51 0 -81 -42t-30 -109z
M648 516l39 105h-56v111h135v-98l-57 -118h-61z" />
    <glyph glyph-name="Dcroat" unicode="&#x110;" horiz-adv-x="751" 
d="M4 302v85h73v301h262q177 0 272.5 -95t95.5 -249t-95.5 -249t-272.5 -95h-262v302h-73zM325 561h-93v-174h144v-85h-144v-175h93q114 0 168 60.5t54 156.5t-54 156.5t-168 60.5z" />
    <glyph glyph-name="dcroat" unicode="&#x111;" horiz-adv-x="631" 
d="M273 586v74h141v72h149v-72h68v-74h-68v-586h-142v68h-4q-42 -80 -158 -80q-95 0 -158.5 66t-63.5 186q0 121 65.5 190.5t164.5 69.5q108 0 150 -80h4q-7 65 -7 164v2h-141zM190 240q0 -66 29.5 -104.5t81.5 -38.5t82.5 40.5t30.5 106.5t-30.5 106.5t-82.5 40.5
q-51 0 -81 -42t-30 -109z" />
    <glyph glyph-name="Emacron" unicode="&#x112;" horiz-adv-x="653" 
d="M77 0v688h516v-127h-361v-150h294v-119h-294v-165h372v-127h-527zM181 802v96h309v-96h-309z" />
    <glyph glyph-name="emacron" unicode="&#x113;" horiz-adv-x="585" 
d="M34 241q0 120 72 189.5t191 69.5q118 0 185 -65t67 -184v-36h-364q12 -123 116 -123q76 0 98 56h143q-13 -68 -78.5 -114t-165.5 -46q-126 0 -195 64.5t-69 188.5zM297 399q-86 0 -108 -97h207q-13 97 -99 97zM141 602v96h309v-96h-309z" />
    <glyph glyph-name="Ebreve" unicode="&#x114;" horiz-adv-x="653" 
d="M77 0v688h516v-127h-361v-150h294v-119h-294v-165h372v-127h-527zM337 772q-65 0 -109.5 37t-50.5 119h78q6 -36 27.5 -55.5t54.5 -19.5t55 20t28 55h78q-6 -82 -50.5 -119t-110.5 -37z" />
    <glyph glyph-name="ebreve" unicode="&#x115;" horiz-adv-x="585" 
d="M34 241q0 120 72 189.5t191 69.5q118 0 185 -65t67 -184v-36h-364q12 -123 116 -123q76 0 98 56h143q-13 -68 -78.5 -114t-165.5 -46q-126 0 -195 64.5t-69 188.5zM297 399q-86 0 -108 -97h207q-13 97 -99 97zM297 572q-65 0 -109.5 37t-50.5 119h78q6 -36 27.5 -55.5
t54.5 -19.5t55 20t28 55h78q-6 -82 -50.5 -119t-110.5 -37z" />
    <glyph glyph-name="Edotaccent" unicode="&#x116;" horiz-adv-x="653" 
d="M77 0v688h516v-127h-361v-150h294v-119h-294v-165h372v-127h-527zM271 793v128h132v-128h-132z" />
    <glyph glyph-name="edotaccent" unicode="&#x117;" horiz-adv-x="585" 
d="M34 241q0 120 72 189.5t191 69.5q118 0 185 -65t67 -184v-36h-364q12 -123 116 -123q76 0 98 56h143q-13 -68 -78.5 -114t-165.5 -46q-126 0 -195 64.5t-69 188.5zM297 399q-86 0 -108 -97h207q-13 97 -99 97zM231 593v128h132v-128h-132z" />
    <glyph glyph-name="Eogonek" unicode="&#x118;" horiz-adv-x="653" 
d="M77 0v688h516v-127h-361v-150h294v-119h-294v-165h372v-127h1q-60 -63 -60 -101q0 -40 47 -40h31v-79h-40q-131 0 -131 92q0 34 19.5 62.5t63.5 65.5h-458z" />
    <glyph glyph-name="eogonek" unicode="&#x119;" horiz-adv-x="585" 
d="M218 -121q0 61 83 109h-3q-126 0 -195 64.5t-69 188.5q0 120 72 189.5t191 69.5q118 0 185 -65t67 -184v-36h-364q12 -123 116 -123q76 0 98 56h143q-15 -79 -97 -126q-70 -40 -101.5 -68.5t-31.5 -53.5q0 -41 48 -41h30v-79h-40q-132 0 -132 99zM297 399q-86 0 -108 -97
h207q-13 97 -99 97z" />
    <glyph glyph-name="Ecaron" unicode="&#x11a;" horiz-adv-x="653" 
d="M77 0v688h516v-127h-361v-150h294v-119h-294v-165h372v-127h-527zM284 768l-128 164h117l64 -93l65 93h117l-129 -164h-106z" />
    <glyph glyph-name="ecaron" unicode="&#x11b;" horiz-adv-x="585" 
d="M34 241q0 120 72 189.5t191 69.5q118 0 185 -65t67 -184v-36h-364q12 -123 116 -123q76 0 98 56h143q-13 -68 -78.5 -114t-165.5 -46q-126 0 -195 64.5t-69 188.5zM297 399q-86 0 -108 -97h207q-13 97 -99 97zM244 568l-128 164h117l64 -93l65 93h117l-129 -164h-106z
" />
    <glyph glyph-name="Gcircumflex" unicode="&#x11c;" horiz-adv-x="782" 
d="M613 0l-13 74h-3q-70 -86 -206 -86q-158 0 -252.5 100.5t-94.5 255.5q0 157 98.5 256.5t260.5 99.5q129 0 212 -63.5t99 -160.5h-154q-12 40 -52 66.5t-105 26.5q-90 0 -145 -61.5t-55 -163.5q0 -103 54 -164t145 -61q75 0 124 38.5t49 104.5h-172v113h309v-375h-99z
M222 768l128 164h106l129 -164h-117l-65 93l-64 -93h-117z" />
    <glyph glyph-name="gcircumflex" unicode="&#x11d;" horiz-adv-x="631" 
d="M52 -60h139q2 -31 30 -49.5t75 -18.5q65 0 95 36.5t30 118.5v41h-4q-42 -80 -158 -80q-95 0 -158.5 66t-63.5 186q0 121 65.5 190.5t164.5 69.5q108 0 150 -80h4v68h142v-461q0 -255 -267 -255q-235 0 -244 168zM190 240q0 -66 29.5 -104.5t81.5 -38.5q50 0 80.5 38.5
t32.5 101.5v13q-2 64 -32.5 102.5t-80.5 38.5q-51 0 -81 -42t-30 -109zM120 568l128 164h106l129 -164h-117l-65 93l-64 -93h-117z" />
    <glyph glyph-name="Gbreve" unicode="&#x11e;" horiz-adv-x="782" 
d="M613 0l-13 74h-3q-70 -86 -206 -86q-158 0 -252.5 100.5t-94.5 255.5q0 157 98.5 256.5t260.5 99.5q129 0 212 -63.5t99 -160.5h-154q-12 40 -52 66.5t-105 26.5q-90 0 -145 -61.5t-55 -163.5q0 -103 54 -164t145 -61q75 0 124 38.5t49 104.5h-172v113h309v-375h-99z
M403 772q-65 0 -109.5 37t-50.5 119h78q6 -36 27.5 -55.5t54.5 -19.5t55 20t28 55h78q-6 -82 -50.5 -119t-110.5 -37z" />
    <glyph glyph-name="gbreve" unicode="&#x11f;" horiz-adv-x="631" 
d="M52 -60h139q2 -31 30 -49.5t75 -18.5q65 0 95 36.5t30 118.5v41h-4q-42 -80 -158 -80q-95 0 -158.5 66t-63.5 186q0 121 65.5 190.5t164.5 69.5q108 0 150 -80h4v68h142v-461q0 -255 -267 -255q-235 0 -244 168zM190 240q0 -66 29.5 -104.5t81.5 -38.5q50 0 80.5 38.5
t32.5 101.5v13q-2 64 -32.5 102.5t-80.5 38.5q-51 0 -81 -42t-30 -109zM301 572q-65 0 -109.5 37t-50.5 119h78q6 -36 27.5 -55.5t54.5 -19.5t55 20t28 55h78q-6 -82 -50.5 -119t-110.5 -37z" />
    <glyph glyph-name="Gdotaccent" unicode="&#x120;" horiz-adv-x="782" 
d="M613 0l-13 74h-3q-70 -86 -206 -86q-158 0 -252.5 100.5t-94.5 255.5q0 157 98.5 256.5t260.5 99.5q129 0 212 -63.5t99 -160.5h-154q-12 40 -52 66.5t-105 26.5q-90 0 -145 -61.5t-55 -163.5q0 -103 54 -164t145 -61q75 0 124 38.5t49 104.5h-172v113h309v-375h-99z
M337 793v128h132v-128h-132z" />
    <glyph glyph-name="gdotaccent" unicode="&#x121;" horiz-adv-x="631" 
d="M52 -60h139q2 -31 30 -49.5t75 -18.5q65 0 95 36.5t30 118.5v41h-4q-42 -80 -158 -80q-95 0 -158.5 66t-63.5 186q0 121 65.5 190.5t164.5 69.5q108 0 150 -80h4v68h142v-461q0 -255 -267 -255q-235 0 -244 168zM190 240q0 -66 29.5 -104.5t81.5 -38.5q50 0 80.5 38.5
t32.5 101.5v13q-2 64 -32.5 102.5t-80.5 38.5q-51 0 -81 -42t-30 -109zM235 593v128h132v-128h-132z" />
    <glyph glyph-name="Gcommaaccent" unicode="&#x122;" horiz-adv-x="782" 
d="M613 0l-13 74h-3q-70 -86 -206 -86q-158 0 -252.5 100.5t-94.5 255.5q0 157 98.5 256.5t260.5 99.5q129 0 212 -63.5t99 -160.5h-154q-12 40 -52 66.5t-105 26.5q-90 0 -145 -61.5t-55 -163.5q0 -103 54 -164t145 -61q75 0 124 38.5t49 104.5h-172v113h309v-375h-99z
M325 -57h132v-93l-55 -112h-60l39 98h-56v107z" />
    <glyph glyph-name="gcommaaccent" unicode="&#x123;" horiz-adv-x="631" 
d="M52 -60h139q2 -31 30 -49.5t75 -18.5q65 0 95 36.5t30 118.5v41h-4q-42 -80 -158 -80q-95 0 -158.5 66t-63.5 186q0 121 65.5 190.5t164.5 69.5q108 0 150 -80h4v68h142v-461q0 -255 -267 -255q-235 0 -244 168zM190 240q0 -66 29.5 -104.5t81.5 -38.5q50 0 80.5 38.5
t32.5 101.5v13q-2 64 -32.5 102.5t-80.5 38.5q-51 0 -81 -42t-30 -109zM235 568v93l56 112h59l-38 -98h55v-107h-132z" />
    <glyph glyph-name="Hcircumflex" unicode="&#x124;" horiz-adv-x="767" 
d="M77 0v688h155v-275h302v275h156v-688h-156v283h-302v-283h-155zM202 768l128 164h106l129 -164h-117l-65 93l-64 -93h-117z" />
    <glyph glyph-name="hcircumflex" unicode="&#x125;" horiz-adv-x="616" 
d="M68 0v732h148v-149q0 -98 -6 -164h4q43 81 149 81q84 0 137.5 -49t53.5 -156v-295h-149v278q0 110 -87 110q-45 0 -73.5 -34.5t-28.5 -93.5v-260h-148zM-39 804l128 164h106l129 -164h-117l-65 93l-64 -93h-117z" />
    <glyph glyph-name="Hbar" unicode="&#x126;" horiz-adv-x="767" 
d="M3 512v85h74v91h155v-91h302v91h156v-91h74v-85h-74v-512h-156v283h-302v-283h-155v512h-74zM232 512v-99h302v99h-302z" />
    <glyph glyph-name="hbar" unicode="&#x127;" horiz-adv-x="616" 
d="M0 586v74h68v72h148v-72h142v-74h-142v-3q0 -98 -6 -164h4q43 81 149 81q84 0 137.5 -49t53.5 -156v-295h-149v278q0 110 -87 110q-45 0 -73.5 -34.5t-28.5 -94.5v-259h-148v586h-68z" />
    <glyph glyph-name="Itilde" unicode="&#x128;" horiz-adv-x="309" 
d="M77 0v688h155v-688h-155zM-25 782q1 64 28.5 98.5t78.5 34.5q32 0 82.5 -21t68.5 -21q32 0 36 48h67q-1 -64 -28.5 -98.5t-78.5 -34.5q-33 0 -83.5 21t-67.5 21q-34 0 -36 -48h-67z" />
    <glyph glyph-name="itilde" unicode="&#x129;" horiz-adv-x="284" 
d="M68 0v488h148v-488h-148zM-38 582q1 64 28.5 98.5t78.5 34.5q32 0 82.5 -21t68.5 -21q32 0 36 48h67q-1 -64 -28.5 -98.5t-78.5 -34.5q-33 0 -83.5 21t-67.5 21q-34 0 -36 -48h-67z" />
    <glyph glyph-name="Imacron" unicode="&#x12a;" horiz-adv-x="309" 
d="M77 0v688h155v-688h-155zM-1 802v96h309v-96h-309z" />
    <glyph glyph-name="imacron" unicode="&#x12b;" horiz-adv-x="284" 
d="M68 0v488h148v-488h-148zM-14 602v96h309v-96h-309z" />
    <glyph glyph-name="Ibreve" unicode="&#x12c;" horiz-adv-x="309" 
d="M77 0v688h155v-688h-155zM155 772q-65 0 -109.5 37t-50.5 119h78q6 -36 27.5 -55.5t54.5 -19.5t55 20t28 55h78q-6 -82 -50.5 -119t-110.5 -37z" />
    <glyph glyph-name="ibreve" unicode="&#x12d;" horiz-adv-x="284" 
d="M68 0v488h148v-488h-148zM142 572q-65 0 -109.5 37t-50.5 119h78q6 -36 27.5 -55.5t54.5 -19.5t55 20t28 55h78q-6 -82 -50.5 -119t-110.5 -37z" />
    <glyph glyph-name="Iogonek" unicode="&#x12e;" horiz-adv-x="309" 
d="M77 0v688h155v-688h-2q-60 -63 -60 -101q0 -40 47 -40h31v-79h-40q-131 0 -131 92q0 34 19.5 62.5t63.5 65.5h-83z" />
    <glyph glyph-name="iogonek" unicode="&#x12f;" horiz-adv-x="284" 
d="M68 0v488h148v-488h1q-60 -63 -60 -101q0 -40 47 -40h31v-79h-40q-131 0 -131 92q0 34 19.5 62.5t63.5 65.5h-79zM64 602v130h156v-130h-156z" />
    <glyph glyph-name="Idotaccent" unicode="&#x130;" horiz-adv-x="309" 
d="M77 0v688h155v-688h-155zM89 793v128h132v-128h-132z" />
    <glyph glyph-name="dotlessi" unicode="&#x131;" horiz-adv-x="284" 
d="M68 0v488h148v-488h-148z" />
    <glyph glyph-name="IJ" unicode="&#x132;" horiz-adv-x="889" 
d="M77 0v688h155v-688h-155zM347 212v30h152v-31q0 -96 84 -96q83 0 83 104v469h155v-462q0 -238 -238 -238q-110 0 -173 54.5t-63 169.5z" />
    <glyph glyph-name="ij" unicode="&#x133;" 
d="M64 602v130h156v-130h-156zM68 0v488h148v-488h-148zM348 602v130h157v-130h-157zM352 -33v521h149v-526q0 -93 -41.5 -137.5t-147.5 -44.5h-46v112h27q33 0 46 17.5t13 57.5z" />
    <glyph glyph-name="Jcircumflex" unicode="&#x134;" horiz-adv-x="578" 
d="M36 212v30h153v-30q0 -97 83 -97t83 106v467h156v-462q0 -238 -239 -238q-110 0 -173 55t-63 169zM253 768l128 164h106l129 -164h-117l-65 93l-64 -93h-117z" />
    <glyph glyph-name="jcircumflex" unicode="&#x135;" horiz-adv-x="284" 
d="M68 -33v521h148v-526q0 -93 -41 -137.5t-147 -44.5h-46v112h27q33 0 46 17.5t13 57.5zM-39 568l128 164h106l129 -164h-117l-65 93l-64 -93h-117z" />
    <glyph glyph-name="Kcommaaccent" unicode="&#x136;" horiz-adv-x="718" 
d="M77 0v688h155v-305l281 305h180l-277 -294l294 -394h-178l-216 288l-84 -89v-199h-155zM302 -57h132v-93l-55 -112h-60l39 98h-56v107z" />
    <glyph glyph-name="kcommaaccent" unicode="&#x137;" horiz-adv-x="573" 
d="M68 0v732h148v-431l168 187h168l-183 -195l200 -293h-170l-127 189l-56 -60v-129h-148zM235 -57h132v-93l-55 -112h-60l39 98h-56v107z" />
    <glyph glyph-name="Lacute" unicode="&#x139;" horiz-adv-x="596" 
d="M77 0v688h155v-558h325v-130h-480zM103 768l98 164h151l-149 -164h-100z" />
    <glyph glyph-name="lacute" unicode="&#x13a;" horiz-adv-x="284" 
d="M68 0v732h148v-732h-148zM91 804l98 164h151l-149 -164h-100z" />
    <glyph glyph-name="Lcommaaccent" unicode="&#x13b;" horiz-adv-x="596" 
d="M77 0v688h155v-558h325v-130h-480zM249 -57h132v-93l-55 -112h-60l39 98h-56v107z" />
    <glyph glyph-name="lcommaaccent" unicode="&#x13c;" horiz-adv-x="284" 
d="M68 0v732h148v-732h-148zM76 -57h132v-93l-55 -112h-60l39 98h-56v107z" />
    <glyph glyph-name="Lcaron" unicode="&#x13d;" horiz-adv-x="596" 
d="M77 0v688h155v-558h325v-130h-480zM367 472l39 105h-57v111h135v-98l-57 -118h-60z" />
    <glyph glyph-name="lcaron" unicode="&#x13e;" horiz-adv-x="284" 
d="M302 516l39 105h-57v111h135v-98l-57 -118h-60zM68 0v732h148v-732h-148z" />
    <glyph glyph-name="Ldot" unicode="&#x13f;" horiz-adv-x="596" 
d="M77 0v688h155v-558h325v-130h-480zM334 304v130h135v-130h-135z" />
    <glyph glyph-name="ldot" unicode="&#x140;" horiz-adv-x="414" 
d="M68 0v732h148v-732h-148zM283 258v130h135v-130h-135z" />
    <glyph glyph-name="Lslash" unicode="&#x141;" horiz-adv-x="596" 
d="M22 181l-49 69l104 73v365h155v-256l105 74l50 -68l-155 -110v-198h325v-130h-480v219z" />
    <glyph glyph-name="lslash" unicode="&#x142;" horiz-adv-x="284" 
d="M-26 237l94 81v414h148v-285l47 41l48 -59l-95 -83v-346h-148v217l-45 -39z" />
    <glyph glyph-name="Nacute" unicode="&#x143;" horiz-adv-x="775" 
d="M77 0v688h138l327 -424h4l-4 424h156v-688h-135l-331 426h-4l4 -426h-155zM336 768l98 164h151l-149 -164h-100z" />
    <glyph glyph-name="nacute" unicode="&#x144;" horiz-adv-x="616" 
d="M68 0v488h142v-69h4q43 81 149 81q84 0 137.5 -49t53.5 -156v-295h-149v278q0 110 -87 110q-45 0 -73.5 -34.5t-28.5 -95.5v-258h-148zM261 568l98 164h151l-149 -164h-100z" />
    <glyph glyph-name="Ncommaaccent" unicode="&#x145;" horiz-adv-x="775" 
d="M77 0v688h138l327 -424h4l-4 424h156v-688h-135l-331 426h-4l4 -426h-155zM321 -57h132v-93l-55 -112h-60l39 98h-56v107z" />
    <glyph glyph-name="ncommaaccent" unicode="&#x146;" horiz-adv-x="616" 
d="M68 0v488h142v-69h4q43 81 149 81q84 0 137.5 -49t53.5 -156v-295h-149v278q0 110 -87 110q-45 0 -73.5 -34.5t-28.5 -95.5v-258h-148zM242 -57h132v-93l-55 -112h-60l39 98h-56v107z" />
    <glyph glyph-name="Ncaron" unicode="&#x147;" horiz-adv-x="775" 
d="M77 0v688h138l327 -424h4l-4 424h156v-688h-135l-331 426h-4l4 -426h-155zM334 768l-128 164h117l64 -93l65 93h117l-129 -164h-106z" />
    <glyph glyph-name="ncaron" unicode="&#x148;" horiz-adv-x="616" 
d="M68 0v488h142v-69h4q43 81 149 81q84 0 137.5 -49t53.5 -156v-295h-149v278q0 110 -87 110q-45 0 -73.5 -34.5t-28.5 -95.5v-258h-148zM259 568l-128 164h117l64 -93l65 93h117l-129 -164h-106z" />
    <glyph glyph-name="napostrophe" unicode="&#x149;" horiz-adv-x="616" 
d="M68 0v488h142v-69h4q43 81 149 81q84 0 137.5 -49t53.5 -156v-295h-149v278q0 110 -87 110q-45 0 -73.5 -34.5t-28.5 -95.5v-258h-148zM83 568l39 98h-56v107h132v-93l-55 -112h-60z" />
    <glyph glyph-name="Eng" unicode="&#x14a;" horiz-adv-x="775" 
d="M77 0v688h138l330 -424h4l-7 424h156v-703q0 -112 -43.5 -158.5t-153.5 -46.5h-64v117h38q40 0 59 20.5t19 69.5v26l-323 413h-4l6 -426h-155z" />
    <glyph glyph-name="eng" unicode="&#x14b;" horiz-adv-x="616" 
d="M405 -33v311q0 110 -87 110q-45 0 -73.5 -34.5t-28.5 -93.5v-260h-148v488h142v-69h4q43 81 149 81q84 0 137.5 -48.5t53.5 -155.5v-334q0 -93 -41.5 -137.5t-146.5 -44.5h-46v112h26q33 0 46 17.5t13 57.5z" />
    <glyph glyph-name="Omacron" unicode="&#x14c;" horiz-adv-x="804" 
d="M44 344q0 156 98 256t260 100q160 0 259 -100.5t99 -255.5t-99 -255.5t-259 -100.5q-162 0 -260 100t-98 256zM203 344q0 -100 55 -162.5t144 -62.5t144 63.5t55 161.5t-55 161.5t-144 63.5t-144 -62.5t-55 -162.5zM246 802v96h309v-96h-309z" />
    <glyph glyph-name="omacron" unicode="&#x14d;" horiz-adv-x="610" 
d="M37 244q0 119 75 187.5t193 68.5q121 0 194 -67.5t73 -188.5q0 -119 -74.5 -187.5t-192.5 -68.5q-122 0 -195 67.5t-73 188.5zM190 244q0 -68 31 -107.5t84 -39.5t84 39.5t31 107.5q0 69 -31 107.5t-84 38.5t-84 -39t-31 -107zM149 602v96h309v-96h-309z" />
    <glyph glyph-name="Obreve" unicode="&#x14e;" horiz-adv-x="804" 
d="M44 344q0 156 98 256t260 100q160 0 259 -100.5t99 -255.5t-99 -255.5t-259 -100.5q-162 0 -260 100t-98 256zM203 344q0 -100 55 -162.5t144 -62.5t144 63.5t55 161.5t-55 161.5t-144 63.5t-144 -62.5t-55 -162.5zM402 772q-65 0 -109.5 37t-50.5 119h78
q6 -36 27.5 -55.5t54.5 -19.5t55 20t28 55h78q-6 -82 -50.5 -119t-110.5 -37z" />
    <glyph glyph-name="obreve" unicode="&#x14f;" horiz-adv-x="610" 
d="M37 244q0 119 75 187.5t193 68.5q121 0 194 -67.5t73 -188.5q0 -119 -74.5 -187.5t-192.5 -68.5q-122 0 -195 67.5t-73 188.5zM190 244q0 -68 31 -107.5t84 -39.5t84 39.5t31 107.5q0 69 -31 107.5t-84 38.5t-84 -39t-31 -107zM305 572q-65 0 -109.5 37t-50.5 119h78
q6 -36 27.5 -55.5t54.5 -19.5t55 20t28 55h78q-6 -82 -50.5 -119t-110.5 -37z" />
    <glyph glyph-name="Ohungarumlaut" unicode="&#x150;" horiz-adv-x="804" 
d="M44 344q0 156 98 256t260 100q160 0 259 -100.5t99 -255.5t-99 -255.5t-259 -100.5q-162 0 -260 100t-98 256zM203 344q0 -100 55 -162.5t144 -62.5t144 63.5t55 161.5t-55 161.5t-144 63.5t-144 -62.5t-55 -162.5zM456 768l98 164h151l-150 -164h-99zM248 768l98 164
h151l-149 -164h-100z" />
    <glyph glyph-name="ohungarumlaut" unicode="&#x151;" horiz-adv-x="610" 
d="M37 244q0 119 75 187.5t193 68.5q121 0 194 -67.5t73 -188.5q0 -119 -74.5 -187.5t-192.5 -68.5q-122 0 -195 67.5t-73 188.5zM190 244q0 -68 31 -107.5t84 -39.5t84 39.5t31 107.5q0 69 -31 107.5t-84 38.5t-84 -39t-31 -107zM359 568l98 164h151l-150 -164h-99z
M151 568l98 164h151l-149 -164h-100z" />
    <glyph glyph-name="OE" unicode="&#x152;" horiz-adv-x="1098" 
d="M412 0q-177 0 -272.5 95t-95.5 249t95.5 249t272.5 95h626v-127h-369v-150h302v-119h-302v-165h380v-127h-637zM203 344q0 -97 54 -157t169 -60h88v434h-88q-115 0 -169 -60t-54 -157z" />
    <glyph glyph-name="oe" unicode="&#x153;" horiz-adv-x="960" 
d="M34 244q0 116 74 186t194 70q124 0 188 -77q64 77 183 77q117 0 184 -65t67 -184v-36h-363q12 -123 116 -123q75 0 97 56h144q-13 -68 -78.5 -114t-165.5 -46q-124 0 -186 75q-64 -75 -186 -75t-195 69.5t-73 186.5zM187 244q0 -67 31 -107t84 -40q54 0 84.5 40t30.5 107
q0 68 -30.5 107.5t-84.5 39.5q-53 0 -84 -40t-31 -107zM673 399q-88 0 -108 -100h208q-13 100 -100 100z" />
    <glyph glyph-name="Racute" unicode="&#x154;" horiz-adv-x="715" 
d="M77 0v688h312q127 0 194.5 -58t67.5 -161q0 -73 -36.5 -128t-105.5 -81l169 -260h-169l-152 240h-125v-240h-155zM380 567h-148v-208h148q54 0 83.5 29.5t29.5 78.5q0 46 -30 73t-83 27zM283 768l98 164h151l-149 -164h-100z" />
    <glyph glyph-name="racute" unicode="&#x155;" horiz-adv-x="412" 
d="M68 0v488h142v-71h4q40 83 128 83q39 0 68 -20l-26 -127q-32 16 -60 16q-53 0 -80.5 -39.5t-27.5 -104.5v-225h-148zM186 568l98 164h151l-149 -164h-100z" />
    <glyph glyph-name="Rcommaaccent" unicode="&#x156;" horiz-adv-x="715" 
d="M77 0v688h312q127 0 194.5 -58t67.5 -161q0 -73 -36.5 -128t-105.5 -81l169 -260h-169l-152 240h-125v-240h-155zM380 567h-148v-208h148q54 0 83.5 29.5t29.5 78.5q0 46 -30 73t-83 27zM289 -57h132v-93l-55 -112h-60l39 98h-56v107z" />
    <glyph glyph-name="rcommaaccent" unicode="&#x157;" horiz-adv-x="412" 
d="M68 0v488h142v-71h4q40 83 128 83q39 0 68 -20l-26 -127q-32 16 -60 16q-53 0 -80.5 -39.5t-27.5 -104.5v-225h-148zM73 -57h132v-93l-55 -112h-60l39 98h-56v107z" />
    <glyph glyph-name="Rcaron" unicode="&#x158;" horiz-adv-x="715" 
d="M77 0v688h312q127 0 194.5 -58t67.5 -161q0 -73 -36.5 -128t-105.5 -81l169 -260h-169l-152 240h-125v-240h-155zM380 567h-148v-208h148q54 0 83.5 29.5t29.5 78.5q0 46 -30 73t-83 27zM281 768l-128 164h117l64 -93l65 93h117l-129 -164h-106z" />
    <glyph glyph-name="rcaron" unicode="&#x159;" horiz-adv-x="412" 
d="M68 0v488h142v-71h4q40 83 128 83q39 0 68 -20l-26 -127q-32 16 -60 16q-53 0 -80.5 -39.5t-27.5 -104.5v-225h-148zM184 568l-128 164h117l64 -93l65 93h117l-129 -164h-106z" />
    <glyph glyph-name="Sacute" unicode="&#x15a;" horiz-adv-x="678" 
d="M48 196h150q0 -46 37 -71t99 -25q65 0 102.5 24.5t37.5 67.5q0 29 -23 47t-59.5 27t-81 16t-88.5 19t-80.5 32t-59.5 59.5t-23 96.5q0 92 75.5 151.5t202.5 59.5q125 0 198 -54.5t73 -144.5h-150q0 41 -33.5 64t-87.5 23q-56 0 -90.5 -22t-34.5 -61q0 -29 23 -47.5
t60 -27t82 -15.5t89.5 -19t81.5 -32t60 -59t23 -95q0 -101 -78 -161.5t-219 -60.5q-139 0 -212.5 54.5t-73.5 153.5zM286 768l98 164h151l-149 -164h-100z" />
    <glyph glyph-name="sacute" unicode="&#x15b;" horiz-adv-x="544" 
d="M32 140h139q0 -59 94 -59q95 0 95 52q0 24 -16.5 34.5t-53.5 15.5l-87 14q-76 11 -116.5 43.5t-40.5 96.5q0 78 62.5 120.5t163.5 42.5t161.5 -38t60.5 -110h-136q0 55 -88 55q-37 0 -59.5 -13.5t-22.5 -34.5t16 -32t57 -18l87 -13q73 -12 117 -43.5t44 -97.5
q0 -83 -66.5 -125t-177.5 -42q-107 0 -170 38t-63 114zM221 568l98 164h151l-149 -164h-100z" />
    <glyph glyph-name="Scircumflex" unicode="&#x15c;" horiz-adv-x="678" 
d="M48 196h150q0 -46 37 -71t99 -25q65 0 102.5 24.5t37.5 67.5q0 29 -23 47t-59.5 27t-81 16t-88.5 19t-80.5 32t-59.5 59.5t-23 96.5q0 92 75.5 151.5t202.5 59.5q125 0 198 -54.5t73 -144.5h-150q0 41 -33.5 64t-87.5 23q-56 0 -90.5 -22t-34.5 -61q0 -29 23 -47.5
t60 -27t82 -15.5t89.5 -19t81.5 -32t60 -59t23 -95q0 -101 -78 -161.5t-219 -60.5q-139 0 -212.5 54.5t-73.5 153.5zM156 768l128 164h106l129 -164h-117l-65 93l-64 -93h-117z" />
    <glyph glyph-name="scircumflex" unicode="&#x15d;" horiz-adv-x="544" 
d="M32 140h139q0 -59 94 -59q95 0 95 52q0 24 -16.5 34.5t-53.5 15.5l-87 14q-76 11 -116.5 43.5t-40.5 96.5q0 78 62.5 120.5t163.5 42.5t161.5 -38t60.5 -110h-136q0 55 -88 55q-37 0 -59.5 -13.5t-22.5 -34.5t16 -32t57 -18l87 -13q73 -12 117 -43.5t44 -97.5
q0 -83 -66.5 -125t-177.5 -42q-107 0 -170 38t-63 114zM91 568l128 164h106l129 -164h-117l-65 93l-64 -93h-117z" />
    <glyph glyph-name="Scedilla" unicode="&#x15e;" horiz-adv-x="678" 
d="M279 -90l29 79q-127 5 -193.5 59t-66.5 148h150q0 -46 37 -71t99 -25q65 0 102.5 24.5t37.5 67.5q0 29 -23 47t-59.5 27t-81 16t-88.5 19t-80.5 32t-59.5 59.5t-23 96.5q0 92 75.5 151.5t202.5 59.5q125 0 198 -54.5t73 -144.5h-150q0 41 -33.5 64t-87.5 23
q-56 0 -90.5 -22t-34.5 -61q0 -29 23 -47.5t60 -27t82 -15.5t89.5 -19t81.5 -32t60 -59t23 -95q0 -96 -71.5 -156t-200.5 -65v-28q44 -1 68 -25t24 -60q0 -42 -30 -69t-89 -27h-73v64h55q44 0 44 35q0 31 -44 31h-35z" />
    <glyph glyph-name="scedilla" unicode="&#x15f;" horiz-adv-x="544" 
d="M210 -90l30 79q-97 5 -152.5 42t-55.5 109h139q0 -59 94 -59q95 0 95 52q0 24 -16.5 34.5t-53.5 15.5l-87 14q-76 11 -116.5 43.5t-40.5 96.5q0 78 62.5 120.5t163.5 42.5t161.5 -38t60.5 -110h-136q0 55 -88 55q-37 0 -59.5 -13.5t-22.5 -34.5t16 -32t57 -18l87 -13
q73 -12 117 -43.5t44 -97.5q0 -78 -59 -119.5t-160 -46.5v-28q44 -1 68 -25t24 -60q0 -42 -30 -69t-89 -27h-73v64h55q44 0 44 35q0 31 -44 31h-35z" />
    <glyph glyph-name="Scaron" unicode="&#x160;" horiz-adv-x="678" 
d="M48 196h150q0 -46 37 -71t99 -25q65 0 102.5 24.5t37.5 67.5q0 29 -23 47t-59.5 27t-81 16t-88.5 19t-80.5 32t-59.5 59.5t-23 96.5q0 92 75.5 151.5t202.5 59.5q125 0 198 -54.5t73 -144.5h-150q0 41 -33.5 64t-87.5 23q-56 0 -90.5 -22t-34.5 -61q0 -29 23 -47.5
t60 -27t82 -15.5t89.5 -19t81.5 -32t60 -59t23 -95q0 -101 -78 -161.5t-219 -60.5q-139 0 -212.5 54.5t-73.5 153.5zM284 768l-128 164h117l64 -93l65 93h117l-129 -164h-106z" />
    <glyph glyph-name="scaron" unicode="&#x161;" horiz-adv-x="544" 
d="M32 140h139q0 -59 94 -59q95 0 95 52q0 24 -16.5 34.5t-53.5 15.5l-87 14q-76 11 -116.5 43.5t-40.5 96.5q0 78 62.5 120.5t163.5 42.5t161.5 -38t60.5 -110h-136q0 55 -88 55q-37 0 -59.5 -13.5t-22.5 -34.5t16 -32t57 -18l87 -13q73 -12 117 -43.5t44 -97.5
q0 -83 -66.5 -125t-177.5 -42q-107 0 -170 38t-63 114zM219 568l-128 164h117l64 -93l65 93h117l-129 -164h-106z" />
    <glyph glyph-name="Tcommaaccent" unicode="&#x162;" horiz-adv-x="629" 
d="M260 -90l34 90h-57v559h-229v129h613v-129h-229v-559h-52v-39q44 -1 68 -25t24 -60q0 -42 -30 -69t-89 -27h-73v64h55q44 0 44 35q0 31 -44 31h-35z" />
    <glyph glyph-name="tcommaaccent" unicode="&#x163;" horiz-adv-x="378" 
d="M163 -90l31 97q-59 13 -82.5 52.5t-23.5 120.5v200h-92v108h92v148h149v-148h117v-108h-117v-191q0 -40 14 -56t54 -16h49v-117h-81q-21 0 -30 1v-40q44 -1 68 -25t24 -60q0 -42 -30 -69t-89 -27h-73v64h55q44 0 44 35q0 31 -44 31h-35z" />
    <glyph glyph-name="Tcaron" unicode="&#x164;" horiz-adv-x="629" 
d="M8 559v129h613v-129h-229v-559h-155v559h-229zM261 768l-128 164h117l64 -93l65 93h117l-129 -164h-106z" />
    <glyph glyph-name="tcaron" unicode="&#x165;" horiz-adv-x="378" 
d="M88 180v200h-92v108h92v148h149v-148h117v-108h-117v-191q0 -40 14 -56t54 -16h49v-117h-81q-106 0 -145.5 39t-39.5 141zM290 544l39 105h-57v111h135v-98l-57 -118h-60z" />
    <glyph glyph-name="Tbar" unicode="&#x166;" horiz-adv-x="629" 
d="M8 559v129h613v-129h-229v-220h171v-83h-171v-256h-155v256h-170v83h170v220h-229z" />
    <glyph glyph-name="tbar" unicode="&#x167;" horiz-adv-x="378" 
d="M-4 213v74h92v93h-92v108h92v148h149v-148h117v-108h-117v-93h117v-74h-117v-29q0 -37 14.5 -52t53.5 -15h49v-117h-83q-100 0 -141.5 36.5t-41.5 126.5v50h-92z" />
    <glyph glyph-name="Utilde" unicode="&#x168;" horiz-adv-x="746" 
d="M66 278v410h156v-408q0 -78 38 -119.5t113 -41.5t113 41.5t38 119.5v408h155v-410q0 -290 -306 -290q-307 0 -307 290zM193 782q1 64 28.5 98.5t78.5 34.5q32 0 82.5 -21t68.5 -21q32 0 36 48h67q-1 -64 -28.5 -98.5t-78.5 -34.5q-33 0 -83.5 21t-67.5 21q-34 0 -36 -48
h-67z" />
    <glyph glyph-name="utilde" unicode="&#x169;" horiz-adv-x="612" 
d="M60 193v295h148v-278q0 -110 88 -110q45 0 72.5 35t27.5 95v258h149v-488h-142v69h-4q-43 -81 -148 -81q-85 0 -138 49t-53 156zM127 582q1 64 28.5 98.5t78.5 34.5q32 0 82.5 -21t68.5 -21q32 0 36 48h67q-1 -64 -28.5 -98.5t-78.5 -34.5q-33 0 -83.5 21t-67.5 21
q-34 0 -36 -48h-67z" />
    <glyph glyph-name="Umacron" unicode="&#x16a;" horiz-adv-x="746" 
d="M66 278v410h156v-408q0 -78 38 -119.5t113 -41.5t113 41.5t38 119.5v408h155v-410q0 -290 -306 -290q-307 0 -307 290zM217 802v96h309v-96h-309z" />
    <glyph glyph-name="umacron" unicode="&#x16b;" horiz-adv-x="612" 
d="M60 193v295h148v-278q0 -110 88 -110q45 0 72.5 35t27.5 95v258h149v-488h-142v69h-4q-43 -81 -148 -81q-85 0 -138 49t-53 156zM151 602v96h309v-96h-309z" />
    <glyph glyph-name="Ubreve" unicode="&#x16c;" horiz-adv-x="746" 
d="M66 278v410h156v-408q0 -78 38 -119.5t113 -41.5t113 41.5t38 119.5v408h155v-410q0 -290 -306 -290q-307 0 -307 290zM373 772q-65 0 -109.5 37t-50.5 119h78q6 -36 27.5 -55.5t54.5 -19.5t55 20t28 55h78q-6 -82 -50.5 -119t-110.5 -37z" />
    <glyph glyph-name="ubreve" unicode="&#x16d;" horiz-adv-x="612" 
d="M60 193v295h148v-278q0 -110 88 -110q45 0 72.5 35t27.5 95v258h149v-488h-142v69h-4q-43 -81 -148 -81q-85 0 -138 49t-53 156zM307 572q-65 0 -109.5 37t-50.5 119h78q6 -36 27.5 -55.5t54.5 -19.5t55 20t28 55h78q-6 -82 -50.5 -119t-110.5 -37z" />
    <glyph glyph-name="Uring" unicode="&#x16e;" horiz-adv-x="746" 
d="M66 278v410h156v-408q0 -78 38 -119.5t113 -41.5t113 41.5t38 119.5v408h155v-410q0 -290 -306 -290q-307 0 -307 290zM373 750q-48 0 -79.5 30t-31.5 74q0 46 32 75.5t79 29.5t79 -29.5t32 -75.5q0 -44 -31.5 -74t-79.5 -30zM373 808q19 0 33 13t14 33t-14 33.5
t-33 13.5t-32.5 -13t-13.5 -34q0 -20 13.5 -33t32.5 -13z" />
    <glyph glyph-name="uring" unicode="&#x16f;" horiz-adv-x="612" 
d="M60 193v295h148v-278q0 -110 88 -110q45 0 72.5 35t27.5 95v258h149v-488h-142v69h-4q-43 -81 -148 -81q-85 0 -138 49t-53 156zM307 550q-48 0 -79.5 30t-31.5 74q0 46 32 75.5t79 29.5t79 -29.5t32 -75.5q0 -44 -31.5 -74t-79.5 -30zM307 608q19 0 33 13t14 33
t-14 33.5t-33 13.5t-32.5 -13t-13.5 -34q0 -20 13.5 -33t32.5 -13z" />
    <glyph glyph-name="Uhungarumlaut" unicode="&#x170;" horiz-adv-x="746" 
d="M66 278v410h156v-408q0 -78 38 -119.5t113 -41.5t113 41.5t38 119.5v408h155v-410q0 -290 -306 -290q-307 0 -307 290zM427 768l98 164h151l-150 -164h-99zM219 768l98 164h151l-149 -164h-100z" />
    <glyph glyph-name="uhungarumlaut" unicode="&#x171;" horiz-adv-x="612" 
d="M60 193v295h148v-278q0 -110 88 -110q45 0 72.5 35t27.5 95v258h149v-488h-142v69h-4q-43 -81 -148 -81q-85 0 -138 49t-53 156zM361 568l98 164h151l-150 -164h-99zM153 568l98 164h151l-149 -164h-100z" />
    <glyph glyph-name="Uogonek" unicode="&#x172;" horiz-adv-x="746" 
d="M322 -121q0 61 78 110q-9 -1 -27 -1q-307 0 -307 290v410h156v-408q0 -78 38 -119.5t113 -41.5t113 41.5t38 119.5v408h155v-410q0 -189 -131 -256q-132 -67 -132 -122q0 -41 48 -41h30v-79h-40q-132 0 -132 99z" />
    <glyph glyph-name="uogonek" unicode="&#x173;" horiz-adv-x="612" 
d="M392 -128q0 34 19.5 62.5t63.5 65.5h-72v69h-4q-43 -81 -148 -81q-85 0 -138 49t-53 156v295h148v-278q0 -110 88 -110q45 0 72.5 35t27.5 95v258h149v-488q-60 -63 -60 -101q0 -40 47 -40h31v-79h-40q-131 0 -131 92z" />
    <glyph glyph-name="Wcircumflex" unicode="&#x174;" horiz-adv-x="999" 
d="M182 0l-173 688h168l112 -520h4l131 520h154l137 -520h4l107 520h164l-171 -688h-191l-127 485h-4l-124 -485h-191zM319 768l128 164h106l129 -164h-117l-65 93l-64 -93h-117z" />
    <glyph glyph-name="wcircumflex" unicode="&#x175;" horiz-adv-x="801" 
d="M150 0l-143 488h147l83 -344h4l93 344h137l93 -344h4l83 344h144l-143 -488h-163l-86 334h-4l-86 -334h-163zM220 568l128 164h106l129 -164h-117l-65 93l-64 -93h-117z" />
    <glyph glyph-name="Ycircumflex" unicode="&#x176;" horiz-adv-x="694" 
d="M267 0v261l-258 427h176l161 -283h4l169 283h165l-261 -426v-262h-156zM166 768l128 164h106l129 -164h-117l-65 93l-64 -93h-117z" />
    <glyph glyph-name="ycircumflex" unicode="&#x177;" horiz-adv-x="543" 
d="M182 0l-178 488h162l109 -345h4l108 345h152l-189 -541q-60 -175 -209 -175h-65v115h30q88 0 114 86l8 27h-46zM90 568l128 164h106l129 -164h-117l-65 93l-64 -93h-117z" />
    <glyph glyph-name="Ydieresis" unicode="&#x178;" horiz-adv-x="694" 
d="M267 0v261l-258 427h176l161 -283h4l169 283h165l-261 -426v-262h-156zM395 793v128h132v-128h-132zM167 793v128h133v-128h-133z" />
    <glyph glyph-name="Zacute" unicode="&#x179;" horiz-adv-x="625" 
d="M45 562v126h547v-88l-352 -474h351v-126h-558v88l354 474h-342zM262 768l98 164h151l-149 -164h-100z" />
    <glyph glyph-name="zacute" unicode="&#x17a;" horiz-adv-x="496" 
d="M32 377v111h428v-82l-238 -295h242v-111h-431v80l241 297h-242zM197 568l98 164h151l-149 -164h-100z" />
    <glyph glyph-name="Zdotaccent" unicode="&#x17b;" horiz-adv-x="625" 
d="M45 562v126h547v-88l-352 -474h351v-126h-558v88l354 474h-342zM247 793v128h132v-128h-132z" />
    <glyph glyph-name="zdotaccent" unicode="&#x17c;" horiz-adv-x="496" 
d="M32 377v111h428v-82l-238 -295h242v-111h-431v80l241 297h-242zM182 593v128h132v-128h-132z" />
    <glyph glyph-name="Zcaron" unicode="&#x17d;" horiz-adv-x="625" 
d="M45 562v126h547v-88l-352 -474h351v-126h-558v88l354 474h-342zM260 768l-128 164h117l64 -93l65 93h117l-129 -164h-106z" />
    <glyph glyph-name="zcaron" unicode="&#x17e;" horiz-adv-x="496" 
d="M32 377v111h428v-82l-238 -295h242v-111h-431v80l241 297h-242zM195 568l-128 164h117l64 -93l65 93h117l-129 -164h-106z" />
    <glyph glyph-name="longs" unicode="&#x17f;" horiz-adv-x="358" 
d="M93 0v380h-92v108h92v58q0 98 44.5 142t147.5 44h82v-112h-47q-46 0 -62 -16.5t-16 -61.5v-542h-149z" />
    <glyph glyph-name="florin" unicode="&#x192;" 
d="M57 270v89h126l16 152q11 101 61 145t138 44q83 0 125.5 -43.5t35.5 -129.5l-3 -36h-124l2 25q2 42 -6 60.5t-31 18.5t-33.5 -19.5t-15.5 -64.5l-17 -152h136v-89h-145l-29 -273q-10 -100 -60 -144.5t-138 -44.5q-83 0 -125 43t-36 130l2 36h124l-1 -25q-2 -42 6 -60.5
t31 -18.5t33.5 19.5t15.5 64.5l28 273h-116z" />
    <glyph glyph-name="AEacute" unicode="&#x1fc;" horiz-adv-x="1144" 
d="M1 0l499 688h584v-127h-364v-150h296v-119h-296v-165h375v-127h-530v152h-280l-107 -152h-177zM561 541l-192 -271h196v271h-4zM592 768l98 164h151l-149 -164h-100z" />
    <glyph glyph-name="aeacute" unicode="&#x1fd;" horiz-adv-x="880" 
d="M57 328q6 88 69 130t157 42q116 0 165 -52q61 52 154 52q111 0 176.5 -65.5t65.5 -183.5v-36h-344q10 -123 106 -123q66 0 88 56h143q-12 -68 -76 -114t-158 -46q-128 0 -190 90q-56 -90 -190 -90q-91 0 -137 37.5t-46 101.5q0 123 168 148l93 14q38 5 49.5 13.5
t11.5 28.5q0 29 -20 49t-59 20q-81 0 -87 -72h-139zM362 192v42q-13 -18 -46 -23l-67 -10q-63 -10 -63 -58q0 -55 67 -55q44 0 76.5 25.5t32.5 78.5zM602 399q-82 0 -99 -100h190q-8 100 -91 100zM382 568l98 164h151l-149 -164h-100z" />
    <glyph glyph-name="Oslashacute" unicode="&#x1fe;" horiz-adv-x="804" 
d="M59 -12l83 100q-98 100 -98 256t98.5 256t259.5 100q114 0 202 -55l46 55h95l-84 -101q99 -101 99 -255q0 -155 -99.5 -255.5t-258.5 -100.5q-117 0 -203 54l-45 -54h-95zM203 344q0 -80 36 -138l274 329q-50 34 -111 34q-89 0 -144 -62.5t-55 -162.5zM601 344
q0 80 -37 137l-274 -329q47 -33 112 -33q89 0 144 63.5t55 161.5zM351 768l98 164h151l-149 -164h-100z" />
    <glyph glyph-name="oslashacute" unicode="&#x1ff;" horiz-adv-x="604" 
d="M54 -12l55 66q-75 69 -75 190q0 116 75 186t193 70q87 0 149 -35l30 35h80l-60 -73q69 -69 69 -183q0 -116 -74.5 -186t-193.5 -70q-80 0 -142 31l-26 -31h-80zM187 244q0 -45 14 -79l169 202q-29 23 -68 23q-53 0 -84 -39.5t-31 -106.5zM417 244q0 39 -11 70l-166 -199
q26 -18 62 -18q52 0 83.5 40t31.5 107zM251 568l98 164h151l-149 -164h-100z" />
    <glyph glyph-name="Scommaaccent" unicode="&#x218;" horiz-adv-x="678" 
d="M48 196h150q0 -46 37 -71t99 -25q65 0 102.5 24.5t37.5 67.5q0 29 -23 47t-59.5 27t-81 16t-88.5 19t-80.5 32t-59.5 59.5t-23 96.5q0 92 75.5 151.5t202.5 59.5q125 0 198 -54.5t73 -144.5h-150q0 41 -33.5 64t-87.5 23q-56 0 -90.5 -22t-34.5 -61q0 -29 23 -47.5
t60 -27t82 -15.5t89.5 -19t81.5 -32t60 -59t23 -95q0 -101 -78 -161.5t-219 -60.5q-139 0 -212.5 54.5t-73.5 153.5zM268 -57h132v-93l-55 -112h-60l39 98h-56v107z" />
    <glyph glyph-name="scommaaccent" unicode="&#x219;" horiz-adv-x="544" 
d="M32 140h139q0 -59 94 -59q95 0 95 52q0 24 -16.5 34.5t-53.5 15.5l-87 14q-76 11 -116.5 43.5t-40.5 96.5q0 78 62.5 120.5t163.5 42.5t161.5 -38t60.5 -110h-136q0 55 -88 55q-37 0 -59.5 -13.5t-22.5 -34.5t16 -32t57 -18l87 -13q73 -12 117 -43.5t44 -97.5
q0 -83 -66.5 -125t-177.5 -42q-107 0 -170 38t-63 114zM199 -57h132v-93l-55 -112h-60l39 98h-56v107z" />
    <glyph glyph-name="uni021A" unicode="&#x21a;" horiz-adv-x="629" 
d="M8 559v129h613v-129h-229v-559h-155v559h-229zM249 -57h132v-93l-55 -112h-60l39 98h-56v107z" />
    <glyph glyph-name="uni021B" unicode="&#x21b;" horiz-adv-x="378" 
d="M88 180v200h-92v108h92v148h149v-148h117v-108h-117v-191q0 -40 14 -56t54 -16h49v-117h-81q-106 0 -145.5 39t-39.5 141zM155 -57h132v-93l-55 -112h-60l39 98h-56v107z" />
    <glyph glyph-name="circumflex" unicode="&#x2c6;" horiz-adv-x="599" 
d="M118 568l128 164h106l129 -164h-117l-65 93l-64 -93h-117z" />
    <glyph glyph-name="caron" unicode="&#x2c7;" horiz-adv-x="599" 
d="M246 568l-128 164h117l64 -93l65 93h117l-129 -164h-106z" />
    <glyph glyph-name="uni02C9" unicode="&#x2c9;" horiz-adv-x="599" 
d="M143 602v96h309v-96h-309z" />
    <glyph glyph-name="breve" unicode="&#x2d8;" horiz-adv-x="599" 
d="M299 572q-65 0 -109.5 37t-50.5 119h78q6 -36 27.5 -55.5t54.5 -19.5t55 20t28 55h78q-6 -82 -50.5 -119t-110.5 -37z" />
    <glyph glyph-name="dotaccent" unicode="&#x2d9;" horiz-adv-x="599" 
d="M233 593v128h132v-128h-132z" />
    <glyph glyph-name="ring" unicode="&#x2da;" horiz-adv-x="599" 
d="M299 550q-48 0 -79.5 30t-31.5 74q0 46 32 75.5t79 29.5t79 -29.5t32 -75.5q0 -44 -31.5 -74t-79.5 -30zM299 608q19 0 33 13t14 33t-14 33.5t-33 13.5t-32.5 -13t-13.5 -34q0 -20 13.5 -33t32.5 -13z" />
    <glyph glyph-name="ogonek" unicode="&#x2db;" horiz-adv-x="599" 
d="M221 -128q0 34 19.5 62.5t63.5 65.5h70q-60 -63 -60 -101q0 -40 47 -40h31v-79h-40q-131 0 -131 92z" />
    <glyph glyph-name="tilde" unicode="&#x2dc;" horiz-adv-x="599" 
d="M119 582q1 64 28.5 98.5t78.5 34.5q32 0 82.5 -21t68.5 -21q32 0 36 48h67q-1 -64 -28.5 -98.5t-78.5 -34.5q-33 0 -83.5 21t-67.5 21q-34 0 -36 -48h-67z" />
    <glyph glyph-name="hungarumlaut" unicode="&#x2dd;" horiz-adv-x="599" 
d="M353 568l98 164h151l-150 -164h-99zM145 568l98 164h151l-149 -164h-100z" />
    <glyph glyph-name="uni0394" unicode="&#x394;" horiz-adv-x="669" 
d="M6 0l251 688h155l251 -688h-657zM333 521h-4l-140 -404h283z" />
    <glyph glyph-name="uni03A9" unicode="&#x3a9;" horiz-adv-x="696" 
d="M397 0v243q50 14 85 60t35 113q0 79 -47.5 125.5t-121.5 46.5t-121.5 -46.5t-47.5 -125.5q0 -67 35 -113t85 -60v-243h-250v106h133v74q-71 33 -111 95.5t-40 143.5q0 120 87 200.5t230 80.5t230 -80.5t87 -200.5q0 -81 -40.5 -143.5t-110.5 -95.5v-74h133v-106h-250z
" />
    <glyph glyph-name="uni03BC" unicode="&#x3bc;" horiz-adv-x="609" 
d="M405 0v69h-4q-41 -81 -145 -81q-28 0 -57 13q12 -95 12 -167v-54h-149v708h149v-278q0 -110 87 -110q45 0 72.5 35t27.5 95v258h149v-488h-142z" />
    <glyph glyph-name="pi" unicode="&#x3c0;" horiz-adv-x="621" 
d="M70 0v488h481v-488h-149v376h-183v-376h-149z" />
    <glyph glyph-name="Wgrave" unicode="&#x1e80;" horiz-adv-x="999" 
d="M182 0l-173 688h168l112 -520h4l131 520h154l137 -520h4l107 520h164l-171 -688h-191l-127 485h-4l-124 -485h-191zM452 768l-150 164h151l99 -164h-100z" />
    <glyph glyph-name="wgrave" unicode="&#x1e81;" horiz-adv-x="801" 
d="M150 0l-143 488h147l83 -344h4l93 344h137l93 -344h4l83 344h144l-143 -488h-163l-86 334h-4l-86 -334h-163zM353 568l-150 164h151l99 -164h-100z" />
    <glyph glyph-name="Wacute" unicode="&#x1e82;" horiz-adv-x="999" 
d="M182 0l-173 688h168l112 -520h4l131 520h154l137 -520h4l107 520h164l-171 -688h-191l-127 485h-4l-124 -485h-191zM449 768l98 164h151l-149 -164h-100z" />
    <glyph glyph-name="wacute" unicode="&#x1e83;" horiz-adv-x="801" 
d="M150 0l-143 488h147l83 -344h4l93 344h137l93 -344h4l83 344h144l-143 -488h-163l-86 334h-4l-86 -334h-163zM350 568l98 164h151l-149 -164h-100z" />
    <glyph glyph-name="Wdieresis" unicode="&#x1e84;" horiz-adv-x="999" 
d="M182 0l-173 688h168l112 -520h4l131 520h154l137 -520h4l107 520h164l-171 -688h-191l-127 485h-4l-124 -485h-191zM548 793v128h132v-128h-132zM320 793v128h133v-128h-133z" />
    <glyph glyph-name="wdieresis" unicode="&#x1e85;" horiz-adv-x="801" 
d="M150 0l-143 488h147l83 -344h4l93 344h137l93 -344h4l83 344h144l-143 -488h-163l-86 334h-4l-86 -334h-163zM449 593v128h132v-128h-132zM221 593v128h133v-128h-133z" />
    <glyph glyph-name="Ygrave" unicode="&#x1ef2;" horiz-adv-x="694" 
d="M267 0v261l-258 427h176l161 -283h4l169 283h165l-261 -426v-262h-156zM299 768l-150 164h151l99 -164h-100z" />
    <glyph glyph-name="ygrave" unicode="&#x1ef3;" horiz-adv-x="543" 
d="M182 0l-178 488h162l109 -345h4l108 345h152l-189 -541q-60 -175 -209 -175h-65v115h30q88 0 114 86l8 27h-46zM223 568l-150 164h151l99 -164h-100z" />
    <glyph glyph-name="endash" unicode="&#x2013;" horiz-adv-x="556" 
d="M49 190v124h458v-124h-458z" />
    <glyph glyph-name="emdash" unicode="&#x2014;" horiz-adv-x="840" 
d="M49 190v124h742v-124h-742z" />
    <glyph glyph-name="quoteleft" unicode="&#x2018;" horiz-adv-x="270" 
d="M64 392v130l48 166h66l-35 -158h63v-138h-142z" />
    <glyph glyph-name="quoteright" unicode="&#x2019;" horiz-adv-x="270" 
d="M92 392l35 158h-63v138h142v-130l-48 -166h-66z" />
    <glyph glyph-name="quotesinglbase" unicode="&#x201a;" horiz-adv-x="270" 
d="M127 0h-63v138h142v-130l-48 -166h-66z" />
    <glyph glyph-name="quotedblleft" unicode="&#x201c;" horiz-adv-x="489" 
d="M64 392v130l48 166h66l-35 -158h63v-138h-142zM282 392v130l49 166h66l-35 -158h63v-138h-143z" />
    <glyph glyph-name="quotedblright" unicode="&#x201d;" horiz-adv-x="489" 
d="M92 392l35 158h-63v138h142v-130l-48 -166h-66zM311 392l35 158h-64v138h143v-130l-48 -166h-66z" />
    <glyph glyph-name="quotedblbase" unicode="&#x201e;" horiz-adv-x="489" 
d="M127 0h-63v138h142v-130l-48 -166h-66zM346 0h-64v138h143v-130l-48 -166h-66z" />
    <glyph glyph-name="dagger" unicode="&#x2020;" horiz-adv-x="484" 
d="M44 418v102h136v168h124v-168h136v-102h-136v-418h-124v418h-136z" />
    <glyph glyph-name="daggerdbl" unicode="&#x2021;" horiz-adv-x="484" 
d="M44 434v103h136v151h124v-151h136v-103h-136v-184h136v-103h-136v-147h-124v147h-136v103h136v184h-136z" />
    <glyph glyph-name="bullet" unicode="&#x2022;" horiz-adv-x="488" 
d="M244 80q-73 0 -122.5 49.5t-49.5 122.5t49.5 122.5t122.5 49.5t122.5 -49.5t49.5 -122.5t-49.5 -122.5t-122.5 -49.5z" />
    <glyph glyph-name="ellipsis" unicode="&#x2026;" horiz-adv-x="870" 
d="M643 0v152h162v-152h-162zM354 0v152h162v-152h-162zM65 0v152h162v-152h-162z" />
    <glyph glyph-name="perthousand" unicode="&#x2030;" horiz-adv-x="1203" 
d="M641 -8q-81 0 -124 49.5t-43 130.5t43 130.5t124 49.5q82 0 125 -49.5t43 -130.5t-43 -130.5t-125 -49.5zM1015 -8q-81 0 -124 50t-43 130t43 130t124 50q82 0 125 -49.5t43 -130.5t-43 -130.5t-125 -49.5zM187 336q-81 0 -124 49.5t-43 130.5t43 130.5t124 49.5
t124 -49.5t43 -130.5t-43 -130.5t-124 -49.5zM197 -12l348 712h87l-348 -712h-87zM1015 77q59 0 59 95t-59 95q-58 0 -58 -95t58 -95zM641 77q59 0 59 95t-59 95q-58 0 -58 -95t58 -95zM187 421q58 0 58 95t-58 95t-58 -95t58 -95z" />
    <glyph glyph-name="guilsinglleft" unicode="&#x2039;" horiz-adv-x="359" 
d="M190 48l-144 204l144 204h122l-110 -204l110 -204h-122z" />
    <glyph glyph-name="guilsinglright" unicode="&#x203a;" horiz-adv-x="359" 
d="M46 48l111 204l-111 204h122l144 -204l-144 -204h-122z" />
    <glyph glyph-name="fraction" unicode="&#x2044;" horiz-adv-x="80" 
d="M-178 -12l348 712h88l-348 -712h-88z" />
    <glyph glyph-name="uni2070" unicode="&#x2070;" horiz-adv-x="374" 
d="M187 488q-81 0 -124 49.5t-43 130.5t43 130.5t124 49.5t124 -49.5t43 -130.5t-43 -130.5t-124 -49.5zM187 573q58 0 58 95t-58 95t-58 -95t58 -95z" />
    <glyph glyph-name="uni2074" unicode="&#x2074;" horiz-adv-x="374" 
d="M18 552v59l188 232h98v-212h45v-79h-45v-56h-112v56h-174zM121 631h71v90z" />
    <glyph glyph-name="uni2075" unicode="&#x2075;" horiz-adv-x="374" 
d="M34 588h109q6 -34 43 -34q20 0 32 12.5t12 35.5t-12 35t-32 12q-32 0 -42 -28l-100 12l14 207h261v-81h-173l-5 -67h4q22 22 73 22q49 0 84 -26t35 -83q0 -55 -41.5 -86t-105.5 -31q-144 0 -156 100z" />
    <glyph glyph-name="uni2076" unicode="&#x2076;" horiz-adv-x="374" 
d="M336 745h-104q-1 14 -11 23.5t-26 9.5q-23 0 -36.5 -18t-16.5 -72q23 26 82 26q50 0 85 -26t35 -83q0 -55 -41.5 -86t-105.5 -31q-167 0 -167 172q0 98 45 143t123 45q65 0 100 -27t38 -76zM193 649q-19 0 -31.5 -12.5t-12.5 -34.5q0 -23 12 -35.5t32 -12.5t32 12.5
t12 35.5t-12 35t-32 12z" />
    <glyph glyph-name="uni2077" unicode="&#x2077;" horiz-adv-x="374" 
d="M73 496l147 254h-188v90h316v-65l-160 -279h-115z" />
    <glyph glyph-name="uni2078" unicode="&#x2078;" horiz-adv-x="374" 
d="M28 585q0 33 19 55.5t49 28.5v4q-59 15 -59 76q0 45 40.5 72t109.5 27t109.5 -27t40.5 -72q0 -61 -59 -76v-4q30 -6 49 -28.5t19 -55.5q0 -47 -41 -72t-118 -25t-118 25t-41 72zM138 597q0 -19 13 -30.5t36 -11.5t36 11.5t13 30.5q0 20 -13 31.5t-36 11.5t-36 -11.5
t-13 -31.5zM143 742q0 -39 44 -39t44 39t-44 39t-44 -39z" />
    <glyph glyph-name="uni2079" unicode="&#x2079;" horiz-adv-x="374" 
d="M34 591h104q1 -14 12 -23.5t28 -9.5q21 0 33.5 19t15.5 70q-17 -25 -77 -25q-53 0 -88.5 23.5t-35.5 79.5q0 55 42 89t106 34q166 0 166 -172q0 -188 -165 -188q-66 0 -102 27.5t-39 75.5zM177 687q19 0 31.5 12.5t12.5 34.5q0 23 -12 35.5t-32 12.5t-32 -12.5t-12 -35.5
t12 -35t32 -12z" />
    <glyph glyph-name="parenleft.superior" unicode="&#x207d;" horiz-adv-x="250" 
d="M140 424q-32 39 -56 105.5t-24 138.5t24 138.5t56 105.5h102q-30 -37 -55 -105t-25 -139t25 -139t55 -105h-102z" />
    <glyph glyph-name="parenright.superior" unicode="&#x207e;" horiz-adv-x="250" 
d="M8 424q30 37 55 105t25 139t-25 139t-55 105h102q32 -39 56 -105.5t24 -138.5t-24 -138.5t-56 -105.5h-102z" />
    <glyph glyph-name="n.superior" unicode="&#x207f;" horiz-adv-x="434" 
d="M44 496v344h109v-49h4q28 57 108 57q56 0 92.5 -33.5t36.5 -102.5v-216h-113v191q0 72 -58 72q-29 0 -47.5 -20.5t-18.5 -58.5v-184h-113z" />
    <glyph glyph-name="uni2080" unicode="&#x2080;" horiz-adv-x="374" 
d="M187 -160q-81 0 -124 49.5t-43 130.5t43 130.5t124 49.5t124 -49.5t43 -130.5t-43 -130.5t-124 -49.5zM187 -75q58 0 58 95t-58 95t-58 -95t58 -95z" />
    <glyph glyph-name="uni2081" unicode="&#x2081;" horiz-adv-x="374" 
d="M80 28l-43 75l154 89h67v-261h92v-83h-301v83h95v133z" />
    <glyph glyph-name="uni2082" unicode="&#x2082;" horiz-adv-x="374" 
d="M26 -152q0 76 33 117t92 66l14 6q39 17 55 27.5t16 24.5q0 34 -46 34q-51 0 -52 -50h-108q2 62 47 94.5t110 32.5q72 0 115 -29.5t43 -77.5q0 -43 -23.5 -67.5t-78.5 -47.5l-15 -7q-67 -28 -67 -40h181v-83h-316z" />
    <glyph glyph-name="uni2083" unicode="&#x2083;" horiz-adv-x="374" 
d="M35 -45h103q0 -48 49 -48q23 0 36 11.5t13 30.5q0 43 -54 43h-17v63h17q49 0 49 39t-44 39t-44 -44h-100q2 54 41 82.5t104 28.5q68 0 108.5 -27t40.5 -72q0 -61 -59 -76v-3q31 -7 49.5 -27.5t18.5 -51.5q0 -103 -159 -103q-148 0 -152 115z" />
    <glyph glyph-name="uni2084" unicode="&#x2084;" horiz-adv-x="374" 
d="M18 -96v59l188 232h98v-212h45v-79h-45v-56h-112v56h-174zM121 -17h71v90z" />
    <glyph glyph-name="uni2085" unicode="&#x2085;" horiz-adv-x="374" 
d="M34 -60h109q6 -34 43 -34q20 0 32 12.5t12 35.5t-12 35t-32 12q-32 0 -42 -28l-100 12l14 207h261v-81h-173l-5 -67h4q22 22 73 22q49 0 84 -26t35 -83q0 -55 -41.5 -86t-105.5 -31q-144 0 -156 100z" />
    <glyph glyph-name="uni2086" unicode="&#x2086;" horiz-adv-x="374" 
d="M336 97h-104q-1 14 -11 23.5t-26 9.5q-23 0 -36.5 -18t-16.5 -72q23 26 82 26q50 0 85 -26t35 -83q0 -55 -41.5 -86t-105.5 -31q-167 0 -167 172q0 98 45 143t123 45q65 0 100 -27t38 -76zM193 1q-19 0 -31.5 -12.5t-12.5 -34.5q0 -23 12 -35.5t32 -12.5t32 12.5t12 35.5
t-12 35t-32 12z" />
    <glyph glyph-name="uni2087" unicode="&#x2087;" horiz-adv-x="374" 
d="M73 -152l147 254h-188v90h316v-65l-160 -279h-115z" />
    <glyph glyph-name="uni2088" unicode="&#x2088;" horiz-adv-x="374" 
d="M28 -63q0 33 19 55.5t49 28.5v4q-59 15 -59 76q0 45 40.5 72t109.5 27t109.5 -27t40.5 -72q0 -61 -59 -76v-4q30 -6 49 -28.5t19 -55.5q0 -47 -41 -72t-118 -25t-118 25t-41 72zM138 -51q0 -19 13 -30.5t36 -11.5t36 11.5t13 30.5q0 20 -13 31.5t-36 11.5t-36 -11.5
t-13 -31.5zM143 94q0 -39 44 -39t44 39t-44 39t-44 -39z" />
    <glyph glyph-name="uni2089" unicode="&#x2089;" horiz-adv-x="374" 
d="M34 -57h104q1 -14 12 -23.5t28 -9.5q21 0 33.5 19t15.5 70q-17 -25 -77 -25q-53 0 -88.5 23.5t-35.5 79.5q0 55 42 89t106 34q166 0 166 -172q0 -188 -165 -188q-66 0 -102 27.5t-39 75.5zM177 39q19 0 31.5 12.5t12.5 34.5q0 23 -12 35.5t-32 12.5t-32 -12.5t-12 -35.5
t12 -35t32 -12z" />
    <glyph glyph-name="parenleft.inferior" unicode="&#x208d;" horiz-adv-x="250" 
d="M140 -224q-32 39 -56 105.5t-24 138.5t24 138.5t56 105.5h102q-30 -37 -55 -105t-25 -139t25 -139t55 -105h-102z" />
    <glyph glyph-name="parenright.inferior" unicode="&#x208e;" horiz-adv-x="250" 
d="M8 -224q30 37 55 105t25 139t-25 139t-55 105h102q32 -39 56 -105.5t24 -138.5t-24 -138.5t-56 -105.5h-102z" />
    <glyph glyph-name="Euro" unicode="&#x20ac;" 
d="M5 377l21 72h48q18 116 81.5 183.5t172.5 67.5q191 0 227 -202h-140q-19 85 -86 85q-85 0 -104 -134h173l-22 -72h-157v-65h153l-21 -72h-126q19 -135 104 -135q62 0 84 79h140q-43 -196 -225 -196q-110 0 -173 67.5t-82 184.5h-85l21 72h57v65h-61z" />
    <glyph glyph-name="afii61289" unicode="&#x2113;" horiz-adv-x="412" 
d="M129 26q-38 41 -38 139v74l-2 1l-59 -41l-12 24l73 61v136q0 102 18 157t55 89q37 33 85 33q47 0 74 -34.5t27 -93.5q0 -46 -17.5 -89.5t-50 -80.5t-55.5 -58.5t-58 -48.5v-109q0 -138 91 -138q63 0 118 80l22 -16q-24 -58 -68 -90.5t-101 -32.5q-66 0 -102 38zM171 342
q121 103 121 230q0 91 -55 91q-68 0 -68 -179v-141z" />
    <glyph glyph-name="afii61352" unicode="&#x2116;" horiz-adv-x="1215" 
d="M66 0v688h139l326 -423h4l-4 423h156v-688h-137l-329 424h-4l4 -424h-155zM797 516q0 83 51 131.5t139 48.5t139 -48.5t51 -131.5t-51 -131.5t-139 -48.5q-89 0 -139.5 48.5t-50.5 131.5zM799 0v81h375v-81h-375zM799 173v81h375v-81h-375zM914 516q0 -43 19 -68.5
t54 -25.5t54 25.5t19 68.5t-19 68.5t-54 25.5t-54 -25.5t-19 -68.5z" />
    <glyph glyph-name="trademark" unicode="&#x2122;" horiz-adv-x="840" 
d="M368 344v344h144l73 -209h4l72 209h144v-344h-102l4 226h-4l-78 -226h-76l-78 226h-4l4 -226h-103zM4 600v88h325v-88h-111v-256h-102v256h-112z" />
    <glyph glyph-name="Omega" unicode="&#x2126;" horiz-adv-x="696" 
d="M397 0v243q50 14 85 60t35 113q0 79 -47.5 125.5t-121.5 46.5t-121.5 -46.5t-47.5 -125.5q0 -67 35 -113t85 -60v-243h-250v106h133v74q-71 33 -111 95.5t-40 143.5q0 120 87 200.5t230 80.5t230 -80.5t87 -200.5q0 -81 -40.5 -143.5t-110.5 -95.5v-74h133v-106h-250z
" />
    <glyph glyph-name="estimated" unicode="&#x212e;" horiz-adv-x="850" 
d="M184 113q98 -103 243 -103q76 0 142 31t113 86h58q-55 -64 -137.5 -101.5t-176.5 -37.5q-165 0 -281 104t-116 252t116.5 252t280.5 104t280 -104t116 -252v-10h-641q-7 0 -7 -4v-194q0 -11 10 -23zM181 355h492q4 0 4 6v193q0 14 -10 24q-98 100 -240 100t-242 -103
q-11 -11 -11 -26v-188q0 -6 7 -6z" />
    <glyph glyph-name="uni2153" unicode="&#x2153;" horiz-adv-x="828" 
d="M490 107h102q0 -23 13 -35.5t36 -12.5t36.5 11t13.5 31q0 43 -55 43h-17v63h17q49 0 49 39t-44 39t-44 -44h-99q2 54 41 82.5t104 28.5q67 0 107.5 -27t40.5 -72q0 -61 -59 -76v-3q31 -7 49.5 -27.5t18.5 -51.5q0 -103 -159 -103q-147 0 -151 115zM80 524l-43 75l154 89
h67v-261h92v-83h-301v83h95v133zM221 -12l348 712h87l-348 -712h-87z" />
    <glyph glyph-name="uni2154" unicode="&#x2154;" horiz-adv-x="828" 
d="M26 344q0 76 33 117t92 66l14 6q39 17 55 27.5t16 24.5q0 34 -46 34q-51 0 -52 -50h-108q2 62 47 94.5t110 32.5q72 0 115 -29.5t43 -77.5q0 -43 -23.5 -67.5t-78.5 -47.5l-15 -7q-67 -28 -67 -40h181v-83h-316zM490 107h102q0 -23 13 -35.5t36 -12.5t36.5 11t13.5 31
q0 43 -55 43h-17v63h17q49 0 49 39t-44 39t-44 -44h-99q2 54 41 82.5t104 28.5q67 0 107.5 -27t40.5 -72q0 -61 -59 -76v-3q31 -7 49.5 -27.5t18.5 -51.5q0 -103 -159 -103q-147 0 -151 115zM218 -12l348 712h87l-348 -712h-87z" />
    <glyph glyph-name="uni2155" unicode="&#x2155;" horiz-adv-x="828" 
d="M489 92h109q4 -34 43 -34q20 0 32 12.5t12 35.5t-12 35t-32 12q-31 0 -42 -28l-101 12l15 207h261v-81h-173l-5 -67h3q22 22 73 22q49 0 84 -26t35 -83q0 -55 -41.5 -86t-105.5 -31q-143 0 -155 100zM211 -12l348 712h88l-348 -712h-88zM80 524l-43 75l154 89h67v-261h92
v-83h-301v83h95v133z" />
    <glyph glyph-name="uni2156" unicode="&#x2156;" horiz-adv-x="828" 
d="M26 344q0 76 33 117t92 66l14 6q39 17 55 27.5t16 24.5q0 34 -46 34q-51 0 -52 -50h-108q2 62 47 94.5t110 32.5q72 0 115 -29.5t43 -77.5q0 -43 -23.5 -67.5t-78.5 -47.5l-15 -7q-67 -28 -67 -40h181v-83h-316zM489 92h109q4 -34 43 -34q20 0 32 12.5t12 35.5t-12 35
t-32 12q-31 0 -42 -28l-101 12l15 207h261v-81h-173l-5 -67h3q22 22 73 22q49 0 84 -26t35 -83q0 -55 -41.5 -86t-105.5 -31q-143 0 -155 100zM209 -12l348 712h87l-348 -712h-87z" />
    <glyph glyph-name="uni2157" unicode="&#x2157;" horiz-adv-x="828" 
d="M489 92h109q4 -34 43 -34q20 0 32 12.5t12 35.5t-12 35t-32 12q-31 0 -42 -28l-101 12l15 207h261v-81h-173l-5 -67h3q22 22 73 22q49 0 84 -26t35 -83q0 -55 -41.5 -86t-105.5 -31q-143 0 -155 100zM35 451h103q0 -48 49 -48q23 0 36 11.5t13 30.5q0 43 -54 43h-17v63
h17q49 0 49 39t-44 39t-44 -44h-100q2 54 41 82.5t104 28.5q68 0 108.5 -27t40.5 -72q0 -61 -59 -76v-3q31 -7 49.5 -27.5t18.5 -51.5q0 -103 -159 -103q-148 0 -152 115zM192 -12l348 712h88l-348 -712h-88z" />
    <glyph glyph-name="uni2158" unicode="&#x2158;" horiz-adv-x="828" 
d="M489 92h109q4 -34 43 -34q20 0 32 12.5t12 35.5t-12 35t-32 12q-31 0 -42 -28l-101 12l15 207h261v-81h-173l-5 -67h3q22 22 73 22q49 0 84 -26t35 -83q0 -55 -41.5 -86t-105.5 -31q-143 0 -155 100zM18 400v59l188 232h98v-212h45v-79h-45v-56h-112v56h-174zM198 -12
l348 712h87l-348 -712h-87zM121 479h71v90z" />
    <glyph glyph-name="uni2159" unicode="&#x2159;" horiz-adv-x="828" 
d="M790 249h-104q-1 15 -11 24t-26 9q-22 0 -35.5 -18.5t-16.5 -72.5h4q19 27 77 27q50 0 85 -26t35 -83q0 -55 -41.5 -86t-105.5 -31q-166 0 -166 172q0 98 45 143t122 45q66 0 101 -27t37 -76zM80 524l-43 75l154 89h67v-261h92v-83h-301v83h95v133zM222 -12l348 712h87
l-348 -712h-87zM648 153q-20 0 -32.5 -12t-12.5 -35t12.5 -35.5t32.5 -12.5t32 12.5t12 35.5t-12 35t-32 12z" />
    <glyph glyph-name="uni215A" unicode="&#x215a;" horiz-adv-x="828" 
d="M790 249h-104q-1 15 -11 24t-26 9q-22 0 -35.5 -18.5t-16.5 -72.5h4q19 27 77 27q50 0 85 -26t35 -83q0 -55 -41.5 -86t-105.5 -31q-166 0 -166 172q0 98 45 143t122 45q66 0 101 -27t37 -76zM34 436h109q6 -34 43 -34q20 0 32 12.5t12 35.5t-12 35t-32 12q-32 0 -42 -28
l-100 12l14 207h261v-81h-173l-5 -67h4q22 22 73 22q49 0 84 -26t35 -83q0 -55 -41.5 -86t-105.5 -31q-144 0 -156 100zM197 -12l348 712h87l-348 -712h-87zM648 153q-20 0 -32.5 -12t-12.5 -35t12.5 -35.5t32.5 -12.5t32 12.5t12 35.5t-12 35t-32 12z" />
    <glyph glyph-name="uni215B" unicode="&#x215b;" horiz-adv-x="828" 
d="M482 89q0 33 19 55.5t49 28.5v4q-25 6 -41.5 26t-16.5 50q0 45 40.5 72t108.5 27q69 0 109.5 -27t40.5 -72q0 -61 -59 -76v-4q31 -6 49.5 -28t18.5 -56q0 -47 -41 -72t-118 -25t-118 25t-41 72zM80 524l-43 75l154 89h67v-261h92v-83h-301v83h95v133zM218 -12l348 712h87
l-348 -712h-87zM592 101q0 -19 13 -30.5t36 -11.5t36.5 11t13.5 31t-13.5 31.5t-36.5 11.5t-36 -11.5t-13 -31.5zM597 246q0 -39 44 -39t44 39t-44 39t-44 -39z" />
    <glyph glyph-name="uni215C" unicode="&#x215c;" horiz-adv-x="828" 
d="M482 89q0 33 19 55.5t49 28.5v4q-25 6 -41.5 26t-16.5 50q0 45 40.5 72t108.5 27q69 0 109.5 -27t40.5 -72q0 -61 -59 -76v-4q31 -6 49.5 -28t18.5 -56q0 -47 -41 -72t-118 -25t-118 25t-41 72zM35 451h103q0 -48 49 -48q23 0 36 11.5t13 30.5q0 43 -54 43h-17v63h17
q49 0 49 39t-44 39t-44 -44h-100q2 54 41 82.5t104 28.5q68 0 108.5 -27t40.5 -72q0 -61 -59 -76v-3q31 -7 49.5 -27.5t18.5 -51.5q0 -103 -159 -103q-148 0 -152 115zM199 -12l348 712h88l-348 -712h-88zM592 101q0 -19 13 -30.5t36 -11.5t36.5 11t13.5 31t-13.5 31.5
t-36.5 11.5t-36 -11.5t-13 -31.5zM597 246q0 -39 44 -39t44 39t-44 39t-44 -39z" />
    <glyph glyph-name="uni215D" unicode="&#x215d;" horiz-adv-x="828" 
d="M482 89q0 33 19 55.5t49 28.5v4q-25 6 -41.5 26t-16.5 50q0 45 40.5 72t108.5 27q69 0 109.5 -27t40.5 -72q0 -61 -59 -76v-4q31 -6 49.5 -28t18.5 -56q0 -47 -41 -72t-118 -25t-118 25t-41 72zM34 436h109q6 -34 43 -34q20 0 32 12.5t12 35.5t-12 35t-32 12
q-32 0 -42 -28l-100 12l14 207h261v-81h-173l-5 -67h4q22 22 73 22q49 0 84 -26t35 -83q0 -55 -41.5 -86t-105.5 -31q-144 0 -156 100zM197 -12l348 712h87l-348 -712h-87zM592 101q0 -19 13 -30.5t36 -11.5t36.5 11t13.5 31t-13.5 31.5t-36.5 11.5t-36 -11.5t-13 -31.5z
M597 246q0 -39 44 -39t44 39t-44 39t-44 -39z" />
    <glyph glyph-name="uni215E" unicode="&#x215e;" horiz-adv-x="828" 
d="M482 89q0 33 19 55.5t49 28.5v4q-25 6 -41.5 26t-16.5 50q0 45 40.5 72t108.5 27q69 0 109.5 -27t40.5 -72q0 -61 -59 -76v-4q31 -6 49.5 -28t18.5 -56q0 -47 -41 -72t-118 -25t-118 25t-41 72zM169 -12l348 712h87l-348 -712h-87zM73 344l147 254h-188v90h316v-65
l-160 -279h-115zM592 101q0 -19 13 -30.5t36 -11.5t36.5 11t13.5 31t-13.5 31.5t-36.5 11.5t-36 -11.5t-13 -31.5zM597 246q0 -39 44 -39t44 39t-44 39t-44 -39z" />
    <glyph glyph-name="uni2190" unicode="&#x2190;" horiz-adv-x="660" 
d="M369 62l-78 -73l-263 263l263 263l78 -73l-135 -134q85 4 162 4h236v-120h-236q-77 0 -162 4z" />
    <glyph glyph-name="uni2191" unicode="&#x2191;" horiz-adv-x="660" 
d="M147 213l-74 78l263 263l264 -263l-74 -78l-134 135q4 -87 4 -162v-236h-119v236q0 97 4 162z" />
    <glyph glyph-name="uni2192" unicode="&#x2192;" horiz-adv-x="660" 
d="M369 -11l-78 73l135 134q-87 -4 -162 -4h-236v120h236q75 0 162 -4l-135 134l78 73l263 -263z" />
    <glyph glyph-name="uni2193" unicode="&#x2193;" horiz-adv-x="660" 
d="M520 291l73 -78l-263 -263l-263 263l73 78l134 -135q-4 85 -4 162v236h120v-236q0 -77 -4 -162z" />
    <glyph glyph-name="uni2196" unicode="&#x2196;" horiz-adv-x="660" 
d="M80 471h374v-106h-186q38 -34 115 -111l167 -167l-82 -84l-168 166q-63 63 -113 120v-192h-107v374z" />
    <glyph glyph-name="uni2197" unicode="&#x2197;" horiz-adv-x="660" 
d="M176 365v106h374v-374h-107v192q-50 -57 -113 -120l-167 -166l-83 84l167 167q79 79 114 111h-185z" />
    <glyph glyph-name="uni2198" unicode="&#x2198;" horiz-adv-x="660" 
d="M176 3v107h185q-38 34 -114 110l-167 168l83 83l167 -165q63 -63 113 -120v191h107v-374h-374z" />
    <glyph glyph-name="uni2199" unicode="&#x2199;" horiz-adv-x="660" 
d="M268 110h186v-107h-374v374h107v-191q50 57 113 120l168 165l82 -83l-167 -168q-75 -75 -115 -110z" />
    <glyph glyph-name="partialdiff" unicode="&#x2202;" 
d="M14 195q0 119 70 182t163 63q49 0 88.5 -17t55.5 -45q1 10 1 30q0 95 -27.5 137.5t-70.5 42.5q-73 0 -91 -72h-141q18 85 78 134.5t162 49.5q104 0 169.5 -71t65.5 -223q0 -115 -25 -199.5t-69 -130.5t-95.5 -67t-113.5 -21q-93 0 -156.5 55.5t-63.5 151.5zM251 100
q46 0 78 34.5t32 93.5q0 47 -23.5 73.5t-66.5 26.5q-47 0 -79.5 -34.5t-32.5 -97.5q0 -47 25.5 -71.5t66.5 -24.5z" />
    <glyph glyph-name="Delta" unicode="&#x2206;" horiz-adv-x="669" 
d="M6 0l251 688h155l251 -688h-657zM333 521h-4l-140 -404h283z" />
    <glyph glyph-name="product" unicode="&#x220f;" horiz-adv-x="749" 
d="M78 0v688h593v-688h-149v571h-295v-571h-149z" />
    <glyph glyph-name="summation" unicode="&#x2211;" horiz-adv-x="561" 
d="M10 0v53l228 284l-220 291v60h507v-115h-297l174 -226l-182 -232h310v-115h-520z" />
    <glyph glyph-name="minus" unicode="&#x2212;" 
d="M59 199v112h450v-112h-450z" />
    <glyph glyph-name="uni2215" unicode="&#x2215;" horiz-adv-x="80" 
d="M-178 -12l348 712h88l-348 -712h-88z" />
    <glyph glyph-name="uni2219" unicode="&#x2219;" horiz-adv-x="292" 
d="M65 179v148h162v-148h-162z" />
    <glyph glyph-name="radical" unicode="&#x221a;" horiz-adv-x="618" 
d="M25 268v112l182 58l99 -276h4l174 526h141l-234 -688h-161l-114 298z" />
    <glyph glyph-name="infinity" unicode="&#x221e;" horiz-adv-x="708" 
d="M194 88q-75 0 -121 46.5t-46 120.5t46 120.5t121 46.5q90 0 162 -97q72 97 158 97q75 0 121 -46.5t46 -120.5t-46 -120.5t-121 -46.5q-91 0 -162 96q-75 -96 -158 -96zM192 185q49 0 99 70q-51 70 -99 70q-29 0 -46.5 -20t-17.5 -50t17.5 -50t46.5 -20zM417 255
q50 -70 99 -70q29 0 46.5 20t17.5 50t-17.5 50t-46.5 20q-48 0 -99 -70z" />
    <glyph glyph-name="integral" unicode="&#x222b;" horiz-adv-x="364" 
d="M18 -72h38q52 0 64.5 33t6.5 112l-33 502q-9 125 33.5 188.5t158.5 63.5h54v-112h-38q-51 0 -63.5 -33t-7.5 -112l34 -502q8 -125 -34 -188.5t-159 -63.5h-54v112z" />
    <glyph glyph-name="approxequal" unicode="&#x2248;" 
d="M45 278q0 93 41 139.5t101 46.5q39 0 75 -17t64.5 -34t49.5 -17q46 0 46 73h104q0 -93 -41 -139t-100 -46q-39 0 -75.5 17t-65.5 34.5t-49 17.5q-46 0 -46 -75h-104zM45 40q0 93 41 139t101 46q39 0 75 -16.5t64.5 -33.5t49.5 -17q46 0 46 73h104q0 -93 -41 -139
t-100 -46q-39 0 -75.5 17t-65.5 34.5t-49 17.5q-46 0 -46 -75h-104z" />
    <glyph glyph-name="notequal" unicode="&#x2260;" 
d="M56 309v112h259l67 132l81 -42l-46 -90h95v-112h-152l-55 -110h207v-112h-264l-66 -132l-81 42l45 90h-90v112h147l55 110h-202z" />
    <glyph glyph-name="lessequal" unicode="&#x2264;" 
d="M72 331v117l424 164v-124l-280 -97l280 -101v-125zM72 0v112h424v-112h-424z" />
    <glyph glyph-name="greaterequal" unicode="&#x2265;" 
d="M496 446v-118l-424 -163v124l279 97l-279 100v126zM72 0v112h424v-112h-424z" />
    <glyph glyph-name="uni25A0" unicode="&#x25a0;" horiz-adv-x="688" 
d="M0 0v688h688v-688h-688z" />
    <glyph glyph-name="uni25A1" unicode="&#x25a1;" horiz-adv-x="688" 
d="M0 0v688h688v-688h-688zM127 117h434v454h-434v-454z" />
    <glyph glyph-name="uni25B6" unicode="&#x25b6;" horiz-adv-x="502" 
d="M44 -12v512l446 -256z" />
    <glyph glyph-name="uni25B7" unicode="&#x25b7;" horiz-adv-x="502" 
d="M44 -12v512l446 -256zM143 152l164 92l-164 92v-184z" />
    <glyph glyph-name="uni25C0" unicode="&#x25c0;" horiz-adv-x="502" 
d="M12 244l446 256v-512z" />
    <glyph glyph-name="uni25C1" unicode="&#x25c1;" horiz-adv-x="502" 
d="M12 244l446 256v-512zM195 244l164 -92v184z" />
    <glyph glyph-name="lozenge" unicode="&#x25ca;" horiz-adv-x="672" 
d="M269 0l-250 344l250 344h134l249 -344l-249 -344h-134zM339 564h-7l-158 -221l160 -221h4l159 219z" />
    <glyph glyph-name="uni25CB" unicode="&#x25cb;" horiz-adv-x="552" 
d="M18 244q0 108 74 182t184 74q111 0 184.5 -72.5t73.5 -183.5q0 -108 -74 -182t-184 -74q-111 0 -184.5 72.5t-73.5 183.5zM143 244q0 -63 38 -104t95 -41q59 0 96 40.5t37 104.5q0 63 -38 104t-95 41q-59 0 -96 -40.5t-37 -104.5z" />
    <glyph glyph-name="uni25CF" unicode="&#x25cf;" horiz-adv-x="552" 
d="M18 244q0 108 74 182t184 74q111 0 184.5 -72.5t73.5 -183.5q0 -108 -74 -182t-184 -74q-111 0 -184.5 72.5t-73.5 183.5z" />
    <glyph glyph-name="uni25FB" unicode="&#x25fb;" horiz-adv-x="488" 
d="M0 0v488h488v-488h-488zM116 111h256v266h-256v-266z" />
    <glyph glyph-name="uni25FC" unicode="&#x25fc;" horiz-adv-x="488" 
d="M0 0v488h488v-488h-488z" />
    <glyph glyph-name="uni2605" unicode="&#x2605;" horiz-adv-x="546" 
d="M106 13l68 183l-162 108l5 16l195 -9l53 189h16l52 -189l196 9l5 -16l-163 -108l69 -183l-14 -10l-153 121l-153 -121z" />
    <glyph glyph-name="dotlessi.sc" unicode="&#xe08e;" horiz-adv-x="303" 
d="M77 0v520h149v-520h-149z" />
    <glyph glyph-name="g.superior" unicode="&#xe0a3;" horiz-adv-x="448" 
d="M43 455h106q6 -40 65 -40q45 0 63 27t18 87v17h-4q-27 -58 -113 -58q-62 0 -105.5 45.5t-43.5 130.5q0 88 46 136t110 48q79 0 106 -58h4v50h109v-309q0 -108 -47.5 -151.5t-145.5 -43.5q-155 0 -168 119zM146 664q0 -41 19 -65.5t53 -24.5t53.5 25.5t19.5 68.5v8
q-2 39 -21.5 62.5t-51.5 23.5q-34 0 -53 -26.5t-19 -71.5z" />
    <glyph glyph-name="germandbls.sc" unicode="&#xe0a4;" horiz-adv-x="1134" 
d="M38 151h146q0 -31 25 -47t70 -16q95 0 95 59q0 20 -18 31.5t-47 16.5t-64 9t-69.5 13t-63.5 24t-47 45.5t-18 74.5q0 76 61.5 123.5t174.5 47.5q109 0 167 -43.5t58 -115.5h-142q0 29 -23.5 44t-59.5 15q-87 0 -87 -55q0 -23 24.5 -35.5t61.5 -16.5t79.5 -12.5t79.5 -21
t61.5 -45.5t24.5 -83q0 -81 -63.5 -128t-184.5 -47q-117 0 -179 43t-62 120zM605 151h146q0 -31 25.5 -47t69.5 -16q95 0 95 59q0 20 -18 31.5t-47 16.5t-63.5 9t-69.5 13t-64 24t-47 45.5t-18 74.5q0 76 61.5 123.5t174.5 47.5q109 0 167 -43.5t58 -115.5h-142
q0 29 -23.5 44t-59.5 15q-87 0 -87 -55q0 -23 24.5 -35.5t61.5 -16.5t79.5 -12.5t79.5 -21t61.5 -45.5t24.5 -83q0 -81 -63.5 -128t-184.5 -47q-117 0 -179 43t-62 120z" />
    <glyph glyph-name="onesuperior" unicode="&#xe105;" horiz-adv-x="374" 
d="M80 676l-43 75l154 89h67v-261h92v-83h-301v83h95v133z" />
    <glyph glyph-name="twosuperior" unicode="&#xe107;" horiz-adv-x="374" 
d="M26 496q0 76 33 117t92 66l14 6q39 17 55 27.5t16 24.5q0 34 -46 34q-51 0 -52 -50h-108q2 62 47 94.5t110 32.5q72 0 115 -29.5t43 -77.5q0 -43 -23.5 -67.5t-78.5 -47.5l-15 -7q-67 -28 -67 -40h181v-83h-316z" />
    <glyph glyph-name="threesuperior" unicode="&#xe108;" horiz-adv-x="374" 
d="M35 603h103q0 -48 49 -48q23 0 36 11.5t13 30.5q0 43 -54 43h-17v63h17q49 0 49 39t-44 39t-44 -44h-100q2 54 41 82.5t104 28.5q68 0 108.5 -27t40.5 -72q0 -61 -59 -76v-3q31 -7 49.5 -27.5t18.5 -51.5q0 -103 -159 -103q-148 0 -152 115z" />
    <glyph glyph-name="cent.denominator" unicode="&#xf629;" horiz-adv-x="374" 
d="M30 169q0 52 31 84.5t88 41.5v57h81v-57q53 -8 81.5 -36.5t32.5 -64.5h-110q-6 34 -43 34q-50 0 -50 -59t50 -59q37 0 43 34h110q-4 -36 -32.5 -64.5t-81.5 -36.5v-51h-81v51q-57 8 -88 40.5t-31 85.5z" />
    <glyph glyph-name="dollar.denominator" unicode="&#xf62a;" horiz-adv-x="374" 
d="M28 100h102q3 -42 57 -42q51 0 51 34q0 17 -21 25t-51 12.5t-60.5 13t-51.5 32.5t-21 63q0 42 29.5 72t84.5 39v55h80v-55q50 -9 78.5 -36t31.5 -65h-104q-1 16 -13.5 26t-32.5 10q-47 0 -47 -34q0 -15 15 -23.5t38 -11.5t49.5 -9.5t49.5 -15t38 -30.5t15 -54
q0 -99 -118 -112v-62h-80v62q-116 13 -119 106z" />
    <glyph glyph-name="hyphen.denominator" unicode="&#xf62b;" horiz-adv-x="293" 
d="M33 132v84h226v-84h-226z" />
    <glyph glyph-name="parenleft.denominator" unicode="&#xf62c;" horiz-adv-x="250" 
d="M140 -72q-32 39 -56 105.5t-24 138.5t24 138.5t56 105.5h102q-30 -37 -55 -105t-25 -139t25 -139t55 -105h-102z" />
    <glyph glyph-name="parenright.denominator" unicode="&#xf62d;" horiz-adv-x="250" 
d="M8 -72q30 37 55 105t25 139t-25 139t-55 105h102q32 -39 56 -105.5t24 -138.5t-24 -138.5t-56 -105.5h-102z" />
    <glyph glyph-name="cent.numerator" unicode="&#xf62e;" horiz-adv-x="374" 
d="M30 513q0 52 31 84.5t88 41.5v57h81v-57q53 -8 81.5 -36.5t32.5 -64.5h-110q-6 34 -43 34q-50 0 -50 -59t50 -59q37 0 43 34h110q-4 -36 -32.5 -64.5t-81.5 -36.5v-51h-81v51q-57 8 -88 40.5t-31 85.5z" />
    <glyph glyph-name="dollar.numerator" unicode="&#xf62f;" horiz-adv-x="374" 
d="M28 444h102q3 -42 57 -42q51 0 51 34q0 17 -21 25t-51 12.5t-60.5 13t-51.5 32.5t-21 63q0 42 29.5 72t84.5 39v55h80v-55q50 -9 78.5 -36t31.5 -65h-104q-1 16 -13.5 26t-32.5 10q-47 0 -47 -34q0 -15 15 -23.5t38 -11.5t49.5 -9.5t49.5 -15t38 -30.5t15 -54
q0 -99 -118 -112v-62h-80v62q-116 13 -119 106z" />
    <glyph glyph-name="hyphen.numerator" unicode="&#xf630;" horiz-adv-x="293" 
d="M33 476v84h226v-84h-226z" />
    <glyph glyph-name="parenleft.numerator" unicode="&#xf631;" horiz-adv-x="250" 
d="M140 272q-32 39 -56 105.5t-24 138.5t24 138.5t56 105.5h102q-30 -37 -55 -105t-25 -139t25 -139t55 -105h-102z" />
    <glyph glyph-name="parenright.numerator" unicode="&#xf632;" horiz-adv-x="250" 
d="M8 272q30 37 55 105t25 139t-25 139t-55 105h102q32 -39 56 -105.5t24 -138.5t-24 -138.5t-56 -105.5h-102z" />
    <glyph glyph-name="h.superior" unicode="&#xf637;" horiz-adv-x="434" 
d="M44 496v516h113v-111q0 -57 -3 -110h3q28 57 108 57q56 0 92.5 -33.5t36.5 -102.5v-216h-113v191q0 72 -58 72q-30 0 -48 -21t-18 -59v-183h-113z" />
    <glyph glyph-name="zero.denominator" unicode="&#xf655;" horiz-adv-x="374" 
d="M187 -8q-81 0 -124 49.5t-43 130.5t43 130.5t124 49.5t124 -49.5t43 -130.5t-43 -130.5t-124 -49.5zM187 77q58 0 58 95t-58 95t-58 -95t58 -95z" />
    <glyph glyph-name="one.denominator" unicode="&#xf656;" horiz-adv-x="374" 
d="M80 180l-43 75l154 89h67v-261h92v-83h-301v83h95v133z" />
    <glyph glyph-name="two.denominator" unicode="&#xf657;" horiz-adv-x="374" 
d="M26 0q0 76 33 117t92 66l14 6q39 17 55 27.5t16 24.5q0 34 -46 34q-51 0 -52 -50h-108q2 62 47 94.5t110 32.5q72 0 115 -29.5t43 -77.5q0 -43 -23.5 -67.5t-78.5 -47.5l-15 -7q-67 -28 -67 -40h181v-83h-316z" />
    <glyph glyph-name="three.denominator" unicode="&#xf658;" horiz-adv-x="374" 
d="M35 107h103q0 -48 49 -48q23 0 36 11.5t13 30.5q0 43 -54 43h-17v63h17q49 0 49 39t-44 39t-44 -44h-100q2 54 41 82.5t104 28.5q68 0 108.5 -27t40.5 -72q0 -61 -59 -76v-3q31 -7 49.5 -27.5t18.5 -51.5q0 -103 -159 -103q-148 0 -152 115z" />
    <glyph glyph-name="four.denominator" unicode="&#xf659;" horiz-adv-x="374" 
d="M18 56v59l188 232h98v-212h45v-79h-45v-56h-112v56h-174zM121 135h71v90z" />
    <glyph glyph-name="five.denominator" unicode="&#xf65a;" horiz-adv-x="374" 
d="M34 92h109q6 -34 43 -34q20 0 32 12.5t12 35.5t-12 35t-32 12q-32 0 -42 -28l-100 12l14 207h261v-81h-173l-5 -67h4q22 22 73 22q49 0 84 -26t35 -83q0 -55 -41.5 -86t-105.5 -31q-144 0 -156 100z" />
    <glyph glyph-name="six.denominator" unicode="&#xf65b;" horiz-adv-x="374" 
d="M336 249h-104q-1 14 -11 23.5t-26 9.5q-23 0 -36.5 -18t-16.5 -72q23 26 82 26q50 0 85 -26t35 -83q0 -55 -41.5 -86t-105.5 -31q-167 0 -167 172q0 98 45 143t123 45q65 0 100 -27t38 -76zM193 153q-19 0 -31.5 -12.5t-12.5 -34.5q0 -23 12 -35.5t32 -12.5t32 12.5
t12 35.5t-12 35t-32 12z" />
    <glyph glyph-name="seven.denominator" unicode="&#xf65c;" horiz-adv-x="374" 
d="M73 0l147 254h-188v90h316v-65l-160 -279h-115z" />
    <glyph glyph-name="eight.denominator" unicode="&#xf65d;" horiz-adv-x="374" 
d="M28 89q0 33 19 55.5t49 28.5v4q-59 15 -59 76q0 45 40.5 72t109.5 27t109.5 -27t40.5 -72q0 -61 -59 -76v-4q30 -6 49 -28.5t19 -55.5q0 -47 -41 -72t-118 -25t-118 25t-41 72zM138 101q0 -19 13 -30.5t36 -11.5t36 11.5t13 30.5q0 20 -13 31.5t-36 11.5t-36 -11.5
t-13 -31.5zM143 246q0 -39 44 -39t44 39t-44 39t-44 -39z" />
    <glyph glyph-name="nine.denominator" unicode="&#xf65e;" horiz-adv-x="374" 
d="M34 95h104q1 -14 12 -23.5t28 -9.5q21 0 33.5 19t15.5 70q-17 -25 -77 -25q-53 0 -88.5 23.5t-35.5 79.5q0 55 42 89t106 34q166 0 166 -172q0 -188 -165 -188q-66 0 -102 27.5t-39 75.5zM177 191q19 0 31.5 12.5t12.5 34.5q0 23 -12 35.5t-32 12.5t-32 -12.5t-12 -35.5
t12 -35t32 -12z" />
    <glyph glyph-name="comma.denominator" unicode="&#xf65f;" horiz-adv-x="212" 
d="M54 0v109h104v-105l-33 -127h-53l26 123h-44z" />
    <glyph glyph-name="period.denominator" unicode="&#xf660;" horiz-adv-x="212" 
d="M54 0v109h104v-109h-104z" />
    <glyph glyph-name="zero.numerator" unicode="&#xf661;" horiz-adv-x="374" 
d="M187 336q-81 0 -124 49.5t-43 130.5t43 130.5t124 49.5t124 -49.5t43 -130.5t-43 -130.5t-124 -49.5zM187 421q58 0 58 95t-58 95t-58 -95t58 -95z" />
    <glyph glyph-name="one.numerator" unicode="&#xf662;" horiz-adv-x="374" 
d="M80 524l-43 75l154 89h67v-261h92v-83h-301v83h95v133z" />
    <glyph glyph-name="two.numerator" unicode="&#xf663;" horiz-adv-x="374" 
d="M26 344q0 76 33 117t92 66l14 6q39 17 55 27.5t16 24.5q0 34 -46 34q-51 0 -52 -50h-108q2 62 47 94.5t110 32.5q72 0 115 -29.5t43 -77.5q0 -43 -23.5 -67.5t-78.5 -47.5l-15 -7q-67 -28 -67 -40h181v-83h-316z" />
    <glyph glyph-name="three.numerator" unicode="&#xf664;" horiz-adv-x="374" 
d="M35 451h103q0 -48 49 -48q23 0 36 11.5t13 30.5q0 43 -54 43h-17v63h17q49 0 49 39t-44 39t-44 -44h-100q2 54 41 82.5t104 28.5q68 0 108.5 -27t40.5 -72q0 -61 -59 -76v-3q31 -7 49.5 -27.5t18.5 -51.5q0 -103 -159 -103q-148 0 -152 115z" />
    <glyph glyph-name="four.numerator" unicode="&#xf665;" horiz-adv-x="374" 
d="M18 400v59l188 232h98v-212h45v-79h-45v-56h-112v56h-174zM121 479h71v90z" />
    <glyph glyph-name="five.numerator" unicode="&#xf666;" horiz-adv-x="374" 
d="M34 436h109q6 -34 43 -34q20 0 32 12.5t12 35.5t-12 35t-32 12q-32 0 -42 -28l-100 12l14 207h261v-81h-173l-5 -67h4q22 22 73 22q49 0 84 -26t35 -83q0 -55 -41.5 -86t-105.5 -31q-144 0 -156 100z" />
    <glyph glyph-name="six.numerator" unicode="&#xf667;" horiz-adv-x="374" 
d="M336 593h-104q-1 14 -11 23.5t-26 9.5q-23 0 -36.5 -18t-16.5 -72q23 26 82 26q50 0 85 -26t35 -83q0 -55 -41.5 -86t-105.5 -31q-167 0 -167 172q0 98 45 143t123 45q65 0 100 -27t38 -76zM193 497q-19 0 -31.5 -12.5t-12.5 -34.5q0 -23 12 -35.5t32 -12.5t32 12.5
t12 35.5t-12 35t-32 12z" />
    <glyph glyph-name="seven.numerator" unicode="&#xf668;" horiz-adv-x="374" 
d="M73 344l147 254h-188v90h316v-65l-160 -279h-115z" />
    <glyph glyph-name="eight.numerator" unicode="&#xf669;" horiz-adv-x="374" 
d="M28 433q0 33 19 55.5t49 28.5v4q-59 15 -59 76q0 45 40.5 72t109.5 27t109.5 -27t40.5 -72q0 -61 -59 -76v-4q30 -6 49 -28.5t19 -55.5q0 -47 -41 -72t-118 -25t-118 25t-41 72zM138 445q0 -19 13 -30.5t36 -11.5t36 11.5t13 30.5q0 20 -13 31.5t-36 11.5t-36 -11.5
t-13 -31.5zM143 590q0 -39 44 -39t44 39t-44 39t-44 -39z" />
    <glyph glyph-name="nine.numerator" unicode="&#xf66a;" horiz-adv-x="374" 
d="M34 439h104q1 -14 12 -23.5t28 -9.5q21 0 33.5 19t15.5 70q-17 -25 -77 -25q-53 0 -88.5 23.5t-35.5 79.5q0 55 42 89t106 34q166 0 166 -172q0 -188 -165 -188q-66 0 -102 27.5t-39 75.5zM177 535q19 0 31.5 12.5t12.5 34.5q0 23 -12 35.5t-32 12.5t-32 -12.5t-12 -35.5
t12 -35t32 -12z" />
    <glyph glyph-name="comma.numerator" unicode="&#xf66b;" horiz-adv-x="212" 
d="M54 344v109h104v-105l-33 -127h-53l26 123h-44z" />
    <glyph glyph-name="period.numerator" unicode="&#xf66c;" horiz-adv-x="212" 
d="M54 344v109h104v-109h-104z" />
    <glyph glyph-name="abreve.sc" unicode="&#xf66d;" horiz-adv-x="593" 
d="M5 0l204 520h176l203 -520h-158l-32 92h-209l-32 -92h-152zM293 388l-67 -189h136l-65 189h-4zM297 604q-65 0 -109.5 37t-50.5 119h78q6 -36 27.5 -55.5t54.5 -19.5t55 20t28 55h78q-6 -82 -50.5 -119t-110.5 -37z" />
    <glyph glyph-name="amacron.sc" unicode="&#xf66e;" horiz-adv-x="593" 
d="M5 0l204 520h176l203 -520h-158l-32 92h-209l-32 -92h-152zM293 388l-67 -189h136l-65 189h-4zM141 634v96h309v-96h-309z" />
    <glyph glyph-name="aogonek.sc" unicode="&#xf66f;" horiz-adv-x="593" 
d="M434 -128q0 34 19.5 62.5t63.5 65.5h-87l-32 92h-209l-32 -92h-152l204 520h176l203 -520h-1q-60 -63 -60 -101q0 -40 47 -40h31v-79h-40q-131 0 -131 92zM293 388l-67 -189h136l-65 189h-4z" />
    <glyph glyph-name="aeacute.sc" unicode="&#xf670;" horiz-adv-x="924" 
d="M-6 0l382 520h488v-109h-283v-97h230v-103h-230v-102h294v-109h-443v89h-212l-62 -89h-164zM428 388l-133 -191h137v191h-4zM454 600l98 164h151l-149 -164h-100z" />
    <glyph glyph-name="cacute.sc" unicode="&#xf671;" horiz-adv-x="606" 
d="M36 260q0 122 77 197t209 75q102 0 170.5 -53t83.5 -141h-146q-24 73 -110 73q-61 0 -96.5 -41t-35.5 -110q0 -70 36 -110.5t96 -40.5q81 0 110 73h146q-15 -88 -83 -141t-174 -53q-132 0 -207.5 76t-75.5 196zM271 600l98 164h151l-149 -164h-100z" />
    <glyph glyph-name="ccaron.sc" unicode="&#xf672;" horiz-adv-x="606" 
d="M36 260q0 122 77 197t209 75q102 0 170.5 -53t83.5 -141h-146q-24 73 -110 73q-61 0 -96.5 -41t-35.5 -110q0 -70 36 -110.5t96 -40.5q81 0 110 73h146q-15 -88 -83 -141t-174 -53q-132 0 -207.5 76t-75.5 196zM269 600l-128 164h117l64 -93l65 93h117l-129 -164h-106z
" />
    <glyph glyph-name="ccircumflex.sc" unicode="&#xf673;" horiz-adv-x="606" 
d="M36 260q0 122 77 197t209 75q102 0 170.5 -53t83.5 -141h-146q-24 73 -110 73q-61 0 -96.5 -41t-35.5 -110q0 -70 36 -110.5t96 -40.5q81 0 110 73h146q-15 -88 -83 -141t-174 -53q-132 0 -207.5 76t-75.5 196zM141 600l128 164h106l129 -164h-117l-65 93l-64 -93h-117z
" />
    <glyph glyph-name="cdotaccent.sc" unicode="&#xf674;" horiz-adv-x="606" 
d="M36 260q0 122 77 197t209 75q102 0 170.5 -53t83.5 -141h-146q-24 73 -110 73q-61 0 -96.5 -41t-35.5 -110q0 -70 36 -110.5t96 -40.5q81 0 110 73h146q-15 -88 -83 -141t-174 -53q-132 0 -207.5 76t-75.5 196zM256 625v128h132v-128h-132z" />
    <glyph glyph-name="dcaron.sc" unicode="&#xf675;" horiz-adv-x="636" 
d="M77 0v520h244q133 0 206 -71t73 -189q0 -115 -73.5 -187.5t-205.5 -72.5h-244zM299 405h-73v-290h73q76 0 112 40.5t36 104.5q0 66 -35.5 105.5t-112.5 39.5zM248 600l-128 164h117l64 -93l65 93h117l-129 -164h-106z" />
    <glyph glyph-name="dcroat.sc" unicode="&#xf676;" horiz-adv-x="636" 
d="M4 222v76h73v222h244q133 0 206 -71t73 -189q0 -115 -73.5 -187.5t-205.5 -72.5h-244v222h-73zM299 405h-73v-107h102v-76h-102v-107h73q76 0 112 40.5t36 104.5q0 66 -35.5 105.5t-112.5 39.5z" />
    <glyph glyph-name="ebreve.sc" unicode="&#xf677;" 
d="M77 0v520h432v-109h-283v-97h230v-103h-230v-102h294v-109h-443zM293 604q-65 0 -109.5 37t-50.5 119h78q6 -36 27.5 -55.5t54.5 -19.5t55 20t28 55h78q-6 -82 -50.5 -119t-110.5 -37z" />
    <glyph glyph-name="ecaron.sc" unicode="&#xf678;" 
d="M77 0v520h432v-109h-283v-97h230v-103h-230v-102h294v-109h-443zM240 600l-128 164h117l64 -93l65 93h117l-129 -164h-106z" />
    <glyph glyph-name="edotaccent.sc" unicode="&#xf679;" 
d="M77 0v520h432v-109h-283v-97h230v-103h-230v-102h294v-109h-443zM227 625v128h132v-128h-132z" />
    <glyph glyph-name="emacron.sc" unicode="&#xf67a;" 
d="M77 0v520h432v-109h-283v-97h230v-103h-230v-102h294v-109h-443zM137 634v96h309v-96h-309z" />
    <glyph glyph-name="eng.sc" unicode="&#xf67b;" horiz-adv-x="664" 
d="M77 0v520h127l234 -286h5l-5 286h149v-535q0 -112 -45.5 -158.5t-155.5 -46.5h-59v113h39q39 0 58.5 20.5t19.5 69.5v41l-218 262h-5l5 -286h-149z" />
    <glyph glyph-name="eogonek.sc" unicode="&#xf67c;" 
d="M77 0v520h432v-109h-283v-97h230v-103h-230v-102h294v-109h1q-60 -63 -60 -101q0 -40 47 -40h31v-79h-40q-131 0 -131 92q0 34 19.5 62.5t63.5 65.5h-374z" />
    <glyph glyph-name="gbreve.sc" unicode="&#xf67d;" horiz-adv-x="657" 
d="M338 190v100h251v-290h-95l-9 47h-2q-56 -59 -159 -59q-130 0 -207 76t-77 196q0 119 80.5 195.5t214.5 76.5q107 0 175 -51.5t79 -127.5h-147q-8 23 -36 41.5t-71 18.5q-65 0 -104 -42t-39 -111q0 -72 39 -114t106 -42q50 0 83.5 23.5t37.5 62.5h-120zM335 604
q-65 0 -109.5 37t-50.5 119h78q6 -36 27.5 -55.5t54.5 -19.5t55 20t28 55h78q-6 -82 -50.5 -119t-110.5 -37z" />
    <glyph glyph-name="gcircumflex.sc" unicode="&#xf67e;" horiz-adv-x="657" 
d="M338 190v100h251v-290h-95l-9 47h-2q-56 -59 -159 -59q-130 0 -207 76t-77 196q0 119 80.5 195.5t214.5 76.5q107 0 175 -51.5t79 -127.5h-147q-8 23 -36 41.5t-71 18.5q-65 0 -104 -42t-39 -111q0 -72 39 -114t106 -42q50 0 83.5 23.5t37.5 62.5h-120zM154 600l128 164
h106l129 -164h-117l-65 93l-64 -93h-117z" />
    <glyph glyph-name="gcommaaccent.sc" unicode="&#xf67f;" horiz-adv-x="657" 
d="M338 190v100h251v-290h-95l-9 47h-2q-56 -59 -159 -59q-130 0 -207 76t-77 196q0 119 80.5 195.5t214.5 76.5q107 0 175 -51.5t79 -127.5h-147q-8 23 -36 41.5t-71 18.5q-65 0 -104 -42t-39 -111q0 -72 39 -114t106 -42q50 0 83.5 23.5t37.5 62.5h-120zM258 -57h132v-93
l-55 -112h-60l39 98h-56v107z" />
    <glyph glyph-name="gdotaccent.sc" unicode="&#xf680;" horiz-adv-x="657" 
d="M338 190v100h251v-290h-95l-9 47h-2q-56 -59 -159 -59q-130 0 -207 76t-77 196q0 119 80.5 195.5t214.5 76.5q107 0 175 -51.5t79 -127.5h-147q-8 23 -36 41.5t-71 18.5q-65 0 -104 -42t-39 -111q0 -72 39 -114t106 -42q50 0 83.5 23.5t37.5 62.5h-120zM269 625v128h132
v-128h-132z" />
    <glyph glyph-name="hbar.sc" unicode="&#xf681;" horiz-adv-x="664" 
d="M9 386v75h68v59h149v-59h212v59h149v-59h68v-75h-68v-386h-149v202h-212v-202h-149v386h-68zM226 386v-64h212v64h-212z" />
    <glyph glyph-name="hcircumflex.sc" unicode="&#xf682;" horiz-adv-x="664" 
d="M77 0v520h149v-198h212v198h149v-520h-149v202h-212v-202h-149zM151 600l128 164h106l129 -164h-117l-65 93l-64 -93h-117z" />
    <glyph glyph-name="ibreve.sc" unicode="&#xf683;" horiz-adv-x="303" 
d="M77 0v520h149v-520h-149zM151 604q-65 0 -109.5 37t-50.5 119h78q6 -36 27.5 -55.5t54.5 -19.5t55 20t28 55h78q-6 -82 -50.5 -119t-110.5 -37z" />
    <glyph glyph-name="ij.sc" unicode="&#xf684;" horiz-adv-x="811" 
d="M77 0v520h149v-520h-149zM341 169v21h145v-28q0 -28 14.5 -43.5t40.5 -15.5t40.5 16t14.5 44v357h149v-332q0 -200 -204 -200q-93 0 -146.5 45t-53.5 136z" />
    <glyph glyph-name="imacron.sc" unicode="&#xf685;" horiz-adv-x="303" 
d="M77 0v520h149v-520h-149zM-5 634v96h309v-96h-309z" />
    <glyph glyph-name="iogonek.sc" unicode="&#xf686;" horiz-adv-x="303" 
d="M77 0v520h149v-520q-60 -63 -60 -101q0 -40 47 -40h31v-79h-40q-131 0 -131 92q0 34 19.5 62.5t63.5 65.5h-79z" />
    <glyph glyph-name="itilde.sc" unicode="&#xf687;" horiz-adv-x="303" 
d="M77 0v520h149v-520h-149zM-29 614q1 64 28.5 98.5t78.5 34.5q32 0 82.5 -21t68.5 -21q32 0 36 48h67q-1 -64 -28.5 -98.5t-78.5 -34.5q-33 0 -83.5 21t-67.5 21q-34 0 -36 -48h-67z" />
    <glyph glyph-name="jcircumflex.sc" unicode="&#xf688;" horiz-adv-x="505" 
d="M37 169v21h145v-30q0 -27 14.5 -42t40.5 -15t40.5 15.5t14.5 43.5v358h149v-332q0 -200 -204 -200q-93 0 -146.5 45t-53.5 136zM187 600l128 164h106l129 -164h-117l-65 93l-64 -93h-117z" />
    <glyph glyph-name="kcommaaccent.sc" unicode="&#xf689;" horiz-adv-x="621" 
d="M77 0v520h149v-215l197 215h170l-213 -225l231 -295h-173l-152 196l-60 -64v-132h-149zM259 -57h132v-93l-55 -112h-60l39 98h-56v107z" />
    <glyph glyph-name="lacute.sc" unicode="&#xf68a;" horiz-adv-x="505" 
d="M77 0v520h149v-399h254v-121h-403zM99 600l98 164h151l-149 -164h-100z" />
    <glyph glyph-name="lcaron.sc" unicode="&#xf68b;" horiz-adv-x="505" 
d="M77 0v520h149v-400h254v-120h-403zM334 315l38 98h-55v107h132v-93l-56 -112h-59z" />
    <glyph glyph-name="lcommaaccent.sc" unicode="&#xf68c;" horiz-adv-x="505" 
d="M77 0v520h149v-399h254v-121h-403zM215 -57h132v-93l-55 -112h-60l39 98h-56v107z" />
    <glyph glyph-name="ldot.sc" unicode="&#xf68d;" horiz-adv-x="505" 
d="M77 0v520h149v-400h254v-120h-403zM296 228v128h132v-128h-132z" />
    <glyph glyph-name="nacute.sc" unicode="&#xf68e;" horiz-adv-x="664" 
d="M77 0v520h127l234 -288h5l-5 288h149v-520h-124l-237 288h-5l5 -288h-149zM281 600l98 164h151l-149 -164h-100z" />
    <glyph glyph-name="ncaron.sc" unicode="&#xf68f;" horiz-adv-x="664" 
d="M77 0v520h127l234 -288h5l-5 288h149v-520h-124l-237 288h-5l5 -288h-149zM279 600l-128 164h117l64 -93l65 93h117l-129 -164h-106z" />
    <glyph glyph-name="ncommaaccent.sc" unicode="&#xf690;" horiz-adv-x="664" 
d="M77 0v520h127l234 -288h5l-5 288h149v-520h-124l-237 288h-5l5 -288h-149zM266 -57h132v-93l-55 -112h-60l39 98h-56v107z" />
    <glyph glyph-name="obreve.sc" unicode="&#xf691;" horiz-adv-x="660" 
d="M36 260q0 119 80.5 195.5t213.5 76.5q131 0 212.5 -77t81.5 -195q0 -119 -81 -195.5t-213 -76.5q-131 0 -212.5 77t-81.5 195zM188 260q0 -66 39.5 -108.5t102.5 -42.5t102 42t39 109q0 66 -39.5 108.5t-101.5 42.5q-63 0 -102.5 -42t-39.5 -109zM330 604
q-65 0 -109.5 37t-50.5 119h78q6 -36 27.5 -55.5t54.5 -19.5t55 20t28 55h78q-6 -82 -50.5 -119t-110.5 -37z" />
    <glyph glyph-name="ohungarumlaut.sc" unicode="&#xf692;" horiz-adv-x="660" 
d="M36 260q0 119 80.5 195.5t213.5 76.5q131 0 212.5 -77t81.5 -195q0 -119 -81 -195.5t-213 -76.5q-131 0 -212.5 77t-81.5 195zM188 260q0 -66 39.5 -108.5t102.5 -42.5t102 42t39 109q0 66 -39.5 108.5t-101.5 42.5q-63 0 -102.5 -42t-39.5 -109zM384 600l98 164h151
l-150 -164h-99zM176 600l98 164h151l-149 -164h-100z" />
    <glyph glyph-name="omacron.sc" unicode="&#xf693;" horiz-adv-x="660" 
d="M36 260q0 119 80.5 195.5t213.5 76.5q131 0 212.5 -77t81.5 -195q0 -119 -81 -195.5t-213 -76.5q-131 0 -212.5 77t-81.5 195zM188 260q0 -66 39.5 -108.5t102.5 -42.5t102 42t39 109q0 66 -39.5 108.5t-101.5 42.5q-63 0 -102.5 -42t-39.5 -109zM174 634v96h309v-96
h-309z" />
    <glyph glyph-name="oslashacute.sc" unicode="&#xf694;" horiz-adv-x="660" 
d="M52 -12l66 76q-82 77 -82 196t80.5 195.5t213.5 76.5q88 0 158 -38l33 38h88l-67 -77q82 -77 82 -195q0 -119 -81 -195.5t-213 -76.5q-90 0 -158 37l-32 -37h-88zM188 260q0 -50 23 -87l190 220q-34 18 -71 18q-63 0 -102.5 -42t-39.5 -109zM471 260q0 49 -23 86
l-189 -220q32 -17 71 -17q63 0 102 42t39 109zM279 600l98 164h151l-149 -164h-100z" />
    <glyph glyph-name="racute.sc" unicode="&#xf695;" horiz-adv-x="618" 
d="M77 0v520h282q98 0 150.5 -45.5t52.5 -125.5q0 -57 -27.5 -99.5t-80.5 -62.5l132 -187h-161l-115 171h-84v-171h-149zM337 411h-111v-133h111q35 0 54 18t19 50q0 30 -19 47.5t-54 17.5zM246 600l98 164h151l-149 -164h-100z" />
    <glyph glyph-name="rcaron.sc" unicode="&#xf696;" horiz-adv-x="618" 
d="M77 0v520h282q98 0 150.5 -45.5t52.5 -125.5q0 -57 -27.5 -99.5t-80.5 -62.5l132 -187h-161l-115 171h-84v-171h-149zM337 411h-111v-133h111q35 0 54 18t19 50q0 30 -19 47.5t-54 17.5zM244 600l-128 164h117l64 -93l65 93h117l-129 -164h-106z" />
    <glyph glyph-name="rcommaaccent.sc" unicode="&#xf697;" horiz-adv-x="618" 
d="M77 0v520h282q98 0 150.5 -45.5t52.5 -125.5q0 -57 -27.5 -99.5t-80.5 -62.5l132 -187h-161l-115 171h-84v-171h-149zM337 411h-111v-133h111q35 0 54 18t19 50q0 30 -19 47.5t-54 17.5zM254 -57h132v-93l-55 -112h-60l39 98h-56v107z" />
    <glyph glyph-name="sacute.sc" unicode="&#xf698;" horiz-adv-x="567" 
d="M38 151h146q0 -31 25 -47t70 -16q95 0 95 59q0 20 -18 31.5t-47 16.5t-64 9t-69.5 13t-63.5 24t-47 45.5t-18 74.5q0 76 61.5 123.5t174.5 47.5q109 0 167 -43.5t58 -115.5h-142q0 29 -23.5 44t-59.5 15q-87 0 -87 -55q0 -23 24.5 -35.5t61.5 -16.5t79.5 -12.5t79.5 -21
t61.5 -45.5t24.5 -83q0 -81 -63.5 -128t-184.5 -47q-117 0 -179 43t-62 120zM232 600l98 164h151l-149 -164h-100z" />
    <glyph glyph-name="scedilla.sc" unicode="&#xf699;" horiz-adv-x="567" 
d="M224 -90l29 79q-105 4 -160 46.5t-55 115.5h146q0 -31 25 -47t70 -16q95 0 95 59q0 20 -18 31.5t-47 16.5t-64 9t-69.5 13t-63.5 24t-47 45.5t-18 74.5q0 76 61.5 123.5t174.5 47.5q109 0 167 -43.5t58 -115.5h-142q0 29 -23.5 44t-59.5 15q-87 0 -87 -55
q0 -23 24.5 -35.5t61.5 -16.5t79.5 -12.5t79.5 -21t61.5 -45.5t24.5 -83q0 -77 -57 -123.5t-166 -50.5v-28q44 -1 68 -25t24 -60q0 -42 -30 -69t-89 -27h-73v64h55q44 0 44 35q0 31 -44 31h-35z" />
    <glyph glyph-name="scircumflex.sc" unicode="&#xf69a;" horiz-adv-x="567" 
d="M38 151h146q0 -31 25 -47t70 -16q95 0 95 59q0 20 -18 31.5t-47 16.5t-64 9t-69.5 13t-63.5 24t-47 45.5t-18 74.5q0 76 61.5 123.5t174.5 47.5q109 0 167 -43.5t58 -115.5h-142q0 29 -23.5 44t-59.5 15q-87 0 -87 -55q0 -23 24.5 -35.5t61.5 -16.5t79.5 -12.5t79.5 -21
t61.5 -45.5t24.5 -83q0 -81 -63.5 -128t-184.5 -47q-117 0 -179 43t-62 120zM102 600l128 164h106l129 -164h-117l-65 93l-64 -93h-117z" />
    <glyph glyph-name="scommaaccent.sc" unicode="&#xf69b;" horiz-adv-x="567" 
d="M38 151h146q0 -31 25 -47t70 -16q95 0 95 59q0 20 -18 31.5t-47 16.5t-64 9t-69.5 13t-63.5 24t-47 45.5t-18 74.5q0 76 61.5 123.5t174.5 47.5q109 0 167 -43.5t58 -115.5h-142q0 29 -23.5 44t-59.5 15q-87 0 -87 -55q0 -23 24.5 -35.5t61.5 -16.5t79.5 -12.5t79.5 -21
t61.5 -45.5t24.5 -83q0 -81 -63.5 -128t-184.5 -47q-117 0 -179 43t-62 120zM213 -57h132v-93l-55 -112h-60l39 98h-56v107z" />
    <glyph glyph-name="tbar.sc" unicode="&#xf69c;" horiz-adv-x="551" 
d="M26 400v120h499v-120h-175v-149h132v-75h-132v-176h-149v176h-130v75h130v149h-175z" />
    <glyph glyph-name="tcaron.sc" unicode="&#xf69d;" horiz-adv-x="551" 
d="M26 400v120h499v-120h-175v-400h-149v400h-175zM222 600l-128 164h117l64 -93l65 93h117l-129 -164h-106z" />
    <glyph glyph-name="tcommaaccent.sc" unicode="&#xf69e;" horiz-adv-x="551" 
d="M222 -90l34 90h-55v400h-175v120h499v-120h-175v-400h-48v-39q44 -1 68 -25t24 -60q0 -42 -30 -69t-89 -27h-73v64h55q44 0 44 35q0 31 -44 31h-35z" />
    <glyph glyph-name="ubreve.sc" unicode="&#xf69f;" horiz-adv-x="632" 
d="M61 214v306h149v-301q0 -51 27 -79t78 -28q52 0 79.5 28t27.5 79v301h149v-306q0 -122 -67.5 -174t-188.5 -52q-120 0 -187 52t-67 174zM316 604q-65 0 -109.5 37t-50.5 119h78q6 -36 27.5 -55.5t54.5 -19.5t55 20t28 55h78q-6 -82 -50.5 -119t-110.5 -37z" />
    <glyph glyph-name="uhungarumlaut.sc" unicode="&#xf6a0;" horiz-adv-x="632" 
d="M61 214v306h149v-301q0 -51 27 -79t78 -28q52 0 79.5 28t27.5 79v301h149v-306q0 -122 -67.5 -174t-188.5 -52q-120 0 -187 52t-67 174zM370 600l98 164h151l-150 -164h-99zM162 600l98 164h151l-149 -164h-100z" />
    <glyph glyph-name="umacron.sc" unicode="&#xf6a1;" horiz-adv-x="632" 
d="M61 214v306h149v-301q0 -51 27 -79t78 -28q52 0 79.5 28t27.5 79v301h149v-306q0 -122 -67.5 -174t-188.5 -52q-120 0 -187 52t-67 174zM160 634v96h309v-96h-309z" />
    <glyph glyph-name="uogonek.sc" unicode="&#xf6a2;" horiz-adv-x="632" 
d="M252 -121q0 62 77 109h-14q-121 0 -187.5 51.5t-66.5 174.5v306h149v-301q0 -51 27 -79t78 -28q52 0 79.5 28t27.5 79v301h149v-306q0 -146 -109 -200q-116 -57 -116 -114q0 -41 47 -41h31v-79h-40q-132 0 -132 99z" />
    <glyph glyph-name="uring.sc" unicode="&#xf6a3;" horiz-adv-x="632" 
d="M61 214v306h149v-301q0 -51 27 -79t78 -28q52 0 79.5 28t27.5 79v301h149v-306q0 -122 -67.5 -174t-188.5 -52q-120 0 -187 52t-67 174zM316 582q-48 0 -79.5 30t-31.5 74q0 46 32 75.5t79 29.5t79 -29.5t32 -75.5q0 -44 -31.5 -74t-79.5 -30zM316 640q19 0 33 13t14 33
t-14 33.5t-33 13.5t-32.5 -13t-13.5 -34q0 -20 13.5 -33t32.5 -13z" />
    <glyph glyph-name="utilde.sc" unicode="&#xf6a4;" horiz-adv-x="632" 
d="M61 214v306h149v-301q0 -51 27 -79t78 -28q52 0 79.5 28t27.5 79v301h149v-306q0 -122 -67.5 -174t-188.5 -52q-120 0 -187 52t-67 174zM136 614q1 64 28.5 98.5t78.5 34.5q32 0 82.5 -21t68.5 -21q32 0 36 48h67q-1 -64 -28.5 -98.5t-78.5 -34.5q-33 0 -83.5 21
t-67.5 21q-34 0 -36 -48h-67z" />
    <glyph glyph-name="wacute.sc" unicode="&#xf6a5;" horiz-adv-x="830" 
d="M142 0l-132 520h159l78 -369h4l101 369h131l104 -369h4l71 369h157l-133 -520h-181l-86 325h-4l-89 -325h-184zM365 600l98 164h151l-149 -164h-100z" />
    <glyph glyph-name="wcircumflex.sc" unicode="&#xf6a6;" horiz-adv-x="830" 
d="M142 0l-132 520h159l78 -369h4l101 369h131l104 -369h4l71 369h157l-133 -520h-181l-86 325h-4l-89 -325h-184zM235 600l128 164h106l129 -164h-117l-65 93l-64 -93h-117z" />
    <glyph glyph-name="wdieresis.sc" unicode="&#xf6a7;" horiz-adv-x="830" 
d="M142 0l-132 520h159l78 -369h4l101 369h131l104 -369h4l71 369h157l-133 -520h-181l-86 325h-4l-89 -325h-184zM464 625v128h132v-128h-132zM236 625v128h133v-128h-133z" />
    <glyph glyph-name="wgrave.sc" unicode="&#xf6a8;" horiz-adv-x="830" 
d="M142 0l-132 520h159l78 -369h4l101 369h131l104 -369h4l71 369h157l-133 -520h-181l-86 325h-4l-89 -325h-184zM368 600l-150 164h151l99 -164h-100z" />
    <glyph glyph-name="ycircumflex.sc" unicode="&#xf6a9;" horiz-adv-x="581" 
d="M216 0v192l-212 328h167l120 -197h3l127 197h156l-213 -324v-196h-148zM110 600l128 164h106l129 -164h-117l-65 93l-64 -93h-117z" />
    <glyph glyph-name="ygrave.sc" unicode="&#xf6aa;" horiz-adv-x="581" 
d="M216 0v192l-212 328h167l120 -197h3l127 197h156l-213 -324v-196h-148zM243 600l-150 164h151l99 -164h-100z" />
    <glyph glyph-name="zacute.sc" unicode="&#xf6ab;" horiz-adv-x="538" 
d="M41 403v117h460v-81l-259 -322h258v-117h-466v81l263 322h-256zM218 600l98 164h151l-149 -164h-100z" />
    <glyph glyph-name="zdotaccent.sc" unicode="&#xf6ac;" horiz-adv-x="538" 
d="M41 403v117h460v-81l-259 -322h258v-117h-466v81l263 322h-256zM203 625v128h132v-128h-132z" />
    <glyph glyph-name="idotaccent.sc" unicode="&#xf6ad;" horiz-adv-x="303" 
d="M77 0v520h149v-520h-149zM85 625v128h132v-128h-132z" />
    <glyph glyph-name="parenleft.cap" unicode="&#xf6ae;" horiz-adv-x="357" 
d="M209 -64q-59 77 -99.5 183.5t-40.5 224.5t40.5 224.5t99.5 183.5h135q-56 -80 -96 -187t-40 -221t40 -221t96 -187h-135z" />
    <glyph glyph-name="parenright.cap" unicode="&#xf6af;" horiz-adv-x="357" 
d="M13 -64q56 80 96 187t40 221t-40 221t-96 187h135q59 -77 99.5 -183.5t40.5 -224.5t-40.5 -224.5t-99.5 -183.5h-135z" />
    <glyph glyph-name="bracketleft.cap" unicode="&#xf6b0;" horiz-adv-x="357" 
d="M69 -64v816h275v-113h-140v-590h140v-113h-275z" />
    <glyph glyph-name="bracketright.cap" unicode="&#xf6b1;" horiz-adv-x="357" 
d="M13 49h140v590h-140v113h275v-816h-275v113z" />
    <glyph glyph-name="braceleft.cap" unicode="&#xf6b2;" horiz-adv-x="397" 
d="M121 96v88q0 58 -23 82.5t-89 24.5v110q66 0 89 24.5t23 82.5v84q0 84 43 122t143 38h77v-112h-51q-44 0 -60.5 -17t-16.5 -63v-93q0 -47 -23 -75.5t-77 -43.5v-4q54 -15 77 -42.5t23 -74.5v-99q0 -46 16.5 -63t60.5 -17h51v-112h-77q-100 0 -143 38t-43 122z" />
    <glyph glyph-name="braceright.cap" unicode="&#xf6b3;" horiz-adv-x="397" 
d="M13 48h51q44 0 60.5 17t16.5 63v99q0 47 23 74.5t77 42.5v4q-54 15 -77 43.5t-23 75.5v93q0 46 -16.5 63t-60.5 17h-51v112h77q101 0 143.5 -38t42.5 -122v-84q0 -58 23 -82.5t89 -24.5v-110q-66 0 -89 -24.5t-23 -82.5v-88q0 -84 -42.5 -122t-143.5 -38h-77v112z" />
    <glyph glyph-name="exclamdown.cap" unicode="&#xf6b4;" horiz-adv-x="291" 
d="M71 544v144h149v-144h-149zM66 0v186l36 291h87l36 -291v-186h-159z" />
    <glyph glyph-name="questiondown.cap" unicode="&#xf6b5;" horiz-adv-x="523" 
d="M197 544v144h148v-144h-148zM21 179q0 39 13.5 70t33.5 49.5t43.5 37t43.5 32.5t33.5 36t13.5 48v23h138v-22q0 -49 -17.5 -85.5t-43 -57.5t-51 -38t-43 -38t-17.5 -48q0 -35 24 -58t67 -23q54 0 79 29.5t25 73.5h141q0 -94 -60.5 -157t-184.5 -63q-109 0 -173.5 50.5
t-64.5 140.5z" />
    <glyph glyph-name="guillemotleft.cap" unicode="&#xf6b6;" horiz-adv-x="587" 
d="M418 144l-141 204l141 204h122l-110 -204l110 -204h-122zM188 144l-142 204l142 204h121l-110 -204l110 -204h-121z" />
    <glyph glyph-name="guillemotright.cap" unicode="&#xf6b7;" horiz-adv-x="587" 
d="M277 144l111 204l-111 204h122l141 -204l-141 -204h-122zM46 144l111 204l-111 204h122l141 -204l-141 -204h-122z" />
    <glyph glyph-name="guilsinglleft.cap" unicode="&#xf6b8;" horiz-adv-x="359" 
d="M190 144l-144 204l144 204h122l-110 -204l110 -204h-122z" />
    <glyph glyph-name="guilsinglright.cap" unicode="&#xf6b9;" horiz-adv-x="359" 
d="M46 144l111 204l-111 204h122l144 -204l-144 -204h-122z" />
    <glyph glyph-name="hyphen.cap" unicode="&#xf6ba;" horiz-adv-x="396" 
d="M49 286v124h298v-124h-298z" />
    <glyph glyph-name="endash.cap" unicode="&#xf6bb;" horiz-adv-x="556" 
d="M49 286v124h458v-124h-458z" />
    <glyph glyph-name="emdash.cap" unicode="&#xf6bc;" horiz-adv-x="840" 
d="M49 286v124h742v-124h-742z" />
    <glyph glyph-name="periodcentered.cap" unicode="&#xf6bd;" horiz-adv-x="292" 
d="M68 275v146h150v-146h-150z" />
    <glyph glyph-name="dotlessj" unicode="&#xf6be;" horiz-adv-x="284" 
d="M68 -33v521h148v-526q0 -93 -41 -137.5t-147 -44.5h-46v112h27q33 0 46 17.5t13 57.5z" />
    <glyph glyph-name="space_uni0326" unicode="&#xf6c3;" horiz-adv-x="599" 
d="M233 -57h132v-93l-55 -112h-60l39 98h-56v107z" />
    <glyph glyph-name="cent.inferior" unicode="&#xf6df;" horiz-adv-x="374" 
d="M30 17q0 52 31 84.5t88 41.5v57h81v-57q53 -8 81.5 -36.5t32.5 -64.5h-110q-6 34 -43 34q-50 0 -50 -59t50 -59q37 0 43 34h110q-4 -36 -32.5 -64.5t-81.5 -36.5v-51h-81v51q-57 8 -88 40.5t-31 85.5z" />
    <glyph glyph-name="cent.superior" unicode="&#xf6e0;" horiz-adv-x="374" 
d="M30 665q0 52 31 84.5t88 41.5v57h81v-57q53 -8 81.5 -36.5t32.5 -64.5h-110q-6 34 -43 34q-50 0 -50 -59t50 -59q37 0 43 34h110q-4 -36 -32.5 -64.5t-81.5 -36.5v-51h-81v51q-57 8 -88 40.5t-31 85.5z" />
    <glyph glyph-name="comma.inferior" unicode="&#xf6e1;" horiz-adv-x="212" 
d="M54 -152v109h104v-105l-33 -127h-53l26 123h-44z" />
    <glyph glyph-name="comma.superior" unicode="&#xf6e2;" horiz-adv-x="212" 
d="M54 496v109h104v-105l-33 -127h-53l26 123h-44z" />
    <glyph glyph-name="dollar.inferior" unicode="&#xf6e3;" horiz-adv-x="374" 
d="M28 -52h102q3 -42 57 -42q51 0 51 34q0 17 -21 25t-51 12.5t-60.5 13t-51.5 32.5t-21 63q0 42 29.5 72t84.5 39v55h80v-55q50 -9 78.5 -36t31.5 -65h-104q-1 16 -13.5 26t-32.5 10q-47 0 -47 -34q0 -15 15 -23.5t38 -11.5t49.5 -9.5t49.5 -15t38 -30.5t15 -54
q0 -99 -118 -112v-62h-80v62q-116 13 -119 106z" />
    <glyph glyph-name="dollar.superior" unicode="&#xf6e4;" horiz-adv-x="374" 
d="M28 596h102q3 -42 57 -42q51 0 51 34q0 17 -21 25t-51 12.5t-60.5 13t-51.5 32.5t-21 63q0 42 29.5 72t84.5 39v55h80v-55q50 -9 78.5 -36t31.5 -65h-104q-1 16 -13.5 26t-32.5 10q-47 0 -47 -34q0 -15 15 -23.5t38 -11.5t49.5 -9.5t49.5 -15t38 -30.5t15 -54
q0 -99 -118 -112v-62h-80v62q-116 13 -119 106z" />
    <glyph glyph-name="hyphen.inferior" unicode="&#xf6e5;" horiz-adv-x="293" 
d="M33 -20v84h226v-84h-226z" />
    <glyph glyph-name="hyphen.superior" unicode="&#xf6e6;" horiz-adv-x="293" 
d="M33 628v84h226v-84h-226z" />
    <glyph glyph-name="period.inferior" unicode="&#xf6e7;" horiz-adv-x="212" 
d="M54 -152v109h104v-109h-104z" />
    <glyph glyph-name="period.superior" unicode="&#xf6e8;" horiz-adv-x="212" 
d="M54 496v109h104v-109h-104z" />
    <glyph glyph-name="a.superior" unicode="&#xf6e9;" horiz-adv-x="413" 
d="M33 585q0 91 116 107l64 8q25 3 34.5 9.5t9.5 21.5q0 18 -13 29.5t-37 11.5q-53 0 -57 -49h-104q4 64 49 94.5t112 30.5q163 0 163 -135v-217h-109v40h-4q-33 -48 -108 -48q-56 0 -86 26t-30 71zM192 563q27 0 46 16t19 51v27q-7 -11 -30 -14l-39 -5q-42 -5 -42 -38
q0 -37 46 -37z" />
    <glyph glyph-name="b.superior" unicode="&#xf6ea;" horiz-adv-x="448" 
d="M44 496v516h113v-109q0 -58 -4 -113h4q29 58 113 58q62 0 105 -45.5t43 -130.5q0 -89 -45.5 -136.5t-110.5 -47.5q-78 0 -105 58h-4v-50h-109zM157 668q0 -43 19.5 -68.5t53.5 -25.5t53 26.5t19 71.5q0 40 -19.5 65t-52.5 25q-34 0 -53.5 -25.5t-19.5 -68.5z" />
    <glyph glyph-name="d.superior" unicode="&#xf6eb;" horiz-adv-x="447" 
d="M29 664q0 88 46 136t110 48q79 0 106 -58h3q-3 56 -3 123v99h113v-516h-109v50h-4q-27 -58 -113 -58q-62 0 -105.5 45.5t-43.5 130.5zM146 664q0 -41 19 -65.5t53 -24.5q32 0 51.5 23t21.5 62v9q0 43 -19.5 68.5t-53.5 25.5t-53 -26.5t-19 -71.5z" />
    <glyph glyph-name="e.superior" unicode="&#xf6ec;" horiz-adv-x="427" 
d="M29 668q0 81 51.5 130.5t134.5 49.5q85 0 134 -47t49 -135v-24h-253q9 -73 76 -73q49 0 63 31h109q-10 -50 -56 -81t-121 -31q-86 0 -136.5 49t-50.5 131zM215 768q-56 0 -69 -60h134q-10 60 -65 60z" />
    <glyph glyph-name="i.superior" unicode="&#xf6ed;" horiz-adv-x="198" 
d="M39 907v105h120v-105h-120zM42 496v344h114v-344h-114z" />
    <glyph glyph-name="l.superior" unicode="&#xf6ee;" horiz-adv-x="201" 
d="M44 496v516h113v-516h-113z" />
    <glyph glyph-name="m.superior" unicode="&#xf6ef;" horiz-adv-x="655" 
d="M44 496v344h109v-49h4q29 57 104 57q83 0 112 -66q35 66 117 66q54 0 89.5 -32.5t35.5 -101.5v-218h-113v193q0 70 -53 70q-28 0 -45.5 -19.5t-17.5 -58.5v-185h-113v193q0 70 -53 70q-28 0 -45.5 -19.5t-17.5 -57.5v-186h-113z" />
    <glyph glyph-name="o.superior" unicode="&#xf6f0;" horiz-adv-x="438" 
d="M29 668q0 83 51 131.5t139 48.5q89 0 139.5 -48.5t50.5 -131.5t-51 -131.5t-139 -48.5t-139 48.5t-51 131.5zM146 668q0 -43 19 -68.5t54 -25.5t54 25.5t19 68.5t-19 68.5t-54 25.5t-54 -25.5t-19 -68.5z" />
    <glyph glyph-name="r.superior" unicode="&#xf6f1;" horiz-adv-x="303" 
d="M44 496v344h112v-64h3q28 72 89 72q29 0 48 -15l-17 -103q-19 12 -43 12q-38 0 -57 -33t-19 -84v-129h-116z" />
    <glyph glyph-name="s.superior" unicode="&#xf6f2;" horiz-adv-x="394" 
d="M26 600h104q2 -19 20 -30.5t46 -11.5q58 0 58 33q0 11 -8 18t-16.5 9t-25.5 5l-46 8q-65 8 -95.5 32t-30.5 70q0 55 45 85t119 30q72 0 114 -28.5t47 -78.5h-103q-9 37 -57 37q-55 0 -55 -30q0 -14 10.5 -20t39.5 -11l46 -8q68 -10 98.5 -31t30.5 -73q0 -58 -47.5 -87.5
t-123.5 -29.5t-121 29t-49 83z" />
    <glyph glyph-name="t.superior" unicode="&#xf6f3;" horiz-adv-x="284" 
d="M71 622v126h-63v92h63v104h114v-104h80v-92h-80v-107q0 -28 9 -38.5t37 -10.5h34v-96h-50q-83 0 -113.5 26.5t-30.5 99.5z" />
    <glyph glyph-name="lslash.sc" unicode="&#xf6f9;" horiz-adv-x="505" 
d="M25 109l-43 63l95 61v287h149v-191l101 65l43 -63l-144 -93v-118h254v-120h-403v142z" />
    <glyph glyph-name="oe.sc" unicode="&#xf6fa;" horiz-adv-x="902" 
d="M314 0q-133 0 -205.5 71t-72.5 189q0 115 73.5 187.5t205.5 72.5h528v-109h-284v-97h230v-103h-230v-102h294v-109h-539zM188 260q0 -65 36 -105t113 -40h73v290h-73q-76 0 -112.5 -40.5t-36.5 -104.5z" />
    <glyph glyph-name="scaron.sc" unicode="&#xf6fd;" horiz-adv-x="567" 
d="M38 151h146q0 -31 25 -47t70 -16q95 0 95 59q0 20 -18 31.5t-47 16.5t-64 9t-69.5 13t-63.5 24t-47 45.5t-18 74.5q0 76 61.5 123.5t174.5 47.5q109 0 167 -43.5t58 -115.5h-142q0 29 -23.5 44t-59.5 15q-87 0 -87 -55q0 -23 24.5 -35.5t61.5 -16.5t79.5 -12.5t79.5 -21
t61.5 -45.5t24.5 -83q0 -81 -63.5 -128t-184.5 -47q-117 0 -179 43t-62 120zM230 600l-128 164h117l64 -93l65 93h117l-129 -164h-106z" />
    <glyph glyph-name="zcaron.sc" unicode="&#xf6ff;" horiz-adv-x="538" 
d="M41 403v117h460v-81l-259 -322h258v-117h-466v81l263 322h-256zM216 600l-128 164h117l64 -93l65 93h117l-129 -164h-106z" />
    <glyph glyph-name="exclam.sc" unicode="&#xf721;" horiz-adv-x="280" 
d="M97 169l-31 213v138h148v-138l-31 -213h-86zM71 0v126h138v-126h-138z" />
    <glyph glyph-name="ampersand.sc" unicode="&#xf726;" horiz-adv-x="620" 
d="M34 137q0 85 118 141q-50 56 -50 111q0 60 45 99.5t134 39.5q88 0 130.5 -35t42.5 -96q0 -47 -32.5 -78t-90.5 -57l100 -90q16 34 16 78v10h118v-16q0 -85 -48 -150l104 -94h-158l-29 25q-68 -37 -161 -37q-239 0 -239 149zM274 82q41 0 77 16l-132 115q-52 -29 -52 -63
q0 -31 28 -49.5t79 -18.5zM225 395q0 -30 39 -69q71 31 71 67q0 24 -14.5 38t-40.5 14q-23 0 -39 -13.5t-16 -36.5z" />
    <glyph glyph-name="zero.oldstyle" unicode="&#xf730;" horiz-adv-x="623" 
d="M34 244q0 111 74.5 183.5t202.5 72.5q130 0 203.5 -72t73.5 -184q0 -111 -74.5 -183.5t-202.5 -72.5q-130 0 -203.5 72t-73.5 184zM182 244q0 -68 37 -106t92 -38q56 0 93 38t37 106t-37 106t-93 38q-55 0 -92 -38t-37 -106z" />
    <glyph glyph-name="one.oldstyle" unicode="&#xf731;" horiz-adv-x="407" 
d="M71 233l-59 103l224 152h93v-488h-149v306z" />
    <glyph glyph-name="two.oldstyle" unicode="&#xf732;" horiz-adv-x="539" 
d="M32 0q0 111 46.5 168.5t131.5 85.5l46 16q4 1 12 4q32 11 46.5 17t27 19t12.5 32q0 24 -19.5 40t-60.5 16q-42 0 -64.5 -22t-24.5 -61h-144q3 94 70.5 139.5t165.5 45.5q101 0 162 -42.5t61 -115.5q0 -38 -12.5 -65.5t-40 -45.5t-47.5 -26t-59 -21l-46 -16
q-87 -29 -90 -62h290v-106h-463z" />
    <glyph glyph-name="three.oldstyle" unicode="&#xf733;" horiz-adv-x="574" 
d="M20 8h147q0 -52 30 -81.5t83 -29.5q50 0 81 28t31 72t-30 72t-82 28h-50v115h50q42 0 69 26t27 65q0 40 -26.5 64t-69.5 24q-45 0 -71 -25t-26 -72h-138q0 99 64 152.5t171 53.5q106 0 172 -50.5t66 -136.5q0 -51 -29.5 -94.5t-76.5 -58.5v-4q59 -13 95 -58t36 -107
q0 -96 -73 -149.5t-190 -53.5q-120 0 -190 56t-70 164z" />
    <glyph glyph-name="four.oldstyle" unicode="&#xf734;" horiz-adv-x="583" 
d="M16 -36v92l333 443h126v-417h99v-118h-99v-164h-149v164h-310zM163 82h163v213z" />
    <glyph glyph-name="five.oldstyle" unicode="&#xf735;" horiz-adv-x="554" 
d="M29 -16h146q5 -32 32.5 -58t73.5 -26q47 0 77.5 31t30.5 82q0 52 -30.5 83.5t-76.5 31.5q-62 0 -99 -57l-130 12l26 405h419v-119h-290l-11 -166h5q39 37 113 37q91 0 157 -56t66 -164q0 -110 -72 -171t-180 -61q-119 0 -183.5 52t-73.5 144z" />
    <glyph glyph-name="six.oldstyle" unicode="&#xf736;" horiz-adv-x="600" 
d="M38 327q0 192 77 282.5t202 90.5q107 0 166.5 -51.5t68.5 -138.5h-143q-5 35 -28 56.5t-64 21.5q-54 0 -87 -46t-39 -165q19 28 60.5 45.5t92.5 17.5q92 0 158 -56.5t66 -164.5t-73.5 -169.5t-178.5 -61.5q-278 0 -278 339zM312 328q-49 0 -79 -31.5t-30 -84.5
q0 -50 30 -81t78 -31q49 0 79 31t30 84q0 50 -30.5 81.5t-77.5 31.5z" />
    <glyph glyph-name="seven.oldstyle" unicode="&#xf737;" horiz-adv-x="504" 
d="M66 -200l263 561h-313v127h472v-86l-270 -602h-152z" />
    <glyph glyph-name="eight.oldstyle" unicode="&#xf738;" horiz-adv-x="585" 
d="M28 187q0 64 37.5 111t92.5 58v4q-46 13 -75.5 54.5t-29.5 95.5q0 88 67 139t173 51t172.5 -51t66.5 -139q0 -53 -29.5 -95t-75.5 -55v-4q55 -11 92.5 -58t37.5 -111q0 -95 -71.5 -147t-192.5 -52q-122 0 -193.5 52t-71.5 147zM179 197q0 -45 31 -72.5t83 -27.5
q51 0 82 27.5t31 72.5q0 44 -31 72t-82 28t-82.5 -28t-31.5 -72zM293 412q42 0 69.5 25.5t27.5 65.5q0 39 -27.5 64t-69.5 25q-43 0 -70.5 -24.5t-27.5 -64.5t27.5 -65.5t70.5 -25.5z" />
    <glyph glyph-name="nine.oldstyle" unicode="&#xf739;" horiz-adv-x="598" 
d="M561 162q0 -194 -75.5 -284t-202.5 -90q-107 0 -167.5 52t-68.5 138h143q5 -35 29 -56.5t64 -21.5q54 0 86.5 45.5t37.5 164.5q-18 -28 -59 -45t-92 -17q-92 0 -158.5 56.5t-66.5 164.5t73.5 169.5t179.5 61.5q277 0 277 -338zM396 273q0 51 -30 83t-77 32q-49 0 -79 -31
t-30 -84q0 -50 30.5 -81.5t77.5 -31.5q48 0 78 31t30 82z" />
    <glyph glyph-name="question.sc" unicode="&#xf73f;" horiz-adv-x="482" 
d="M166 169v14q0 40 16 69t39 44t45.5 26.5t38.5 25.5t16 32q0 22 -23 37t-62 15t-60.5 -20t-21.5 -49h-133q0 72 54 120.5t164 48.5q101 0 161.5 -40.5t60.5 -113.5q0 -35 -17 -61.5t-41 -41t-48 -27t-41 -28t-17 -36.5v-15h-131zM163 0v126h136v-126h-136z" />
    <glyph glyph-name="a.sc" unicode="&#xf761;" horiz-adv-x="593" 
d="M5 0l204 520h176l203 -520h-158l-32 92h-209l-32 -92h-152zM293 388l-67 -189h136l-65 189h-4z" />
    <glyph glyph-name="b.sc" unicode="&#xf762;" horiz-adv-x="624" 
d="M77 0v520h306q87 0 131.5 -35.5t44.5 -100.5q0 -85 -85 -106v-4q53 -8 81 -41t28 -81q0 -67 -47.5 -109.5t-133.5 -42.5h-325zM366 218h-140v-116h140q31 0 47.5 16.5t16.5 42.5t-17 41.5t-47 15.5zM350 418h-124v-102h124q29 0 44 14.5t15 39.5q0 21 -15 34.5t-44 13.5z
" />
    <glyph glyph-name="c.sc" unicode="&#xf763;" horiz-adv-x="606" 
d="M36 260q0 122 77 197t209 75q102 0 170.5 -53t83.5 -141h-146q-24 73 -110 73q-61 0 -96.5 -41t-35.5 -110q0 -70 36 -110.5t96 -40.5q81 0 110 73h146q-15 -88 -83 -141t-174 -53q-132 0 -207.5 76t-75.5 196z" />
    <glyph glyph-name="d.sc" unicode="&#xf764;" horiz-adv-x="636" 
d="M77 0v520h244q133 0 206 -71t73 -189q0 -115 -73.5 -187.5t-205.5 -72.5h-244zM299 405h-73v-290h73q76 0 112 40.5t36 104.5q0 66 -35.5 105.5t-112.5 39.5z" />
    <glyph glyph-name="e.sc" unicode="&#xf765;" 
d="M77 0v520h432v-109h-283v-97h230v-103h-230v-102h294v-109h-443z" />
    <glyph glyph-name="f.sc" unicode="&#xf766;" horiz-adv-x="537" 
d="M77 0v520h420v-109h-271v-129h219v-106h-219v-176h-149z" />
    <glyph glyph-name="g.sc" unicode="&#xf767;" horiz-adv-x="657" 
d="M338 190v100h251v-290h-95l-9 47h-2q-56 -59 -159 -59q-130 0 -207 76t-77 196q0 119 80.5 195.5t214.5 76.5q107 0 175 -51.5t79 -127.5h-147q-8 23 -36 41.5t-71 18.5q-65 0 -104 -42t-39 -111q0 -72 39 -114t106 -42q50 0 83.5 23.5t37.5 62.5h-120z" />
    <glyph glyph-name="h.sc" unicode="&#xf768;" horiz-adv-x="664" 
d="M77 0v520h149v-198h212v198h149v-520h-149v202h-212v-202h-149z" />
    <glyph glyph-name="i.sc" unicode="&#xf769;" horiz-adv-x="303" 
d="M77 0v520h149v-520h-149z" />
    <glyph glyph-name="j.sc" unicode="&#xf76a;" horiz-adv-x="505" 
d="M37 169v21h145v-30q0 -27 14.5 -42t40.5 -15t40.5 15.5t14.5 43.5v358h149v-332q0 -200 -204 -200q-93 0 -146.5 45t-53.5 136z" />
    <glyph glyph-name="k.sc" unicode="&#xf76b;" horiz-adv-x="621" 
d="M77 0v520h149v-215l197 215h170l-213 -225l231 -295h-173l-152 196l-60 -64v-132h-149z" />
    <glyph glyph-name="l.sc" unicode="&#xf76c;" horiz-adv-x="505" 
d="M77 0v520h149v-399h254v-121h-403z" />
    <glyph glyph-name="m.sc" unicode="&#xf76d;" horiz-adv-x="815" 
d="M77 0v520h203l127 -327h2l133 327h196v-520h-146l11 336h-4l-142 -336h-105l-136 336h-4l11 -336h-146z" />
    <glyph glyph-name="n.sc" unicode="&#xf76e;" horiz-adv-x="664" 
d="M77 0v520h127l234 -288h5l-5 288h149v-520h-124l-237 288h-5l5 -288h-149z" />
    <glyph glyph-name="o.sc" unicode="&#xf76f;" horiz-adv-x="660" 
d="M36 260q0 119 80.5 195.5t213.5 76.5q131 0 212.5 -77t81.5 -195q0 -119 -81 -195.5t-213 -76.5q-131 0 -212.5 77t-81.5 195zM188 260q0 -66 39.5 -108.5t102.5 -42.5t102 42t39 109q0 66 -39.5 108.5t-101.5 42.5q-63 0 -102.5 -42t-39.5 -109z" />
    <glyph glyph-name="p.sc" unicode="&#xf770;" horiz-adv-x="598" 
d="M77 0v520h280q96 0 150.5 -49.5t54.5 -130.5q0 -84 -54.5 -135t-150.5 -51h-131v-154h-149zM333 411h-107v-148h107q37 0 57 20t20 54t-20 54t-57 20z" />
    <glyph glyph-name="q.sc" unicode="&#xf771;" horiz-adv-x="660" 
d="M36 260q0 119 80.5 195.5t213.5 76.5q131 0 212.5 -77t81.5 -195q0 -116 -76 -190l97 -98l-89 -83l-113 117q-56 -18 -113 -18q-131 0 -212.5 77t-81.5 195zM188 260q0 -66 39.5 -108.5t102.5 -42.5t102 42t39 109q0 66 -39.5 108.5t-101.5 42.5q-63 0 -102.5 -42
t-39.5 -109z" />
    <glyph glyph-name="r.sc" unicode="&#xf772;" horiz-adv-x="618" 
d="M77 0v520h282q98 0 150.5 -45.5t52.5 -125.5q0 -57 -27.5 -99.5t-80.5 -62.5l132 -187h-161l-115 171h-84v-171h-149zM337 411h-111v-133h111q35 0 54 18t19 50q0 30 -19 47.5t-54 17.5z" />
    <glyph glyph-name="s.sc" unicode="&#xf773;" horiz-adv-x="567" 
d="M38 151h146q0 -31 25 -47t70 -16q95 0 95 59q0 20 -18 31.5t-47 16.5t-64 9t-69.5 13t-63.5 24t-47 45.5t-18 74.5q0 76 61.5 123.5t174.5 47.5q109 0 167 -43.5t58 -115.5h-142q0 29 -23.5 44t-59.5 15q-87 0 -87 -55q0 -23 24.5 -35.5t61.5 -16.5t79.5 -12.5t79.5 -21
t61.5 -45.5t24.5 -83q0 -81 -63.5 -128t-184.5 -47q-117 0 -179 43t-62 120z" />
    <glyph glyph-name="t.sc" unicode="&#xf774;" horiz-adv-x="551" 
d="M26 400v120h499v-120h-175v-400h-149v400h-175z" />
    <glyph glyph-name="u.sc" unicode="&#xf775;" horiz-adv-x="632" 
d="M61 214v306h149v-301q0 -51 27 -79t78 -28q52 0 79.5 28t27.5 79v301h149v-306q0 -122 -67.5 -174t-188.5 -52q-120 0 -187 52t-67 174z" />
    <glyph glyph-name="v.sc" unicode="&#xf776;" horiz-adv-x="585" 
d="M200 0l-195 520h161l127 -388h4l134 388h149l-193 -520h-187z" />
    <glyph glyph-name="w.sc" unicode="&#xf777;" horiz-adv-x="830" 
d="M142 0l-132 520h159l78 -369h4l101 369h131l104 -369h4l71 369h157l-133 -520h-181l-86 325h-4l-89 -325h-184z" />
    <glyph glyph-name="x.sc" unicode="&#xf778;" horiz-adv-x="582" 
d="M5 0l197 265l-189 255h176l107 -155l101 155h169l-187 -254l197 -266h-170l-120 168l-114 -168h-167z" />
    <glyph glyph-name="y.sc" unicode="&#xf779;" horiz-adv-x="581" 
d="M216 0v192l-212 328h167l120 -197h3l127 197h156l-213 -324v-196h-148z" />
    <glyph glyph-name="z.sc" unicode="&#xf77a;" horiz-adv-x="538" 
d="M41 403v117h460v-81l-259 -322h258v-117h-466v81l263 322h-256z" />
    <glyph glyph-name="exclamdown.sc" unicode="&#xf7a1;" horiz-adv-x="280" 
d="M71 394v126h138v-126h-138zM66 0v138l31 213h86l31 -213v-138h-148z" />
    <glyph glyph-name="questiondown.sc" unicode="&#xf7bf;" horiz-adv-x="482" 
d="M316 351v-14q0 -40 -16 -69t-39 -44t-45.5 -26.5t-38.5 -25.5t-16 -32q0 -22 23 -37t62 -15t60 20t21 49h134q0 -72 -54 -120.5t-164 -48.5q-102 0 -162 40.5t-60 113.5q0 35 17 61.5t41 41t48 27t41 28t17 36.5v15h131zM318 520v-126h-136v126h136z" />
    <glyph glyph-name="agrave.sc" unicode="&#xf7e0;" horiz-adv-x="593" 
d="M5 0l204 520h176l203 -520h-158l-32 92h-209l-32 -92h-152zM293 388l-67 -189h136l-65 189h-4zM249 600l-150 164h151l99 -164h-100z" />
    <glyph glyph-name="aacute.sc" unicode="&#xf7e1;" horiz-adv-x="593" 
d="M5 0l204 520h176l203 -520h-158l-32 92h-209l-32 -92h-152zM293 388l-67 -189h136l-65 189h-4zM246 600l98 164h151l-149 -164h-100z" />
    <glyph glyph-name="acircumflex.sc" unicode="&#xf7e2;" horiz-adv-x="593" 
d="M5 0l204 520h176l203 -520h-158l-32 92h-209l-32 -92h-152zM293 388l-67 -189h136l-65 189h-4zM116 600l128 164h106l129 -164h-117l-65 93l-64 -93h-117z" />
    <glyph glyph-name="atilde.sc" unicode="&#xf7e3;" horiz-adv-x="593" 
d="M5 0l204 520h176l203 -520h-158l-32 92h-209l-32 -92h-152zM293 388l-67 -189h136l-65 189h-4zM117 614q1 64 28.5 98.5t78.5 34.5q32 0 82.5 -21t68.5 -21q32 0 36 48h67q-1 -64 -28.5 -98.5t-78.5 -34.5q-33 0 -83.5 21t-67.5 21q-34 0 -36 -48h-67z" />
    <glyph glyph-name="adieresis.sc" unicode="&#xf7e4;" horiz-adv-x="593" 
d="M5 0l204 520h176l203 -520h-158l-32 92h-209l-32 -92h-152zM293 388l-67 -189h136l-65 189h-4zM345 625v128h132v-128h-132zM117 625v128h133v-128h-133z" />
    <glyph glyph-name="aring.sc" unicode="&#xf7e5;" horiz-adv-x="593" 
d="M5 0l204 520h176l203 -520h-158l-32 92h-209l-32 -92h-152zM293 388l-67 -189h136l-65 189h-4zM297 582q-48 0 -79.5 30t-31.5 74q0 46 32 75.5t79 29.5t79 -29.5t32 -75.5q0 -44 -31.5 -74t-79.5 -30zM297 640q19 0 33 13t14 33t-14 33.5t-33 13.5t-32.5 -13t-13.5 -34
q0 -20 13.5 -33t32.5 -13z" />
    <glyph glyph-name="ae.sc" unicode="&#xf7e6;" horiz-adv-x="924" 
d="M-6 0l382 520h488v-109h-283v-97h230v-103h-230v-102h294v-109h-443v89h-212l-62 -89h-164zM428 388l-133 -191h137v191h-4z" />
    <glyph glyph-name="ccedilla.sc" unicode="&#xf7e7;" horiz-adv-x="606" 
d="M264 -90l30 79q-121 8 -189.5 82.5t-68.5 188.5q0 122 77 197t209 75q102 0 170.5 -53t83.5 -141h-146q-24 73 -110 73q-61 0 -96.5 -41t-35.5 -110q0 -70 36 -110.5t96 -40.5q81 0 110 73h146q-15 -82 -76 -134t-156 -59v-28q44 -1 68 -25t24 -60q0 -42 -30 -69t-89 -27
h-73v64h55q44 0 44 35q0 31 -44 31h-35z" />
    <glyph glyph-name="egrave.sc" unicode="&#xf7e8;" 
d="M77 0v520h432v-109h-283v-97h230v-103h-230v-102h294v-109h-443zM245 600l-150 164h151l99 -164h-100z" />
    <glyph glyph-name="eacute.sc" unicode="&#xf7e9;" 
d="M77 0v520h432v-109h-283v-97h230v-103h-230v-102h294v-109h-443zM242 600l98 164h151l-149 -164h-100z" />
    <glyph glyph-name="ecircumflex.sc" unicode="&#xf7ea;" 
d="M77 0v520h432v-109h-283v-97h230v-103h-230v-102h294v-109h-443zM112 600l128 164h106l129 -164h-117l-65 93l-64 -93h-117z" />
    <glyph glyph-name="edieresis.sc" unicode="&#xf7eb;" 
d="M77 0v520h432v-109h-283v-97h230v-103h-230v-102h294v-109h-443zM341 625v128h132v-128h-132zM113 625v128h133v-128h-133z" />
    <glyph glyph-name="igrave.sc" unicode="&#xf7ec;" horiz-adv-x="303" 
d="M77 0v520h149v-520h-149zM103 600l-150 164h151l99 -164h-100z" />
    <glyph glyph-name="iacute.sc" unicode="&#xf7ed;" horiz-adv-x="303" 
d="M77 0v520h149v-520h-149zM100 600l98 164h151l-149 -164h-100z" />
    <glyph glyph-name="icircumflex.sc" unicode="&#xf7ee;" horiz-adv-x="303" 
d="M77 0v520h149v-520h-149zM-30 600l128 164h106l129 -164h-117l-65 93l-64 -93h-117z" />
    <glyph glyph-name="idieresis.sc" unicode="&#xf7ef;" horiz-adv-x="303" 
d="M77 0v520h149v-520h-149zM199 625v128h132v-128h-132zM-29 625v128h133v-128h-133z" />
    <glyph glyph-name="eth.sc" unicode="&#xf7f0;" horiz-adv-x="636" 
d="M4 222v76h73v222h244q133 0 206 -71t73 -189q0 -115 -73.5 -187.5t-205.5 -72.5h-244v222h-73zM299 405h-73v-107h102v-76h-102v-107h73q76 0 112 40.5t36 104.5q0 66 -35.5 105.5t-112.5 39.5z" />
    <glyph glyph-name="ntilde.sc" unicode="&#xf7f1;" horiz-adv-x="664" 
d="M77 0v520h127l234 -288h5l-5 288h149v-520h-124l-237 288h-5l5 -288h-149zM152 614q1 64 28.5 98.5t78.5 34.5q32 0 82.5 -21t68.5 -21q32 0 36 48h67q-1 -64 -28.5 -98.5t-78.5 -34.5q-33 0 -83.5 21t-67.5 21q-34 0 -36 -48h-67z" />
    <glyph glyph-name="ograve.sc" unicode="&#xf7f2;" horiz-adv-x="660" 
d="M36 260q0 119 80.5 195.5t213.5 76.5q131 0 212.5 -77t81.5 -195q0 -119 -81 -195.5t-213 -76.5q-131 0 -212.5 77t-81.5 195zM188 260q0 -66 39.5 -108.5t102.5 -42.5t102 42t39 109q0 66 -39.5 108.5t-101.5 42.5q-63 0 -102.5 -42t-39.5 -109zM282 600l-150 164h151
l99 -164h-100z" />
    <glyph glyph-name="oacute.sc" unicode="&#xf7f3;" horiz-adv-x="660" 
d="M36 260q0 119 80.5 195.5t213.5 76.5q131 0 212.5 -77t81.5 -195q0 -119 -81 -195.5t-213 -76.5q-131 0 -212.5 77t-81.5 195zM188 260q0 -66 39.5 -108.5t102.5 -42.5t102 42t39 109q0 66 -39.5 108.5t-101.5 42.5q-63 0 -102.5 -42t-39.5 -109zM279 600l98 164h151
l-149 -164h-100z" />
    <glyph glyph-name="ocircumflex.sc" unicode="&#xf7f4;" horiz-adv-x="660" 
d="M36 260q0 119 80.5 195.5t213.5 76.5q131 0 212.5 -77t81.5 -195q0 -119 -81 -195.5t-213 -76.5q-131 0 -212.5 77t-81.5 195zM188 260q0 -66 39.5 -108.5t102.5 -42.5t102 42t39 109q0 66 -39.5 108.5t-101.5 42.5q-63 0 -102.5 -42t-39.5 -109zM149 600l128 164h106
l129 -164h-117l-65 93l-64 -93h-117z" />
    <glyph glyph-name="otilde.sc" unicode="&#xf7f5;" horiz-adv-x="660" 
d="M36 260q0 119 80.5 195.5t213.5 76.5q131 0 212.5 -77t81.5 -195q0 -119 -81 -195.5t-213 -76.5q-131 0 -212.5 77t-81.5 195zM188 260q0 -66 39.5 -108.5t102.5 -42.5t102 42t39 109q0 66 -39.5 108.5t-101.5 42.5q-63 0 -102.5 -42t-39.5 -109zM150 614q1 64 28.5 98.5
t78.5 34.5q32 0 82.5 -21t68.5 -21q32 0 36 48h67q-1 -64 -28.5 -98.5t-78.5 -34.5q-33 0 -83.5 21t-67.5 21q-34 0 -36 -48h-67z" />
    <glyph glyph-name="odieresis.sc" unicode="&#xf7f6;" horiz-adv-x="660" 
d="M36 260q0 119 80.5 195.5t213.5 76.5q131 0 212.5 -77t81.5 -195q0 -119 -81 -195.5t-213 -76.5q-131 0 -212.5 77t-81.5 195zM188 260q0 -66 39.5 -108.5t102.5 -42.5t102 42t39 109q0 66 -39.5 108.5t-101.5 42.5q-63 0 -102.5 -42t-39.5 -109zM378 625v128h132v-128
h-132zM150 625v128h133v-128h-133z" />
    <glyph glyph-name="oslash.sc" unicode="&#xf7f8;" horiz-adv-x="660" 
d="M52 -12l66 76q-82 77 -82 196t80.5 195.5t213.5 76.5q88 0 158 -38l33 38h88l-67 -77q82 -77 82 -195q0 -119 -81 -195.5t-213 -76.5q-90 0 -158 37l-32 -37h-88zM188 260q0 -50 23 -87l190 220q-34 18 -71 18q-63 0 -102.5 -42t-39.5 -109zM471 260q0 49 -23 86
l-189 -220q32 -17 71 -17q63 0 102 42t39 109z" />
    <glyph glyph-name="ugrave.sc" unicode="&#xf7f9;" horiz-adv-x="632" 
d="M61 214v306h149v-301q0 -51 27 -79t78 -28q52 0 79.5 28t27.5 79v301h149v-306q0 -122 -67.5 -174t-188.5 -52q-120 0 -187 52t-67 174zM268 600l-150 164h151l99 -164h-100z" />
    <glyph glyph-name="uacute.sc" unicode="&#xf7fa;" horiz-adv-x="632" 
d="M61 214v306h149v-301q0 -51 27 -79t78 -28q52 0 79.5 28t27.5 79v301h149v-306q0 -122 -67.5 -174t-188.5 -52q-120 0 -187 52t-67 174zM265 600l98 164h151l-149 -164h-100z" />
    <glyph glyph-name="ucircumflex.sc" unicode="&#xf7fb;" horiz-adv-x="632" 
d="M61 214v306h149v-301q0 -51 27 -79t78 -28q52 0 79.5 28t27.5 79v301h149v-306q0 -122 -67.5 -174t-188.5 -52q-120 0 -187 52t-67 174zM135 600l128 164h106l129 -164h-117l-65 93l-64 -93h-117z" />
    <glyph glyph-name="udieresis.sc" unicode="&#xf7fc;" horiz-adv-x="632" 
d="M61 214v306h149v-301q0 -51 27 -79t78 -28q52 0 79.5 28t27.5 79v301h149v-306q0 -122 -67.5 -174t-188.5 -52q-120 0 -187 52t-67 174zM364 625v128h132v-128h-132zM136 625v128h133v-128h-133z" />
    <glyph glyph-name="yacute.sc" unicode="&#xf7fd;" horiz-adv-x="581" 
d="M216 0v192l-212 328h167l120 -197h3l127 197h156l-213 -324v-196h-148zM240 600l98 164h151l-149 -164h-100z" />
    <glyph glyph-name="thorn.sc" unicode="&#xf7fe;" horiz-adv-x="598" 
d="M77 0v520h149v-72h131q96 0 150.5 -49.5t54.5 -130.5q0 -84 -54.5 -135t-150.5 -51h-131v-82h-149zM333 339h-107v-148h107q37 0 57 20t20 54t-20 54t-57 20z" />
    <glyph glyph-name="ydieresis.sc" unicode="&#xf7ff;" horiz-adv-x="581" 
d="M216 0v192l-212 328h167l120 -197h3l127 197h156l-213 -324v-196h-148zM339 625v128h132v-128h-132zM111 625v128h133v-128h-133z" />
    <glyph glyph-name="at.sc" horiz-adv-x="840" 
d="M232 96q0 98 126 113l67 8q29 4 39 10.5t10 20.5q0 21 -14 34t-38 13q-53 0 -58 -51h-115q4 69 52.5 101t120.5 32q86 0 131 -36.5t45 -107.5v-106q0 -64 48 -64q68 0 68 141q0 118 -81 189t-209 71q-135 0 -216.5 -82.5t-81.5 -205.5q0 -124 78.5 -202.5t210.5 -78.5
q98 0 148 47h101q-83 -115 -249 -115q-162 0 -264.5 100t-102.5 249q0 151 104 253.5t272 102.5q161 0 264.5 -91t103.5 -237q0 -108 -50.5 -160t-130.5 -52q-95 0 -121 55q-40 -56 -129 -56q-63 0 -96 28.5t-33 76.5zM474 137v32q-10 -12 -35 -15l-40 -5q-42 -5 -42 -39
q0 -18 13.5 -29t35.5 -11q27 0 47.5 16t20.5 51z" />
    <glyph glyph-name="fi.sc" horiz-adv-x="840" 
d="M77 0v520h420v-109h-271v-132h219v-106h-219v-173h-149zM614 0v520h149v-520h-149z" />
    <glyph glyph-name="fl.sc" horiz-adv-x="1043" 
d="M77 0v520h420v-109h-271v-132h219v-106h-219v-173h-149zM614 0v520h149v-399h254v-121h-403z" />
    <glyph glyph-name="t_t" horiz-adv-x="697" 
d="M407 180v200h-170v-191q0 -40 14 -56t51 -16h32v-117h-61q-106 0 -145.5 39t-39.5 141v200h-91v108h91v148h149v-148h170v148h149v-148h117v-108h-117v-191q0 -40 14.5 -56t52.5 -16h50v-117h-81q-106 0 -145.5 39t-39.5 141z" />
    <glyph glyph-name="t_f" horiz-adv-x="670" 
d="M406 0v380h-171v-191q0 -41 12.5 -56.5t49.5 -15.5h30v-117h-60q-105 0 -143 38.5t-38 141.5v200h-90v108h90v148h149v-148h171v47q0 104 45 150.5t155 46.5h73v-112h-46q-43 0 -60.5 -17.5t-17.5 -60.5v-54h108v-108h-108v-380h-149z" />
    <glyph glyph-name="caronquoteleft" horiz-adv-x="599" 
d="M233 568v93l56 112h59l-38 -98h55v-107h-132z" />
    <glyph glyph-name="caronquoteright" horiz-adv-x="599" 
d="M250 568l39 98h-56v107h132v-93l-55 -112h-60z" />
    <glyph glyph-name="slashedzero" 
d="M284 -12q-131 0 -194 97.5t-63 258.5t63 258.5t194 97.5t194 -97.5t63 -258.5t-63 -258.5t-194 -97.5zM180 344q0 -76 9 -127l156 335q-24 29 -61 29q-53 0 -78.5 -58t-25.5 -179zM284 107q104 0 104 237q0 77 -10 126l-156 -335q24 -28 62 -28z" />
    <glyph glyph-name="zero.sc" horiz-adv-x="504" 
d="M252 -12q-116 0 -170.5 75t-54.5 197t54.5 197t170.5 75q115 0 170 -75t55 -197t-55 -197t-170 -75zM252 96q75 0 75 164q0 85 -18 124.5t-57 39.5q-75 0 -75 -164q0 -85 18 -124.5t57 -39.5z" />
    <glyph glyph-name="one.sc" horiz-adv-x="504" 
d="M107 295l-56 97l205 128h89v-409h119v-111h-395v111h130v238z" />
    <glyph glyph-name="two.sc" horiz-adv-x="504" 
d="M39 0q3 108 35.5 165t103.5 92l71 34q38 20 54 36.5t16 41.5q0 24 -16.5 39.5t-47.5 15.5q-71 0 -72 -74h-138q3 93 62.5 137.5t150.5 44.5t147 -42.5t56 -113.5q0 -57 -27 -96.5t-90 -70.5l-71 -35q-41 -21 -55 -33t-15 -30h255v-111h-419z" />
    <glyph glyph-name="three.sc" horiz-adv-x="504" 
d="M33 160h136q0 -40 21 -59.5t56 -19.5q36 0 57 18.5t21 54.5q0 34 -21.5 52.5t-57.5 18.5h-36v89h39q30 0 47.5 17.5t17.5 46.5t-17.5 46t-49.5 17q-30 0 -48 -18.5t-18 -48.5h-129q1 75 55 116.5t140 41.5q94 0 148.5 -37.5t54.5 -110.5q0 -38 -20.5 -68t-57.5 -43v-4
q96 -32 96 -129q0 -74 -61.5 -113t-161.5 -39q-211 0 -211 172z" />
    <glyph glyph-name="four.sc" horiz-adv-x="504" 
d="M25 91v85l261 344h124v-324h68v-105h-68v-91h-143v91h-242zM153 196h114v154z" />
    <glyph glyph-name="five.sc" horiz-adv-x="504" 
d="M38 142h141q10 -57 73 -57q33 0 53 20.5t20 58.5q0 37 -20 57.5t-52 20.5q-47 0 -69 -44l-130 14l19 308h358v-112h-242l-7 -106h3q36 31 105 31q68 0 120.5 -39.5t52.5 -126.5t-59 -133t-149 -46q-102 0 -153.5 39t-63.5 115z" />
    <glyph glyph-name="six.sc" horiz-adv-x="504" 
d="M265 435q-37 0 -58 -31.5t-25 -114.5q15 20 47 32t68 12q31 0 60 -8.5t55 -26.5t42 -52t16 -79q0 -83 -60.5 -131t-146.5 -48q-107 0 -166.5 59.5t-59.5 200.5q0 152 63 218t165 66q90 0 138 -41t56 -109h-132q-11 53 -62 53zM260 241q-32 0 -52 -19.5t-20 -58.5
q0 -37 19.5 -57t52.5 -20t52.5 20t19.5 58q0 37 -19.5 57t-52.5 20z" />
    <glyph glyph-name="seven.sc" horiz-adv-x="504" 
d="M98 0l210 399h-266v121h426v-78l-219 -442h-151z" />
    <glyph glyph-name="eight.sc" horiz-adv-x="504" 
d="M50 384q0 71 56 109.5t146 38.5t146 -38.5t56 -109.5q0 -39 -20 -68.5t-57 -42.5v-4q45 -15 70.5 -48.5t25.5 -80.5q0 -74 -60.5 -113t-160.5 -39t-160.5 39t-60.5 113q0 47 25.5 80.5t70.5 48.5v4q-37 13 -57 42.5t-20 68.5zM175 152q0 -34 21.5 -52.5t55.5 -18.5
t55.5 18.5t21.5 52.5q0 35 -21.5 54t-55.5 19t-55.5 -19t-21.5 -54zM185 378q0 -29 18 -46.5t49 -17.5t49 17.5t18 46.5t-18 47t-49 18t-49 -18t-18 -47z" />
    <glyph glyph-name="nine.sc" horiz-adv-x="504" 
d="M238 85q36 0 56.5 31t24.5 114q-15 -20 -47 -31.5t-68 -11.5q-31 0 -60 8.5t-55 26.5t-42 52t-16 79q0 82 61 130.5t146 48.5q107 0 166.5 -59.5t59.5 -200.5q0 -152 -62 -218t-164 -66q-90 0 -139 41t-57 109h132q11 -53 64 -53zM241 279q32 0 52 19.5t20 58.5
q0 38 -19.5 57.5t-52.5 19.5t-52 -20t-19 -58q0 -37 19.5 -57t51.5 -20z" />
    <glyph glyph-name="slashedzero.sc" horiz-adv-x="504" 
d="M252 -12q-116 0 -170.5 75t-54.5 197t54.5 197t170.5 75q115 0 170 -75t55 -197t-55 -197t-170 -75zM177 260q0 -42 5 -79l109 228q-15 15 -39 15q-75 0 -75 -164zM252 96q75 0 75 164q0 46 -6 79l-109 -229q15 -14 40 -14z" />
    <glyph glyph-name="currency.sc" horiz-adv-x="504" 
d="M108 52l-63 62l61 61q-25 40 -25 85t25 83l-58 59l63 62l59 -60q40 20 82 20q41 0 81 -20l60 60l63 -62l-58 -59q25 -38 25 -83t-25 -85l61 -61l-63 -62l-64 63q-36 -19 -80 -19q-45 0 -80 19zM252 179q34 0 55.5 22t21.5 59t-21.5 59t-55.5 22t-55.5 -22t-21.5 -59
t21.5 -59t55.5 -22z" />
    <glyph glyph-name="dollar.sc" horiz-adv-x="504" 
d="M27 154h135q1 -33 23.5 -50.5t59.5 -17.5q34 0 54 15t20 41q0 22 -16 34.5t-50 20.5l-64 14q-29 7 -51.5 16t-47.5 26t-38.5 46t-13.5 67q0 64 41.5 107.5t117.5 54.5v88h102v-88q68 -11 108 -50.5t44 -95.5h-133q-10 52 -70 52q-29 0 -46.5 -13t-17.5 -37
q0 -21 14.5 -33t47.5 -20l63 -14q76 -17 116 -52.5t40 -103.5q0 -69 -43.5 -113.5t-122.5 -55.5v-92h-102v91q-81 10 -124.5 52.5t-45.5 110.5z" />
    <glyph glyph-name="cent.sc" horiz-adv-x="504" 
d="M213 -12v77q-80 14 -126 66t-46 130q0 79 47.5 131t128.5 64v76h99v-77q69 -12 109.5 -53.5t45.5 -92.5h-137q-16 49 -69 49q-39 0 -59.5 -27t-20.5 -70t20.5 -70t58.5 -27q53 0 70 50h136q-5 -54 -45.5 -96.5t-112.5 -53.5v-76h-99z" />
    <glyph glyph-name="Euro.sc" horiz-adv-x="504" 
d="M12 193l12 48h42v43h-44l13 48h36q14 91 67.5 144t149.5 53q163 0 191 -163h-130q-10 58 -60 58q-60 0 -72 -92h124l-13 -48h-115v-43h108l-13 -48h-92q5 -50 22.5 -73.5t50.5 -23.5q46 0 59 60h132q-33 -165 -192 -165q-97 0 -150.5 54t-67.5 148h-58z" />
    <glyph glyph-name="yen.sc" horiz-adv-x="504" 
d="M77 166v54h97l-171 300h162l91 -177h4l93 177h148l-170 -300h97v-54h-103v-49h103v-54h-103v-63h-141v63h-107v54h107v49h-107z" />
    <glyph glyph-name="sterling.sc" horiz-adv-x="504" 
d="M62 238v66h61q-22 46 -22 81q0 68 45.5 107.5t131.5 39.5q154 0 165 -142h-118q-5 49 -47 49q-48 0 -48 -50q0 -33 26 -85h119v-66h-91q9 -27 9 -61q0 -32 -12 -68q42 -28 63 -28q33 0 34 57h102q-1 -74 -28 -112t-90 -38q-60 0 -118 54q-44 -53 -114 -53
q-53 0 -84.5 23.5t-31.5 67.5q0 46 30 72.5t82 26.5q20 0 47 -9q-3 35 -17 68h-94zM124 51q38 0 47 55q-22 14 -43 14q-18 0 -27.5 -10t-9.5 -26q0 -14 9 -23.5t24 -9.5z" />
    <glyph glyph-name="florin.sc" horiz-adv-x="504" 
d="M49 173v76h98l14 123q9 87 53.5 123.5t125.5 36.5q76 0 115.5 -36.5t33.5 -105.5l-3 -29h-117l2 28q5 46 -29 46q-18 0 -26 -14t-12 -49l-14 -123h108v-76h-116l-20 -193q-9 -87 -53.5 -123.5t-125.5 -36.5q-76 0 -115.5 36.5t-33.5 105.5l3 30h117l-2 -28q-5 -46 28 -46
q18 0 26.5 14t12.5 48l20 193h-90z" />
    <glyph glyph-name="zero.TOSF" 
d="M27 244q0 112 69 184t188 72q121 0 189 -71.5t68 -184.5q0 -112 -69 -184t-188 -72q-121 0 -189 71.5t-68 184.5zM175 244q0 -69 29.5 -106.5t79.5 -37.5q49 0 79 38.5t30 105.5q0 70 -29.5 107t-79.5 37q-49 0 -79 -37.5t-30 -106.5z" />
    <glyph glyph-name="one.TOSF" 
d="M119 239l-57 97l224 152h90v-379h155v-109h-467v109h168v207z" />
    <glyph glyph-name="two.TOSF" 
d="M41 0q0 111 47.5 169t132.5 85l49 16q67 21 82 33q20 15 20 39t-20.5 40t-61.5 16q-93 0 -98 -83h-143q1 49 22 85.5t55 58t75.5 31.5t88.5 10q103 0 165.5 -42t62.5 -114q0 -39 -13 -67t-41.5 -46t-48.5 -26.5t-60 -20.5l-48 -16q-90 -30 -93 -62h300v-106h-473z" />
    <glyph glyph-name="three.TOSF" 
d="M27 8h148q0 -55 28 -83t73 -28q46 0 73.5 26t27.5 74q0 45 -28.5 72.5t-72.5 27.5h-55v115h55q38 0 64.5 25t26.5 67q0 40 -26 63.5t-65 23.5q-40 0 -65.5 -25t-25.5 -72h-135q0 98 64 152t162 54q102 0 167.5 -51t65.5 -136q0 -50 -28.5 -93t-71.5 -60v-4
q55 -18 87.5 -62.5t32.5 -106.5q0 -94 -70 -146.5t-183 -52.5q-117 0 -183 53.5t-66 166.5z" />
    <glyph glyph-name="four.TOSF" 
d="M21 -36v92l318 443h127v-417h81v-118h-81v-164h-148v164h-297zM165 82h153v212z" />
    <glyph glyph-name="five.TOSF" 
d="M45 -16h146q7 -36 31 -60t66 -24t69.5 30.5t27.5 84.5q0 52 -27 82.5t-70 30.5q-57 0 -89 -60l-136 18l23 402h410v-119h-280l-10 -160h5q38 31 107 31q97 0 156.5 -58t59.5 -162q0 -114 -69 -173t-176 -59q-112 0 -173.5 52.5t-70.5 143.5z" />
    <glyph glyph-name="six.TOSF" 
d="M33 328q0 194 76.5 283t194.5 89q101 0 155.5 -49.5t63.5 -134.5h-143q-13 72 -79 72q-102 0 -114 -209q18 28 56.5 44.5t82.5 16.5q87 0 150 -56.5t63 -164.5t-70.5 -169.5t-172.5 -61.5q-120 0 -191.5 80.5t-71.5 259.5zM296 328q-44 0 -71 -31t-27 -85q0 -51 27 -81.5
t69 -30.5q43 0 70 30.5t27 85.5q0 51 -26.5 81.5t-68.5 30.5z" />
    <glyph glyph-name="seven.TOSF" 
d="M112 -200l264 561h-335v127h494v-86l-270 -602h-153z" />
    <glyph glyph-name="eight.TOSF" 
d="M30 187q0 62 32.5 106.5t87.5 62.5v4q-44 15 -72 57t-28 93q0 88 65 139t169 51t169 -51t65 -139q0 -51 -28 -93t-72 -57v-4q55 -18 87.5 -62.5t32.5 -106.5q0 -95 -69.5 -147t-184.5 -52t-184.5 52t-69.5 147zM182 197q0 -48 28.5 -74t73.5 -26t73.5 26t28.5 74
q0 45 -28.5 72.5t-73.5 27.5t-73.5 -27.5t-28.5 -72.5zM284 412q40 0 66 24.5t26 67.5q0 40 -26.5 64t-65.5 24t-65.5 -24t-26.5 -64q0 -43 26 -67.5t66 -24.5z" />
    <glyph glyph-name="nine.TOSF" 
d="M532 160q0 -372 -266 -372q-102 0 -158 49.5t-66 134.5h143q9 -72 84 -72q51 0 77.5 47.5t31.5 161.5q-18 -28 -55.5 -44.5t-80.5 -16.5q-90 0 -153 56.5t-63 164.5t71 169.5t172 61.5q120 0 191.5 -80.5t71.5 -259.5zM269 160q43 0 70 30.5t28 82.5q0 52 -26.5 83.5
t-68.5 31.5q-43 0 -70 -30.5t-27 -85.5q0 -51 26.5 -81.5t67.5 -30.5z" />
    <glyph glyph-name="slashedzero.TOSF" 
d="M27 244q0 112 69 184t188 72q121 0 189 -71.5t68 -184.5q0 -112 -69 -184t-188 -72q-121 0 -189 71.5t-68 184.5zM175 244q0 -47 13 -77l151 206q-24 15 -55 15q-49 0 -79 -37.5t-30 -106.5zM393 244q0 43 -13 77l-152 -206q24 -15 56 -15q49 0 79 38.5t30 105.5z" />
    <glyph glyph-name="zero.PPF" horiz-adv-x="620" 
d="M310 -12q-138 0 -205 99.5t-67 256.5t67 256.5t205 99.5q71 0 124.5 -28t85 -77.5t47 -112.5t15.5 -138t-15.5 -138t-47 -112.5t-85 -77.5t-124.5 -28zM310 107q119 0 119 237t-119 237t-119 -237t119 -237z" />
    <glyph glyph-name="one.PPF" horiz-adv-x="405" 
d="M70 433l-60 103l225 152h92v-688h-148v506z" />
    <glyph glyph-name="two.PPF" horiz-adv-x="561" 
d="M32 0q3 123 39.5 196t122.5 125l80 48q52 32 76 58.5t24 65.5q0 40 -22.5 65t-68.5 25q-98 0 -103 -107h-146q4 118 73 171t178 53q110 0 175.5 -53.5t65.5 -146.5q0 -77 -37 -126.5t-115 -96.5l-79 -48q-50 -31 -68 -55t-21 -57h319v-117h-493z" />
    <glyph glyph-name="three.PPF" horiz-adv-x="580" 
d="M25 208h147q0 -52 30 -81.5t83 -29.5q50 0 81 28t31 72t-30 72t-82 28h-50v115h50q42 0 69 26t27 65q0 40 -26.5 64t-69.5 24q-45 0 -71 -25t-26 -72h-138q0 99 64 152.5t171 53.5q106 0 172 -50.5t66 -136.5q0 -51 -29.5 -94.5t-76.5 -58.5v-4q59 -13 95 -58t36 -107
q0 -96 -73 -149.5t-190 -53.5q-120 0 -190 56t-70 164z" />
    <glyph glyph-name="four.PPF" horiz-adv-x="589" 
d="M14 139v91l334 458h126v-432h98v-117h-98v-139h-149v139h-311zM160 256h165v224z" />
    <glyph glyph-name="five.PPF" horiz-adv-x="571" 
d="M29 184h146q5 -32 32.5 -58t73.5 -26q47 0 77.5 31t30.5 82q0 52 -30.5 83.5t-76.5 31.5q-62 0 -99 -57l-130 12l26 405h419v-119h-290l-11 -166h5q39 37 113 37q91 0 157 -56t66 -164q0 -110 -72 -171t-180 -61q-119 0 -183.5 52t-73.5 144z" />
    <glyph glyph-name="six.PPF" horiz-adv-x="600" 
d="M38 327q0 192 77 282.5t202 90.5q107 0 166.5 -51.5t68.5 -138.5h-143q-5 35 -28 56.5t-64 21.5q-54 0 -87 -46t-39 -165q19 28 60.5 45.5t92.5 17.5q92 0 158 -56.5t66 -164.5t-73.5 -169.5t-178.5 -61.5q-278 0 -278 339zM312 328q-49 0 -79 -31.5t-30 -84.5
q0 -50 30 -81t78 -31q49 0 79 31t30 84q0 50 -30.5 81.5t-77.5 31.5z" />
    <glyph glyph-name="seven.PPF" horiz-adv-x="504" 
d="M67 0l263 561h-313v127h472v-86l-270 -602h-152z" />
    <glyph glyph-name="eight.PPF" horiz-adv-x="588" 
d="M29 187q0 64 38 111t93 58v4q-47 13 -76.5 54.5t-29.5 95.5q0 88 67 139t173 51t172.5 -51t66.5 -139q0 -53 -29.5 -95t-75.5 -55v-4q55 -11 93 -58t38 -111q0 -95 -72 -147t-193 -52t-193 52t-72 147zM180 197q0 -45 31 -72.5t83 -27.5q51 0 82 27.5t31 72.5
q0 44 -31 72t-82 28t-82.5 -28t-31.5 -72zM294 412q43 0 70 25.5t27 65.5t-27 64.5t-70 24.5t-70.5 -24.5t-27.5 -64.5t27.5 -65.5t70.5 -25.5z" />
    <glyph glyph-name="nine.PPF" horiz-adv-x="600" 
d="M559 362q0 -194 -75.5 -284t-202.5 -90q-107 0 -167.5 52t-68.5 138h143q5 -35 29 -56.5t64 -21.5q54 0 86.5 45.5t37.5 164.5q-18 -28 -59 -45t-92 -17q-92 0 -158.5 56.5t-66.5 164.5t73.5 169.5t179.5 61.5q277 0 277 -338zM394 476q-1 49 -30.5 80.5t-76.5 31.5
q-49 0 -79 -31t-30 -84q0 -50 30.5 -81.5t77.5 -31.5q49 0 79 31.5t29 84.5z" />
    <glyph glyph-name="slashedzero.PPF" horiz-adv-x="620" 
d="M310 -12q-138 0 -205 99.5t-67 256.5t67 256.5t205 99.5q71 0 124.5 -28t85 -77.5t47 -112.5t15.5 -138t-15.5 -138t-47 -112.5t-85 -77.5t-124.5 -28zM310 107q119 0 119 237q0 86 -17 143l-166 -356q26 -24 64 -24zM191 344q0 -90 16 -144l166 356q-25 25 -63 25
q-119 0 -119 -237z" />
    <glyph glyph-name="currency.PPF" horiz-adv-x="491" 
d="M102 136l-64 62l61 61q-24 38 -24 85q0 44 24 83l-58 59l64 62l59 -60q38 20 82 20q42 0 80 -20l60 60l64 -62l-58 -59q24 -39 24 -83q0 -45 -25 -85l62 -61l-64 -62l-64 63q-36 -19 -79 -19q-45 0 -81 19zM246 263q34 0 55 22t21 59t-21 59t-55 22t-55.5 -22t-21.5 -59
t21.5 -59t55.5 -22z" />
    <glyph glyph-name="dollar.PPF" horiz-adv-x="571" 
d="M25 198h146q4 -49 34.5 -75t78.5 -26q49 0 77 23t28 67q0 19 -7.5 33t-25 24t-31.5 15t-41 13l-77 23q-167 49 -167 198q0 79 50 133.5t136 68.5v109h110v-109q79 -13 129.5 -62.5t54.5 -122.5h-146q-4 39 -30 58.5t-63 19.5q-39 0 -65 -19t-26 -57q0 -37 21 -54.5
t69 -31.5l77 -22q182 -53 182 -197q0 -87 -54 -144.5t-149 -70.5v-112h-110v112q-94 12 -146 66t-55 140z" />
    <glyph glyph-name="cent.PPF" horiz-adv-x="574" 
d="M245 -12v108q-98 16 -153 82t-55 170q0 103 57 170t155 82v100h110v-101q83 -13 131 -62t55 -117h-146q-5 31 -30 53t-67 22q-51 0 -81.5 -41t-30.5 -106t30.5 -106t81.5 -41q43 0 67 22t30 53h146q-7 -70 -55.5 -119t-134.5 -61v-108h-110z" />
    <glyph glyph-name="Euro.PPF" horiz-adv-x="641" 
d="M29 377l22 72h48q22 116 92.5 183.5t187.5 67.5q111 0 173 -54t79 -148h-140q-20 86 -112 86q-99 0 -127 -135h170l-21 -72h-157q-2 -33 0 -65h153l-22 -72h-124q27 -136 127 -136q90 0 111 80h140q-20 -91 -82.5 -143.5t-168.5 -52.5q-119 0 -189 67.5t-91 184.5h-86
l22 72h56v65h-61z" />
    <glyph glyph-name="yen.PPF" horiz-adv-x="569" 
d="M161 688l124 -246h4l130 246h161l-218 -390h132v-72h-135v-60h135v-72h-135v-94h-149v94h-135v72h135v60h-135v72h132l-218 390h172z" />
    <glyph glyph-name="sterling.PPF" horiz-adv-x="595" 
d="M56 314v80h75q-26 71 -26 124q0 82 57.5 132t157.5 50q92 0 146 -45.5t58 -130.5h-132q-6 76 -71 76q-30 0 -50 -19.5t-20 -54.5q0 -51 29 -132h163v-80h-136q9 -41 9 -72q0 -49 -15 -97q89 -51 119 -51q53 0 54 70h109q-3 -176 -154 -176q-68 0 -168 74
q-54 -74 -140 -74q-57 0 -93 27.5t-36 81.5q0 53 34.5 84.5t92.5 31.5q22 0 58 -9v17q0 40 -16 93h-105zM119 57q40 0 52 68q-28 15 -52 15q-19 0 -30.5 -12t-11.5 -30t10.5 -29.5t31.5 -11.5z" />
    <glyph glyph-name="florin.PPF" horiz-adv-x="542" 
d="M40 270v89h126l15 152q19 189 208 189q176 0 165 -183l-2 -26h-124l2 25q6 79 -43 79q-26 0 -39 -20t-18 -64l-15 -152h137v-89h-146l-27 -273q-19 -189 -208 -189q-176 0 -165 183l2 26h124l-2 -25q-6 -79 43 -79q26 0 39 20t18 64l27 273h-117z" />
    <glyph glyph-name="zero.scppf" horiz-adv-x="553" 
d="M277 -12q-122 0 -179.5 76.5t-57.5 195.5t57.5 195.5t179.5 76.5q121 0 178.5 -76.5t57.5 -195.5t-57.5 -195.5t-178.5 -76.5zM277 96q86 0 86 164t-86 164q-87 0 -87 -164t87 -164z" />
    <glyph glyph-name="one.scppf" horiz-adv-x="372" 
d="M66 300l-55 97l196 123h88v-520h-145v349z" />
    <glyph glyph-name="two.scppf" horiz-adv-x="514" 
d="M34 0q3 106 39 163.5t109 93.5l70 34q42 22 60 38t18 40t-18.5 39.5t-53.5 15.5q-79 0 -80 -74h-138q3 93 64.5 137.5t156.5 44.5t153 -42.5t58 -113.5q0 -56 -30 -95.5t-95 -71.5l-71 -35q-42 -22 -57 -34t-16 -29h266v-111h-435z" />
    <glyph glyph-name="three.scppf" horiz-adv-x="505" 
d="M25 160h137q0 -79 85 -79q40 0 63 18.5t23 54.5q0 34 -23.5 52.5t-63.5 18.5h-36v89h39q34 0 53.5 17.5t19.5 46.5t-19.5 46t-55.5 17q-34 0 -54.5 -18.5t-20.5 -48.5h-128q0 75 56 116.5t147 41.5q98 0 154.5 -37.5t56.5 -110.5q0 -39 -20 -68.5t-58 -42.5v-4
q96 -32 96 -129q0 -74 -64 -113t-167 -39q-220 0 -220 172z" />
    <glyph glyph-name="four.scppf" horiz-adv-x="513" 
d="M20 91v85l273 344h125v-324h71v-105h-71v-91h-144v91h-254zM149 196h125v158z" />
    <glyph glyph-name="five.scppf" horiz-adv-x="507" 
d="M33 142h142q13 -57 82 -57q35 0 59 20.5t24 58.5q0 37 -23.5 57.5t-58.5 20.5q-54 0 -79 -44l-130 14l19 308h377v-112h-261l-7 -106h3q36 31 115 31q72 0 127 -39.5t55 -126.5t-61.5 -133t-156.5 -46q-106 0 -160 39t-66 115z" />
    <glyph glyph-name="six.scppf" horiz-adv-x="526" 
d="M279 435q-43 0 -66.5 -31t-27.5 -115q15 20 50.5 32t75.5 12q75 0 129.5 -39.5t54.5 -126.5q0 -83 -63.5 -131t-154.5 -48q-113 0 -175 59.5t-62 200.5q0 152 65.5 218t173.5 66q96 0 146.5 -41t58.5 -109h-132q-11 53 -73 53zM274 241q-36 0 -59.5 -20.5t-23.5 -57.5
t23.5 -57t59.5 -20t59.5 20.5t23.5 57.5t-23 57t-60 20z" />
    <glyph glyph-name="seven.scppf" horiz-adv-x="450" 
d="M64 0l208 399h-252v121h413v-78l-219 -442h-150z" />
    <glyph glyph-name="eight.scppf" horiz-adv-x="519" 
d="M30 140q0 47 25.5 80.5t70.5 48.5v4q-37 13 -57 42.5t-20 68.5q0 71 58 109.5t152 38.5q95 0 153 -38.5t58 -109.5q0 -39 -20 -68.5t-58 -42.5v-4q45 -15 70.5 -48.5t25.5 -80.5q0 -74 -62 -113t-167 -39q-104 0 -166.5 39t-62.5 113zM174 152q0 -34 23.5 -52.5
t61.5 -18.5t62 18.5t24 52.5q0 35 -24 54t-62 19q-37 0 -61 -19t-24 -54zM184 378q0 -29 20.5 -46.5t54.5 -17.5t54.5 17.5t20.5 46.5t-20.5 47t-54.5 18t-54.5 -18t-20.5 -47z" />
    <glyph glyph-name="nine.scppf" horiz-adv-x="528" 
d="M251 85q42 0 64.5 31t26.5 114q-16 -19 -51 -31t-74 -12q-76 0 -130 39.5t-54 126.5q0 83 63.5 131t154.5 48q113 0 175 -59.5t62 -200.5q0 -284 -237 -284q-96 0 -147.5 41t-59.5 109h132q11 -53 75 -53zM254 279q36 0 59.5 20.5t23.5 57.5t-23.5 57t-59.5 20
q-37 0 -60 -20t-23 -58q0 -37 23 -57t60 -20z" />
    <glyph glyph-name="slashedzero.scppf" horiz-adv-x="553" 
d="M277 -12q-122 0 -179.5 76.5t-57.5 195.5t57.5 195.5t179.5 76.5q121 0 178.5 -76.5t57.5 -195.5t-57.5 -195.5t-178.5 -76.5zM190 260q0 -58 10 -92l117 243q-16 13 -40 13q-87 0 -87 -164zM277 96q86 0 86 164q0 50 -10 92l-117 -244q16 -12 41 -12z" />
    <glyph glyph-name="currency.scppf" horiz-adv-x="489" 
d="M101 52l-64 62l61 61q-24 38 -24 85q0 46 24 83l-58 59l63 62l60 -60q38 20 81 20t81 -20l60 60l64 -62l-58 -59q24 -39 24 -83q0 -45 -25 -85l61 -61l-63 -62l-64 63q-36 -19 -80 -19t-80 19zM244 179q34 0 55.5 22t21.5 59t-21.5 59t-55.5 22t-55 -22t-21 -59t21 -59
t55 -22z" />
    <glyph glyph-name="dollar.scppf" horiz-adv-x="512" 
d="M32 154h133q6 -68 90 -68q38 0 59.5 15t21.5 41q0 23 -17 35t-56 21l-64 14q-30 7 -53 16t-49.5 25.5t-41 45.5t-14.5 67q0 64 43 107.5t123 54.5v88h102v-88q71 -10 113 -50t46 -96h-133q-10 52 -77 52q-71 0 -71 -50q0 -22 15.5 -33t53.5 -20l63 -14q78 -18 120.5 -53
t42.5 -103q0 -69 -45.5 -114t-127.5 -55v-92h-102v91q-83 9 -128 52t-47 111z" />
    <glyph glyph-name="cent.scppf" horiz-adv-x="497" 
d="M208 -12v77q-84 13 -132 65t-48 131t49.5 131t134.5 64v76h100v-76q73 -12 115.5 -53.5t47.5 -93.5h-138q-5 19 -24.5 34t-51.5 15q-44 0 -66.5 -27t-22.5 -70t22.5 -70t64.5 -27q63 0 78 50h137q-5 -54 -48 -96.5t-118 -53.5v-76h-100z" />
    <glyph glyph-name="Euro.scppf" horiz-adv-x="541" 
d="M3 193l13 48h47v43h-49l13 48h42q17 90 77 143.5t162 53.5q94 0 146.5 -44.5t64.5 -118.5h-129q-10 58 -78 58q-75 0 -93 -92h122l-13 -48h-115v-43h108l-13 -48h-90q16 -97 94 -97q63 0 76 60h133q-15 -76 -68 -120.5t-145 -44.5q-103 0 -163.5 54.5t-76.5 147.5h-65z
" />
    <glyph glyph-name="yen.scppf" horiz-adv-x="479" 
d="M147 520l97 -177h3l99 177h147l-175 -300h98v-54h-104v-49h104v-54h-104v-63h-140v63h-108v54h108v49h-108v54h97l-176 300h162z" />
    <glyph glyph-name="sterling.scppf" horiz-adv-x="513" 
d="M67 238v66h52q-19 41 -19 76q0 71 48.5 111.5t138.5 40.5q83 0 127.5 -38.5t49.5 -108.5h-118q-6 54 -59 54q-26 0 -42 -15t-16 -40q0 -30 26 -80h125v-66h-97q9 -27 9 -61q0 -32 -10 -63q55 -33 77 -33q39 0 40 57h102q-2 -150 -130 -150q-61 0 -126 57
q-44 -56 -116 -56q-53 0 -84.5 23t-31.5 68q0 46 30 72.5t81 26.5q22 0 48 -8q-3 30 -20 67h-85zM123 51q38 0 47 56q-23 13 -43 13q-37 0 -37 -36q0 -14 9 -23.5t24 -9.5z" />
    <glyph glyph-name="florin.scppf" horiz-adv-x="482" 
d="M44 173v76h97l14 123q10 87 56.5 123.5t128.5 36.5q76 0 115.5 -36.5t33.5 -105.5l-3 -29h-117l2 28q5 46 -31 46q-18 0 -27.5 -14.5t-13.5 -48.5l-14 -123h108v-76h-116l-21 -193q-9 -87 -56 -123.5t-128 -36.5q-76 0 -115.5 36.5t-33.5 105.5l3 30h117l-3 -28
q-2 -21 6.5 -33.5t25.5 -12.5q18 0 27.5 14.5t13.5 47.5l20 193h-89z" />
    <glyph glyph-name="slashedzero.oldstyle" horiz-adv-x="623" 
d="M34 244q0 111 74.5 183.5t202.5 72.5q130 0 203.5 -72t73.5 -184q0 -111 -74.5 -183.5t-202.5 -72.5q-130 0 -203.5 72t-73.5 184zM441 244q0 52 -25 90l-163 -222q27 -12 58 -12q56 0 93 38t37 106zM182 244q0 -53 24 -90l163 221q-25 13 -58 13q-55 0 -92 -38t-37 -106
z" />
    <glyph glyph-name="plus.sc" horiz-adv-x="504" 
d="M63 207v110h132v136h114v-136h132v-110h-132v-133h-114v133h-132z" />
    <glyph glyph-name="minus.sc" horiz-adv-x="504" 
d="M63 207v110h378v-110h-378z" />
    <glyph glyph-name="multiply.sc" horiz-adv-x="504" 
d="M146 77l-77 77l106 107l-111 112l77 77l110 -112l111 112l77 -77l-111 -112l106 -107l-77 -77l-106 106z" />
    <glyph glyph-name="divide.sc" horiz-adv-x="504" 
d="M194 372v106h116v-106h-116zM63 207v110h378v-110h-378zM194 42v109h116v-109h-116z" />
    <glyph glyph-name="equal.sc" horiz-adv-x="504" 
d="M63 300v109h378v-109h-378zM63 112v110h378v-110h-378z" />
    <glyph glyph-name="less.sc" horiz-adv-x="504" 
d="M432 176v-119l-360 146v119l360 146v-118l-235 -88z" />
    <glyph glyph-name="greater.sc" horiz-adv-x="504" 
d="M72 350v118l360 -146v-119l-360 -146v119l235 86z" />
    <glyph glyph-name="plusminus.sc" horiz-adv-x="504" 
d="M80 261v102h118v110h107v-110h118v-102h-118v-111h-107v111h-118zM80 0v102h343v-102h-343z" />
    <glyph glyph-name="lessequal.sc" horiz-adv-x="504" 
d="M423 371l-214 -62l214 -62v-109l-343 114v114l343 114v-109zM80 0v102h343v-102h-343z" />
    <glyph glyph-name="greaterequal.sc" horiz-adv-x="505" 
d="M81 371v109l343 -114v-114l-343 -114v109l213 62zM81 102h343v-102h-343v102z" />
    <glyph glyph-name="notequal.sc" horiz-adv-x="505" 
d="M63 300v109h220l50 94l73 -37l-30 -57h65v-109h-123l-42 -78h165v-110h-223l-50 -94l-72 37l30 57h-63v110h121l41 78h-162z" />
    <glyph glyph-name="logicalnot.sc" horiz-adv-x="505" 
d="M63 207v110h378v-243h-113v133h-265z" />
    <glyph glyph-name="asciitilde.sc" horiz-adv-x="505" 
d="M48 188q1 85 34 124t86 39q40 0 90.5 -26.5t66.5 -26.5q37 0 37 56h100q-4 -162 -120 -162q-36 0 -88 26.5t-69 26.5q-38 0 -38 -57h-99z" />
    <glyph glyph-name="approxequal.sc" horiz-adv-x="505" 
d="M48 76q1 86 34 125t86 39q40 0 90.5 -26.5t66.5 -26.5q37 0 37 56h100q-4 -163 -120 -163q-36 0 -88 27t-69 27q-38 0 -38 -58h-99zM48 277q1 86 34 125t86 39q40 0 90.5 -26.5t66.5 -26.5q37 0 37 56h100q-4 -163 -120 -163q-36 0 -88 26.5t-69 26.5q-38 0 -38 -57h-99z
" />
    <glyph glyph-name="infinity.sc" horiz-adv-x="602" 
d="M167 121q-64 0 -102 37.5t-38 101.5t38 101.5t102 37.5q76 0 134 -75q58 75 135 75q63 0 101.5 -38t38.5 -101t-38.5 -101t-101.5 -38q-76 0 -135 74q-59 -74 -134 -74zM361 260q31 -53 72 -53q24 0 38.5 14t14.5 39t-14.5 39t-38.5 14q-41 0 -72 -53zM170 207
q41 0 72 53q-31 53 -72 53q-24 0 -38.5 -14t-14.5 -39t14.5 -39t38.5 -14z" />
    <glyph glyph-name="numbersign.sc" horiz-adv-x="554" 
d="M48 322v89h96l20 109h101l-20 -109h119l20 109h101l-20 -109h72v-89h-87l-22 -123h81v-89h-97l-19 -110h-101l19 110h-119l-19 -110h-101l19 110h-68v89h84l22 123h-81zM230 322l-22 -123h119l22 123h-119z" />
    <glyph glyph-name="percent.sc" horiz-adv-x="626" 
d="M141 254q-62 0 -94 37t-32 99t32 99t94 37t94.5 -37t32.5 -99t-32.5 -99t-94.5 -37zM141 320q43 0 43 70q0 71 -43 71q-42 0 -42 -71q0 -70 42 -70zM130 -9l300 538h68l-300 -538h-68zM485 -6q-62 0 -94 37t-32 99t32 99t94 37t94.5 -37t32.5 -99t-32.5 -99t-94.5 -37z
M485 60q42 0 42 70q0 71 -42 71t-42 -71q0 -70 42 -70z" />
    <glyph glyph-name="perthousand.sc" horiz-adv-x="924" 
d="M141 254q-62 0 -94 37t-32 99t32 99t94 37t94.5 -37t32.5 -99t-32.5 -99t-94.5 -37zM141 320q43 0 43 70q0 71 -43 71q-42 0 -42 -71q0 -70 42 -70zM130 -9l300 538h68l-300 -538h-68zM485 -6q-62 0 -94 37t-32 99t32 99t94 37t94.5 -37t32.5 -99t-32.5 -99t-94.5 -37z
M485 60q42 0 42 70q0 71 -42 71t-42 -71q0 -70 42 -70zM783 -6q-62 0 -94 37t-32 99t32 99t94 37t94.5 -37t32.5 -99t-32.5 -99t-94.5 -37zM783 60q43 0 43 70q0 71 -43 71q-42 0 -42 -71q0 -70 42 -70z" />
    <glyph glyph-name="hyphen.sc" horiz-adv-x="396" 
d="M49 202v121h298v-121h-298z" />
    <glyph glyph-name="endash.sc" horiz-adv-x="556" 
d="M49 202v121h458v-121h-458z" />
    <glyph glyph-name="emdash.sc" horiz-adv-x="840" 
d="M49 202v121h742v-121h-742z" />
    <glyph glyph-name="dagger.sc" horiz-adv-x="409" 
d="M44 300v92h104v128h113v-128h104v-92h-104v-300h-113v300h-104z" />
    <glyph glyph-name="daggerdbl.sc" horiz-adv-x="409" 
d="M44 322v92h104v106h113v-106h104v-92h-104v-128h104v-92h-104v-102h-113v102h-104v92h104v128h-104z" />
    <glyph glyph-name="parenleft.sc" horiz-adv-x="326" 
d="M313 -92h-128q-45 60 -80.5 154t-35.5 198q0 105 35.5 198.5t80.5 153.5h128q-41 -54 -78 -151.5t-37 -200.5t37 -200.5t78 -151.5z" />
    <glyph glyph-name="parenright.sc" horiz-adv-x="326" 
d="M13 -92q41 53 78 151t37 201q0 104 -37 201.5t-78 150.5h129q45 -61 80.5 -154t35.5 -198q0 -104 -35.5 -197.5t-80.5 -154.5h-129z" />
    <glyph glyph-name="bracketleft.sc" horiz-adv-x="318" 
d="M69 -92v704h236v-107h-108v-490h108v-107h-236z" />
    <glyph glyph-name="bracketright.sc" horiz-adv-x="318" 
d="M13 15h108v490h-108v107h236v-704h-236v107z" />
    <glyph glyph-name="braceleft.sc" horiz-adv-x="351" 
d="M104 55v61q0 51 -20 73t-75 22v102q55 0 75 23t20 75v54q0 77 39 112t131 35h64v-105h-36q-42 0 -56.5 -12.5t-14.5 -54.5v-66q0 -85 -94 -110v-4q50 -13 72 -39t22 -69v-66q0 -43 15 -58t56 -15h36v-105h-64q-92 0 -131 35t-39 112z" />
    <glyph glyph-name="braceright.sc" horiz-adv-x="351" 
d="M13 13h36q41 0 56 15t15 58v66q0 43 22 69t72 39v4q-94 25 -94 110v66q0 42 -14.5 54.5t-56.5 12.5h-36v105h64q92 0 131 -35t39 -112v-54q0 -52 20 -75t75 -23v-102q-55 0 -75 -22t-20 -73v-61q0 -77 -39 -112t-131 -35h-64v105z" />
    <glyph glyph-name="slash.sc" horiz-adv-x="360" 
d="M2 -12l232 544h123l-232 -544h-123z" />
    <glyph glyph-name="backslash.sc" horiz-adv-x="360" 
d="M234 -12l-232 544h123l232 -544h-123z" />
    <glyph glyph-name="quoteleft.sc" horiz-adv-x="273" 
d="M65 224v130l48 166h66l-35 -158h64v-138h-143z" />
    <glyph glyph-name="quotedblleft.sc" horiz-adv-x="491" 
d="M65 224v130l48 166h66l-35 -158h64v-138h-143zM284 224v130l48 166h66l-35 -158h63v-138h-142z" />
    <glyph glyph-name="quoteright.sc" horiz-adv-x="273" 
d="M93 224l35 158h-63v138h143v-130l-49 -166h-66z" />
    <glyph glyph-name="quotedblright.sc" horiz-adv-x="491" 
d="M93 224l35 158h-63v138h143v-130l-49 -166h-66zM312 224l35 158h-63v138h142v-130l-48 -166h-66z" />
    <glyph glyph-name="guilsinglleft.sc" horiz-adv-x="315" 
d="M158 102l-112 159l112 160h110l-88 -160l88 -159h-110z" />
    <glyph glyph-name="guilsinglright.sc" horiz-adv-x="315" 
d="M46 102l89 159l-89 160h111l111 -160l-111 -159h-111z" />
    <glyph glyph-name="guillemotleft.sc" horiz-adv-x="510" 
d="M353 102l-111 159l111 160h110l-88 -160l88 -159h-110zM157 102l-111 159l111 160h111l-89 -160l89 -159h-111z" />
    <glyph glyph-name="guillemotright.sc" horiz-adv-x="510" 
d="M242 102l89 159l-89 160h111l110 -160l-110 -159h-111zM46 102l89 159l-89 160h111l111 -160l-111 -159h-111z" />
    <glyph glyph-name="quotesingle.sc" horiz-adv-x="244" 
d="M74 224l-18 190v106h132v-106l-19 -190h-95z" />
    <glyph glyph-name="quotedbl.sc" horiz-adv-x="450" 
d="M74 224l-18 190v106h132v-106l-19 -190h-95zM281 224l-19 190v106h132v-106l-19 -190h-94z" />
    <glyph glyph-name="asterisk.sc" horiz-adv-x="478" 
d="M185 531h107l-15 -117l106 50l34 -102l-116 -22l80 -85l-86 -63l-58 103l-55 -103l-87 62l79 86l-113 22l32 102l106 -50z" />
    <glyph glyph-name="degree.sc" horiz-adv-x="415" 
d="M208 216q-73 0 -120.5 44t-47.5 114t47.5 114t120.5 44t120 -44t47 -114t-47 -114t-120 -44zM208 446q-29 0 -48.5 -19.5t-19.5 -52.5t19.5 -52.5t48.5 -19.5t48.5 19.5t19.5 52.5t-19.5 52.5t-48.5 19.5z" />
    <glyph glyph-name="bullet.sc" horiz-adv-x="408" 
d="M204 129q-55 0 -93.5 38.5t-38.5 93.5t38.5 93.5t93.5 38.5t93.5 -38.5t38.5 -93.5t-38.5 -93.5t-93.5 -38.5z" />
    <glyph glyph-name="periodcentered.sc" horiz-adv-x="264" 
d="M66 198v129h132v-129h-132z" />
    <glyph glyph-name="paragraph.sc" horiz-adv-x="530" 
d="M356 0v520h116v-520h-116zM181 0v188q-141 32 -141 165q0 77 50 122t142 45h65v-520h-116z" />
    <glyph glyph-name="section.sc" horiz-adv-x="421" 
d="M22 -49h120q9 -41 63 -41q63 0 63 46q0 21 -13 31t-50 20l-72 22q-58 17 -84 46t-26 78q0 37 22.5 70t61.5 51q-77 36 -77 113q0 62 47.5 103t139.5 41q78 0 127.5 -31.5t53.5 -91.5h-120q-9 41 -64 41q-63 0 -63 -46q0 -21 13.5 -31t50.5 -20l72 -22q58 -17 83.5 -46
t25.5 -78q0 -37 -22.5 -70t-62.5 -51q79 -36 79 -113q0 -62 -47.5 -103t-140.5 -41q-77 0 -126.5 31.5t-53.5 91.5zM217 239l-23 6q-24 -6 -41.5 -24.5t-17.5 -39.5q0 -24 14.5 -37t53.5 -24l22 -7q24 6 41.5 25t17.5 40q0 24 -14.5 36.5t-52.5 24.5z" />
    <glyph glyph-name="copyright.sc" horiz-adv-x="609" 
d="M34 261q0 115 76.5 193t193.5 78t194 -77t77 -194q0 -115 -77 -194t-194 -79t-193.5 78t-76.5 195zM104 261q0 -90 56.5 -150t143.5 -60t144 60t57 150t-57 149t-144 59t-143.5 -59t-56.5 -149zM170 261q0 60 37 98t104 38q48 0 82 -27.5t39 -69.5h-82q-10 26 -39 26
q-53 0 -53 -65q0 -31 14 -47.5t39 -16.5q16 0 26.5 9t12.5 17h82q-5 -42 -39 -70t-82 -28q-67 0 -104 38.5t-37 97.5z" />
    <glyph glyph-name="registered.sc" horiz-adv-x="609" 
d="M34 261q0 115 76.5 193t193.5 78t194 -77t77 -194q0 -115 -77 -194t-194 -79t-193.5 78t-76.5 195zM104 261q0 -90 56.5 -150t143.5 -60t144 60t57 150t-57 149t-144 59t-143.5 -59t-56.5 -149zM185 133v256h141q51 0 78 -24t27 -65q0 -59 -52 -81l59 -86h-92l-47 76h-28
v-76h-86zM313 325h-42v-58h42q14 0 23 8t9 22q0 28 -32 28z" />
    <glyph glyph-name="trademark.sc" horiz-adv-x="649" 
d="M284 260v260h110l54 -148h3l52 148h109v-260h-80l5 158h-2l-61 -158h-53l-60 158h-3l6 -158h-80zM7 446v74h250v-74h-84v-186h-84v186h-82z" />
    <glyph glyph-name="ordfeminine.sc" horiz-adv-x="313" 
d="M113 254q-43 0 -65.5 19.5t-22.5 53.5q0 70 88 81l48 6q21 2 27.5 6t6.5 17q0 14 -10 23t-29 9q-40 0 -43 -38h-78q4 49 37 72t84 23q124 0 124 -102v-164h-82v27h-3q-28 -33 -82 -33zM145 308q20 0 35 12t15 36v25q-5 -10 -23 -12l-30 -4q-31 -4 -31 -28q0 -29 34 -29z
" />
    <glyph glyph-name="ordmasculine.sc" horiz-adv-x="331" 
d="M165 254q-67 0 -105 36.5t-38 99.5t38.5 99.5t104.5 36.5q67 0 105.5 -36.5t38.5 -99.5q0 -62 -38.5 -99t-105.5 -37zM165 321q26 0 41 19t15 50t-15 50t-41 19t-40.5 -19t-14.5 -50t14.5 -50t40.5 -19z" />
    <glyph glyph-name="bullet.cap" horiz-adv-x="488" 
d="M244 176q-73 0 -122.5 49.5t-49.5 122.5t49.5 122.5t122.5 49.5t122.5 -49.5t49.5 -122.5t-49.5 -122.5t-122.5 -49.5z" />
    <glyph glyph-name="plus.cap" 
d="M59 287v112h166v169h118v-169h166v-112h-166v-168h-118v168h-166z" />
    <glyph glyph-name="minus.cap" 
d="M59 287v112h450v-112h-450z" />
    <glyph glyph-name="multiply.cap" 
d="M62 483l83 81l139 -140l139 140l83 -81l-140 -141l143 -144l-83 -81l-142 142l-142 -142l-83 81l143 144z" />
    <glyph glyph-name="divide.cap" 
d="M222 468v125h124v-125h-124zM56 287v112h456v-112h-456zM222 93v125h124v-125h-124z" />
    <glyph glyph-name="equal.cap" 
d="M56 397v112h456v-112h-456zM56 175v112h456v-112h-456z" />
    <glyph glyph-name="less.cap" 
d="M72 285v117l424 175v-125l-290 -108l290 -111v-126z" />
    <glyph glyph-name="greater.cap" 
d="M496 399v-117l-424 -175v125l289 107l-289 112v126z" />
    <glyph glyph-name="plusminus.cap" 
d="M62 333v111h163v154h118v-154h169v-111h-169v-154h-118v154h-163zM56 0v112h456v-112h-456z" />
    <glyph glyph-name="lessequal.cap" 
d="M72 331v117l424 164v-124l-280 -97l280 -101v-125zM72 0v112h424v-112h-424z" />
    <glyph glyph-name="greaterequal.cap" 
d="M496 446v-118l-424 -163v124l279 97l-279 100v126zM72 0v112h424v-112h-424z" />
    </font>
</defs>
</svg>
