<?xml version="1.0" standalone="no"?>
<!DOCTYPE svg PUBLIC "-//W3C//DTD SVG 1.1//EN" "http://www.w3.org/Graphics/SVG/1.1/DTD/svg11.dtd" >
<svg>
<metadata>
Created by FontForge 20090622 at Tue Feb  6 14:12:05 2018
 By deploy user
&#194;&#169; Copyright (c) 2010. All rights reserved. Fakt is a design by Thomas Thiemich, published by OurType. www.ourtype.com
</metadata>
<defs>
<font id="FaktPro-Normal" horiz-adv-x="568" >
  <font-face 
    font-family="Fakt Pro Nor"
    font-weight="400"
    font-stretch="normal"
    units-per-em="1000"
    panose-1="2 0 0 0 0 0 0 0 0 0"
    ascent="748"
    descent="-252"
    x-height="488"
    cap-height="688"
    bbox="-172 -313 1164 1012"
    underline-thickness="50"
    underline-position="-50"
    unicode-range="U+0020-U+FB04"
  />
<missing-glyph horiz-adv-x="712" 
d="M0 0v720h712v-720h-712zM232 184l126 129l126 -129l52 52l-127 130l127 130l-52 52l-126 -129l-126 129l-52 -52l126 -130l-126 -130z" />
    <glyph glyph-name="f_b" unicode="fb" horiz-adv-x="904" 
d="M396 0v656h-128q-46 0 -65 -22.5t-19 -69.5v-76h108v-72h-108v-416h-88v416h-92v72h92v80q0 164 164 164h224v-156q0 -100 -4 -164h4q44 88 164 88q95 0 155.5 -67.5t60.5 -184.5t-64 -188.5t-160 -71.5q-112 0 -156 88h-4v-76h-84zM484 244q0 -84 41 -132t103 -48
t103 49.5t41 134.5q0 84 -40.5 130t-103.5 46q-61 0 -101.5 -45.5t-42.5 -126.5v-8z" />
    <glyph glyph-name="f_f_b" unicode="ffb" horiz-adv-x="1204" 
d="M396 0v416h-212v-416h-88v416h-92v72h92v80q0 164 164 164h56v-76h-48q-46 0 -65 -22.5t-19 -69.5v-76h212v80q0 164 164 164h224v-156q0 -100 -4 -164h4q44 88 164 88q95 0 155.5 -67.5t60.5 -184.5t-64 -188.5t-160 -71.5q-112 0 -156 88h-4v-76h-84v656h-128
q-46 0 -65 -22.5t-19 -69.5v-76h132v-72h-132v-416h-88zM784 244q0 -84 41 -132t103 -48t103 49.5t41 134.5q0 84 -40.5 130t-103.5 46q-61 0 -101.5 -45.5t-42.5 -126.5v-8z" />
    <glyph glyph-name="f_f_h" unicode="ffh" horiz-adv-x="1184" 
d="M396 0v416h-212v-416h-88v416h-92v72h92v80q0 164 164 164h56v-76h-48q-46 0 -65 -22.5t-19 -69.5v-76h212v80q0 164 164 164h224v-152q0 -100 -4 -164h4q42 84 152 84q80 0 130 -48.5t50 -155.5v-296h-88v284q0 140 -112 140q-57 0 -94.5 -46t-37.5 -122v-256h-88v656
h-128q-46 0 -65 -22.5t-19 -69.5v-76h132v-72h-132v-416h-88z" />
    <glyph glyph-name="f_f_j" unicode="ffj" horiz-adv-x="860" 
d="M396 0v416h-212v-416h-88v416h-92v72h92v80q0 164 164 164h64v-76h-56q-46 0 -65 -22.5t-19 -69.5v-76h212v80q0 164 164 164h56v-76h-48q-46 0 -65 -22.5t-19 -69.5v-76h300v-576q0 -132 -136 -132h-32v76h24q31 0 43.5 17.5t12.5 54.5v488h-212v-416h-88zM692 632v100
h96v-100h-96z" />
    <glyph glyph-name="f_f_k" unicode="ffk" horiz-adv-x="1124" 
d="M396 0v416h-212v-416h-88v416h-92v72h92v80q0 164 164 164h56v-76h-48q-46 0 -65 -22.5t-19 -69.5v-76h212v80q0 164 164 164h224v-479l212 235h104l-181 -195l201 -293h-104l-157 229l-75 -82v-147h-88v656h-128q-46 0 -65 -22.5t-19 -69.5v-76h132v-72h-132v-416h-88z
" />
    <glyph glyph-name="f_f_t" unicode="fft" horiz-adv-x="928" 
d="M396 0v416h-212v-416h-88v416h-92v72h92v80q0 164 164 164h56v-76h-48q-46 0 -65 -22.5t-19 -69.5v-76h212v80q0 164 164 164h56v-76h-48q-46 0 -65 -22.5t-19 -69.5v-76h204v148h88v-148h128v-72h-128v-268q0 -72 64 -72h64v-76h-72q-144 0 -144 144v272h-204v-416h-88z
" />
    <glyph glyph-name="f_h" unicode="fh" horiz-adv-x="884" 
d="M396 0v656h-128q-46 0 -65 -22.5t-19 -69.5v-76h108v-72h-108v-416h-88v416h-92v72h92v80q0 164 164 164h224v-152q0 -100 -4 -164h4q42 84 152 84q80 0 130 -48.5t50 -155.5v-296h-88v284q0 140 -112 140q-58 0 -95 -47.5t-37 -124.5v-252h-88z" />
    <glyph glyph-name="f_j" unicode="fj" horiz-adv-x="560" 
d="M316 -144h24q31 0 43.5 17.5t12.5 54.5v488h-212v-416h-88v416h-92v72h92v80q0 164 164 164h56v-76h-48q-46 0 -65 -22.5t-19 -69.5v-76h300v-576q0 -132 -136 -132h-32v76zM392 632v100h96v-100h-96z" />
    <glyph glyph-name="f_k" unicode="fk" horiz-adv-x="824" 
d="M396 0v656h-128q-46 0 -65 -22.5t-19 -69.5v-76h108v-72h-108v-416h-88v416h-92v72h92v80q0 164 164 164h224v-479l212 235h104l-181 -195l201 -293h-104l-157 229l-75 -82v-147h-88z" />
    <glyph glyph-name="f_t" unicode="ft" horiz-adv-x="628" 
d="M388 144v272h-204v-416h-88v416h-92v72h92v80q0 164 164 164h56v-76h-48q-46 0 -65 -22.5t-19 -69.5v-76h204v148h88v-148h128v-72h-128v-268q0 -72 64 -72h64v-76h-72q-144 0 -144 144z" />
    <glyph glyph-name="fi" unicode="fi" horiz-adv-x="560" 
d="M396 0v416h-212v-416h-88v416h-92v72h92v80q0 164 164 164h56v-76h-48q-46 0 -65 -22.5t-19 -69.5v-76h300v-488h-88zM392 632v100h96v-100h-96z" />
    <glyph glyph-name="fl" unicode="fl" horiz-adv-x="560" 
d="M96 0v416h-92v72h92v80q0 164 164 164h224v-732h-88v656h-128q-46 0 -65 -22.5t-19 -69.5v-76h108v-72h-108v-416h-88z" />
    <glyph glyph-name="ff" unicode="ff" horiz-adv-x="608" 
d="M96 0v416h-92v72h92v80q0 164 164 164h56v-76h-48q-46 0 -65 -22.5t-19 -69.5v-76h212v80q0 164 164 164h60v-76h-52q-46 0 -65 -22.5t-19 -69.5v-76h120v-72h-120v-416h-88v416h-212v-416h-88z" />
    <glyph glyph-name="ffi" unicode="ffi" horiz-adv-x="860" 
d="M396 0v416h-212v-416h-88v416h-92v72h92v80q0 164 164 164h64v-76h-56q-46 0 -65 -22.5t-19 -69.5v-76h212v80q0 164 164 164h56v-76h-48q-46 0 -65 -22.5t-19 -69.5v-76h300v-488h-88v416h-212v-416h-88zM692 632v100h96v-100h-96z" />
    <glyph glyph-name="ffl" unicode="ffl" horiz-adv-x="860" 
d="M396 0v416h-212v-416h-88v416h-92v72h92v80q0 164 164 164h56v-76h-48q-46 0 -65 -22.5t-19 -69.5v-76h212v80q0 164 164 164h224v-732h-88v656h-128q-46 0 -65 -22.5t-19 -69.5v-76h132v-72h-132v-416h-88z" />
    <glyph glyph-name=".notdef" horiz-adv-x="712" 
d="M0 0v720h712v-720h-712zM232 184l126 129l126 -129l52 52l-127 130l127 130l-52 52l-126 -129l-126 129l-52 -52l126 -130l-126 -130z" />
    <glyph glyph-name=".null" horiz-adv-x="0" 
 />
    <glyph glyph-name="nonmarkingreturn" horiz-adv-x="333" 
 />
    <glyph glyph-name="space" unicode=" " horiz-adv-x="220" 
 />
    <glyph glyph-name="exclam" unicode="!" horiz-adv-x="280" 
d="M116 192l-28 304v192h104v-192l-28 -304h-48zM88 0v108h104v-108h-104z" />
    <glyph glyph-name="quotedbl" unicode="&#x22;" horiz-adv-x="392" 
d="M80 436l-16 168v84h88v-84l-16 -168h-56zM256 436l-16 168v84h88v-84l-16 -168h-56z" />
    <glyph glyph-name="numbersign" unicode="#" horiz-adv-x="616" 
d="M60 456v68h127l29 164h80l-29 -164h144l29 164h80l-29 -164h105v-68h-117l-38 -220h115v-68h-127l-29 -168h-80l29 168h-144l-29 -168h-80l29 168h-105v68h117l38 220h-115zM255 456l-38 -220h144l38 220h-144z" />
    <glyph glyph-name="dollar" unicode="$" 
d="M44 192h88q4 -61 44.5 -96.5t103.5 -35.5q66 0 105 33t39 91q0 47 -30 71.5t-94 44.5l-88 28q-152 49 -152 184q0 73 48.5 123t127.5 61v108h88v-108q74 -12 122.5 -59.5t53.5 -120.5h-88q-8 56 -43.5 84t-88.5 28q-55 0 -91.5 -28t-36.5 -80q0 -47 26.5 -71.5
t89.5 -44.5l88 -28q81 -26 120.5 -71.5t39.5 -116.5q0 -82 -52.5 -134t-139.5 -63v-111h-88v111q-86 11 -137.5 64t-54.5 137z" />
    <glyph glyph-name="percent" unicode="%" horiz-adv-x="776" 
d="M176 336q-74 0 -111 50t-37 130t37 130t111 50t111 -50t37 -130t-37 -130t-111 -50zM600 -8q-74 0 -111 50t-37 130t37 130t111 50t111 -50t37 -130t-37 -130t-111 -50zM180 -12l348 712h68l-348 -712h-68zM176 396q72 0 72 120t-72 120t-72 -120t72 -120zM600 52
q72 0 72 120t-72 120t-72 -120t72 -120z" />
    <glyph glyph-name="ampersand" unicode="&#x26;" horiz-adv-x="712" 
d="M48 180q0 73 42.5 118.5t116.5 81.5q-46 48 -64.5 81t-18.5 75q0 67 50.5 115.5t137.5 48.5q86 0 137 -43t51 -113q0 -66 -43.5 -105.5t-123.5 -74.5l180 -182q31 66 31 154v8h80v-20q0 -110 -55 -200l123 -124h-104l-66 66q-81 -78 -218 -78q-120 0 -188 52t-68 140z
M304 60q103 0 164 59l-210 211q-59 -29 -90.5 -61t-31.5 -81q0 -60 47 -94t121 -34zM204 540q0 -29 17.5 -55.5t60.5 -70.5q66 30 100 58t34 72q0 38 -27.5 63t-76.5 25q-52 0 -80 -26.5t-28 -65.5z" />
    <glyph glyph-name="quotesingle" unicode="'" horiz-adv-x="216" 
d="M80 436l-16 168v84h88v-84l-16 -168h-56z" />
    <glyph glyph-name="parenleft" unicode="(" horiz-adv-x="284" 
d="M24 260q0 144 49.5 270.5t114.5 213.5h80q-56 -73 -108 -207.5t-52 -276.5q0 -141 52 -275.5t108 -212.5h-80q-65 86 -114.5 215t-49.5 273z" />
    <glyph glyph-name="parenright" unicode=")" horiz-adv-x="284" 
d="M16 -228q56 78 108 212.5t52 275.5q0 142 -52 276.5t-108 207.5h80q65 -87 114.5 -213.5t49.5 -270.5t-49.5 -273t-114.5 -215h-80z" />
    <glyph glyph-name="asterisk" unicode="*" horiz-adv-x="456" 
d="M192 696h72l-17 -134l122 58l22 -69l-131 -26l91 -97l-58 -42l-66 116l-64 -116l-58 42l90 98l-130 25l22 69l121 -57z" />
    <glyph glyph-name="plus" unicode="+" 
d="M56 216v76h188v188h80v-188h188v-76h-188v-188h-80v188h-188z" />
    <glyph glyph-name="comma" unicode="," horiz-adv-x="264" 
d="M124 0h-48v116h112v-108l-44 -164h-52z" />
    <glyph glyph-name="hyphen" unicode="-" horiz-adv-x="396" 
d="M60 212v80h276v-80h-276z" />
    <glyph glyph-name="period" unicode="." horiz-adv-x="264" 
d="M76 0v116h112v-116h-112z" />
    <glyph glyph-name="slash" unicode="/" horiz-adv-x="400" 
d="M8 -12l308 712h76l-308 -712h-76z" />
    <glyph glyph-name="zero" unicode="0" 
d="M284 -12q-83 0 -138 48.5t-78.5 126t-23.5 181.5t23.5 181.5t78.5 126t138 48.5t138 -48.5t78.5 -126t23.5 -181.5t-23.5 -181.5t-78.5 -126t-138 -48.5zM284 68q148 0 148 276t-148 276t-148 -276t148 -276z" />
    <glyph glyph-name="one" unicode="1" 
d="M100 468l-40 68l220 152h68v-612h164v-76h-428v76h176v503z" />
    <glyph glyph-name="two" unicode="2" 
d="M56 0q4 109 43.5 173.5t124.5 122.5l76 52l40.5 28t29.5 24t27 29.5t12.5 31.5t6.5 43q0 48 -32.5 84t-95.5 36q-128 0 -140 -140h-80q6 114 67.5 165t152.5 51q96 0 156 -52.5t60 -143.5q0 -18 -2.5 -34t-5.5 -29t-11 -27t-12 -22t-16.5 -20.5t-17 -18t-20.5 -17.5
t-20 -14.5t-22 -15l-21 -14.5l-76 -52q-70 -48 -95 -86t-29 -78h356v-76h-456z" />
    <glyph glyph-name="three" unicode="3" 
d="M48 208h84q0 -71 40.5 -107.5t107.5 -36.5q66 0 107 34t41 93q0 57 -42.5 92t-105.5 35h-52v76h52q52 0 88 33.5t36 85.5t-35.5 81.5t-88.5 29.5q-54 0 -89 -31.5t-35 -92.5h-80q0 91 56 145.5t148 54.5q94 0 151 -52t57 -134q0 -49 -30 -94t-70 -60v-4
q55 -15 91.5 -62.5t36.5 -109.5q0 -90 -67.5 -143t-168.5 -53q-107 0 -169.5 56t-62.5 164z" />
    <glyph glyph-name="four" unicode="4" 
d="M32 172v64l332 452h72v-440h100v-76h-100v-172h-88v172h-316zM122 248h226v303z" />
    <glyph glyph-name="five" unicode="5" 
d="M48 184h88q7 -50 44.5 -85t103.5 -35q61 0 104.5 39.5t43.5 108.5q0 70 -41.5 111t-106.5 41q-73 0 -132 -68l-80 4l20 388h388v-80h-308l-12 -216h4q48 48 132 48q95 0 159.5 -59.5t64.5 -160.5q0 -111 -69.5 -171.5t-166.5 -60.5q-103 0 -165.5 53t-70.5 143z" />
    <glyph glyph-name="six" unicode="6" 
d="M48 328q0 100 22 174.5t59.5 116t82 61.5t96.5 20q95 0 147 -49.5t61 -134.5h-88q-14 108 -120 108q-68 0 -116.5 -66.5t-51.5 -208.5q21 41 70.5 66t105.5 25q97 0 156.5 -61.5t59.5 -162.5q0 -105 -68.5 -166.5t-163.5 -61.5q-112 0 -182 81t-70 259zM304 364
q-65 0 -108.5 -42.5t-43.5 -106.5q0 -65 41 -108t103 -43q64 0 106 40.5t42 111.5q0 65 -41 106.5t-99 41.5z" />
    <glyph glyph-name="seven" unicode="7" 
d="M140 0l288 608h-376v80h472v-64l-292 -624h-92z" />
    <glyph glyph-name="eight" unicode="8" 
d="M44 184q0 62 36.5 109.5t91.5 62.5v4q-42 15 -71 59t-29 95q0 82 58 134t154 52t154 -52t58 -134q0 -51 -29 -95t-71 -59v-4q55 -15 91.5 -62.5t36.5 -109.5q0 -91 -65.5 -143.5t-174.5 -52.5t-174.5 52.5t-65.5 143.5zM132 191q0 -60 42 -93.5t110 -33.5t110 33.5
t42 93.5q0 57 -43.5 92t-108.5 35t-108.5 -35t-43.5 -92zM284 394q55 0 91.5 33t36.5 86q0 52 -36.5 83.5t-91.5 31.5t-91.5 -31.5t-36.5 -83.5q0 -53 36.5 -86t91.5 -33z" />
    <glyph glyph-name="nine" unicode="9" 
d="M520 360q0 -196 -68 -284t-184 -88q-98 0 -150.5 49t-65.5 135h88q23 -108 128 -108q155 0 160 274q-21 -40 -70.5 -65t-105.5 -25q-97 0 -156.5 61.5t-59.5 162.5q0 105 68.5 166.5t163.5 61.5q112 0 182 -81t70 -259zM264 324q65 0 108.5 42.5t43.5 106.5t-41.5 107.5
t-102.5 43.5q-62 0 -105 -41t-43 -111q0 -65 41 -106.5t99 -41.5z" />
    <glyph glyph-name="colon" unicode=":" horiz-adv-x="264" 
d="M76 372v116h112v-116h-112zM76 0v116h112v-116h-112z" />
    <glyph glyph-name="semicolon" unicode=";" horiz-adv-x="264" 
d="M76 372v116h112v-116h-112zM124 0h-48v116h112v-108l-44 -164h-52z" />
    <glyph glyph-name="less" unicode="&#x3c;" 
d="M72 216v76l424 180v-80l-335 -136l335 -136v-84z" />
    <glyph glyph-name="equal" unicode="=" 
d="M56 320v76h456v-76h-456zM56 112v76h456v-76h-456z" />
    <glyph glyph-name="greater" unicode="&#x3e;" 
d="M496 292v-76l-424 -180v80l335 136l-335 136v84z" />
    <glyph glyph-name="question" unicode="?" horiz-adv-x="504" 
d="M204 196v28q0 52 17.5 90t43 60t51 40.5t43 43.5t17.5 58q0 46 -32 77t-84 31q-65 0 -98.5 -40.5t-33.5 -103.5h-88q0 92 56.5 156t163.5 64q92 0 150 -49t58 -131q0 -38 -13 -69t-32.5 -49t-42.5 -37l-42.5 -35t-32.5 -40t-13 -54v-40h-88zM196 0v108h104v-108h-104z
" />
    <glyph glyph-name="at" unicode="@" horiz-adv-x="1032" 
d="M300 128q0 121 160 148l96 16q39 6 51.5 12.5t12.5 23.5q0 100 -104 100q-106 0 -112 -92h-84q3 72 54 118t138 46q97 0 146.5 -48t49.5 -136v-151q0 -113 80 -113q48 0 84 56t36 164q0 166 -109 265t-279 99q-178 0 -287 -115.5t-109 -288.5q0 -171 106.5 -283.5
t277.5 -112.5q137 0 212 76h100q-109 -140 -312 -140t-331.5 131.5t-128.5 328.5q0 199 131 333.5t341 134.5q202 0 333 -118t131 -310q0 -140 -59 -210t-145 -70q-109 0 -140 82q-48 -86 -176 -86q-77 0 -120.5 38.5t-43.5 101.5zM620 204v47q-14 -17 -52 -23l-96 -16
q-84 -14 -84 -80q0 -35 24.5 -55.5t67.5 -20.5q61 0 100.5 38t39.5 110z" />
    <glyph glyph-name="A" unicode="A" horiz-adv-x="644" 
d="M12 0l256 688h108l256 -688h-96l-65 180h-302l-65 -180h-92zM322 592h-4l-120 -332h244z" />
    <glyph glyph-name="B" unicode="B" horiz-adv-x="664" 
d="M84 0v688h284q110 0 165 -47t55 -133q0 -50 -27.5 -88.5t-80.5 -55.5v-4q62 -11 99 -53.5t37 -102.5q0 -91 -59.5 -147.5t-168.5 -56.5h-304zM388 316h-212v-236h212q67 0 101.5 33.5t34.5 89.5q0 50 -35 81.5t-101 31.5zM368 608h-192v-212h192q61 0 94.5 31.5
t33.5 81.5q0 99 -128 99z" />
    <glyph glyph-name="C" unicode="C" horiz-adv-x="712" 
d="M44 344q0 155 92.5 255.5t239.5 100.5q118 0 194 -62t98 -166h-95q-40 144 -197 144q-105 0 -170.5 -76t-65.5 -196q0 -118 65 -195t167 -77q161 0 201 144h95q-21 -104 -99.5 -166t-196.5 -62q-145 0 -236.5 99.5t-91.5 256.5z" />
    <glyph glyph-name="D" unicode="D" horiz-adv-x="704" 
d="M88 0v688h212q173 0 266.5 -94.5t93.5 -249.5t-93.5 -249.5t-266.5 -94.5h-212zM300 608h-120v-528h120q136 0 200 74.5t64 189.5t-64 189.5t-200 74.5z" />
    <glyph glyph-name="E" unicode="E" horiz-adv-x="612" 
d="M88 0v688h464v-80h-372v-218h296v-80h-296v-230h380v-80h-472z" />
    <glyph glyph-name="F" unicode="F" horiz-adv-x="576" 
d="M88 0v688h456v-80h-364v-248h288v-80h-288v-280h-92z" />
    <glyph glyph-name="G" unicode="G" horiz-adv-x="760" 
d="M624 0l-16 100h-3q-71 -112 -225 -112q-147 0 -241.5 101t-94.5 255q0 155 95 255.5t245 100.5q119 0 198 -60.5t102 -155.5h-96q-18 58 -69.5 95t-134.5 37q-110 0 -177 -76.5t-67 -195.5q0 -118 67.5 -195t172.5 -77q91 0 155.5 51.5t64.5 140.5v20h-216v80h300v-364
h-60z" />
    <glyph glyph-name="H" unicode="H" horiz-adv-x="728" 
d="M88 0v688h92v-300h368v300h92v-688h-92v308h-368v-308h-92z" />
    <glyph glyph-name="I" unicode="I" horiz-adv-x="268" 
d="M88 0v688h92v-688h-92z" />
    <glyph glyph-name="J" unicode="J" horiz-adv-x="512" 
d="M36 196v32h92v-24q0 -70 29 -103t79 -33t79 33t29 103v484h92v-492q0 -107 -53.5 -157.5t-146.5 -50.5t-146.5 50.5t-53.5 157.5z" />
    <glyph glyph-name="K" unicode="K" horiz-adv-x="652" 
d="M88 0v688h92v-370l344 370h108l-283 -299l295 -389h-104l-252 325l-108 -115v-210h-92z" />
    <glyph glyph-name="L" unicode="L" horiz-adv-x="544" 
d="M88 0v688h92v-608h336v-80h-428z" />
    <glyph glyph-name="M" unicode="M" horiz-adv-x="904" 
d="M88 0v688h112l253 -564h2l249 564h112v-688h-92l8 544h-4l-240 -544h-72l-240 532h-4l8 -532h-92z" />
    <glyph glyph-name="N" unicode="N" horiz-adv-x="736" 
d="M88 0v688h88l380 -532h4l-4 532h92v-688h-88l-380 528h-4l4 -528h-92z" />
    <glyph glyph-name="O" unicode="O" horiz-adv-x="760" 
d="M44 344q0 155 93.5 255.5t242.5 100.5q147 0 241.5 -101t94.5 -255t-94.5 -255t-241.5 -101q-149 0 -242.5 100.5t-93.5 255.5zM140 344q0 -118 66.5 -195t173.5 -77t173.5 77t66.5 195t-66.5 195t-173.5 77t-173.5 -77t-66.5 -195z" />
    <glyph glyph-name="P" unicode="P" horiz-adv-x="636" 
d="M88 0v688h260q115 0 179.5 -60.5t64.5 -159.5q0 -100 -65 -164t-179 -64h-168v-240h-92zM352 608h-172v-288h172q72 0 110 42t38 106q0 63 -38 101.5t-110 38.5z" />
    <glyph glyph-name="Q" unicode="Q" horiz-adv-x="764" 
d="M44 344q0 155 93.5 255.5t242.5 100.5q147 0 241.5 -101t94.5 -255q0 -166 -107 -268l131 -136l-64 -64l-140 148q-72 -36 -156 -36q-149 0 -242.5 100.5t-93.5 255.5zM140 344q0 -118 66.5 -195t173.5 -77t173.5 77t66.5 195t-66.5 195t-173.5 77t-173.5 -77t-66.5 -195
z" />
    <glyph glyph-name="R" unicode="R" horiz-adv-x="652" 
d="M88 0v688h260q117 0 178.5 -53t61.5 -151q0 -78 -39 -131.5t-112 -73.5l175 -279h-100l-171 268h-161v-268h-92zM352 608h-172v-260h172q69 0 106.5 38t37.5 98q0 58 -38 91t-106 33z" />
    <glyph glyph-name="S" unicode="S" horiz-adv-x="648" 
d="M56 196h92q0 -58 46.5 -95t125.5 -37q84 0 130 33.5t46 94.5q0 37 -23.5 60.5t-61.5 34.5t-84 19t-92 19.5t-84 29.5t-61.5 54.5t-23.5 90.5q0 88 70 144t184 56q113 0 182.5 -52.5t69.5 -143.5h-92q0 56 -44.5 88t-115.5 32q-70 0 -115 -30t-45 -86q0 -36 24 -59t62 -34
t84 -19t92 -19.5t84 -30t62 -56.5t24 -94q0 -94 -72.5 -151t-199.5 -57q-124 0 -194 56.5t-70 151.5z" />
    <glyph glyph-name="T" unicode="T" horiz-adv-x="588" 
d="M8 610v78h572v-78h-240v-610h-92v610h-240z" />
    <glyph glyph-name="U" unicode="U" horiz-adv-x="696" 
d="M72 272v416h92v-416q0 -96 46 -148t138 -52t138 52t46 148v416h92v-416q0 -147 -73.5 -215.5t-202.5 -68.5t-202.5 68.5t-73.5 215.5z" />
    <glyph glyph-name="V" unicode="V" horiz-adv-x="620" 
d="M258 0l-250 688h96l206 -592h4l206 592h92l-252 -688h-102z" />
    <glyph glyph-name="W" unicode="W" horiz-adv-x="936" 
d="M196 0l-184 688h96l146 -592h4l158 592h112l158 -592h4l142 592h92l-180 -688h-116l-156 584h-4l-156 -584h-116z" />
    <glyph glyph-name="X" unicode="X" horiz-adv-x="596" 
d="M8 0l237 351l-229 337h104l177 -264l175 264h100l-225 -334l241 -354h-104l-189 281l-187 -281h-100z" />
    <glyph glyph-name="Y" unicode="Y" horiz-adv-x="608" 
d="M256 0v270l-244 418h104l186 -324h4l194 324h96l-248 -411v-277h-92z" />
    <glyph glyph-name="Z" unicode="Z" horiz-adv-x="584" 
d="M56 610v78h492v-60l-397 -550h393v-78h-508v60l397 550h-377z" />
    <glyph glyph-name="bracketleft" unicode="[" horiz-adv-x="332" 
d="M168 -156h148v-72h-228v972h228v-72h-148v-828z" />
    <glyph glyph-name="backslash" unicode="\" horiz-adv-x="400" 
d="M316 -12l-308 712h76l308 -712h-76z" />
    <glyph glyph-name="bracketright" unicode="]" horiz-adv-x="332" 
d="M16 -156h148v828h-148v72h228v-972h-228v72z" />
    <glyph glyph-name="asciicircum" unicode="^" 
d="M54 352l188 336h88l188 -336h-92l-142 265l-142 -265h-88z" />
    <glyph glyph-name="underscore" unicode="_" horiz-adv-x="500" 
d="M0 -72h500v-68h-500v68z" />
    <glyph glyph-name="grave" unicode="`" horiz-adv-x="560" 
d="M248 568l-144 164h104l104 -164h-64z" />
    <glyph glyph-name="a" unicode="a" horiz-adv-x="524" 
d="M48 124q0 62 38 98.5t122 51.5l96 16q40 7 52 14t12 24q0 46 -27 73t-77 27q-52 0 -80.5 -25t-31.5 -67h-84q3 72 55 118t141 46q94 0 143 -47t49 -133v-320h-84v65h-4q-42 -77 -156 -77q-77 0 -120.5 37t-43.5 99zM368 204v47q-14 -17 -52 -23l-92 -16q-88 -15 -88 -80
q0 -33 23.5 -52.5t68.5 -19.5q60 0 100 37.5t40 106.5z" />
    <glyph glyph-name="b" unicode="b" horiz-adv-x="584" 
d="M76 0v732h88v-156q0 -100 -4 -164h4q44 88 164 88q95 0 155.5 -67.5t60.5 -184.5t-64 -188.5t-160 -71.5q-112 0 -156 88h-4v-76h-84zM164 244q0 -84 41 -132t103 -48t103 49.5t41 134.5q0 84 -40.5 130t-103.5 46q-61 0 -101.5 -45.5t-42.5 -126.5v-8z" />
    <glyph glyph-name="c" unicode="c" horiz-adv-x="516" 
d="M40 244q0 115 65.5 185.5t166.5 70.5q91 0 146.5 -48.5t65.5 -127.5h-88q-8 45 -39 72.5t-85 27.5q-61 0 -100.5 -50t-39.5 -130t39.5 -130t100.5 -50q54 0 85 27.5t39 72.5h88q-10 -79 -65.5 -127.5t-146.5 -48.5q-108 0 -170 69t-62 187z" />
    <glyph glyph-name="d" unicode="d" horiz-adv-x="584" 
d="M40 240q0 117 64 188.5t160 71.5q112 0 156 -88h4q-4 64 -4 164v156h88v-732h-84v76h-4q-44 -88 -164 -88q-95 0 -155.5 67.5t-60.5 184.5zM132 240q0 -84 40.5 -130t103.5 -46q62 0 103 48t41 132t-41 132t-103 48t-103 -49.5t-41 -134.5z" />
    <glyph glyph-name="e" unicode="e" horiz-adv-x="524" 
d="M40 244q0 113 66 184.5t166 71.5q97 0 156.5 -62t59.5 -170v-36h-356q3 -77 42 -122.5t102 -45.5q51 0 81.5 24t38.5 60h88q-10 -67 -67.5 -113.5t-140.5 -46.5q-113 0 -174.5 68.5t-61.5 187.5zM272 424q-50 0 -86.5 -33.5t-48.5 -92.5h261q-11 126 -126 126z" />
    <glyph glyph-name="f" unicode="f" horiz-adv-x="308" 
d="M96 0v416h-92v72h92v80q0 164 164 164h60v-76h-52q-46 0 -65 -22.5t-19 -69.5v-76h120v-72h-120v-416h-88z" />
    <glyph glyph-name="g" unicode="g" horiz-adv-x="584" 
d="M52 -60h84q0 -44 37 -70t95 -26q156 0 156 180v52h-4q-44 -88 -164 -88q-95 0 -155.5 67.5t-60.5 184.5t64 188.5t160 71.5q112 0 156 -88h4v76h84v-464q0 -130 -66.5 -191t-173.5 -61q-95 0 -155.5 44t-60.5 124zM132 240q0 -84 40.5 -130t103.5 -46q62 0 103 48t41 132
t-41 132t-103 48t-103 -49.5t-41 -134.5z" />
    <glyph glyph-name="h" unicode="h" horiz-adv-x="564" 
d="M76 0v732h88v-152q0 -100 -4 -164h4q42 84 152 84q80 0 130 -48.5t50 -155.5v-296h-88v284q0 140 -112 140q-57 0 -94.5 -46.5t-37.5 -122.5v-255h-88z" />
    <glyph glyph-name="i" unicode="i" horiz-adv-x="240" 
d="M72 632v100h96v-100h-96zM76 0v488h88v-488h-88z" />
    <glyph glyph-name="j" unicode="j" horiz-adv-x="240" 
d="M72 632v100h96v-100h-96zM76 -72v560h88v-576q0 -132 -136 -132h-32v76h24q31 0 43.5 17.5t12.5 54.5z" />
    <glyph glyph-name="k" unicode="k" horiz-adv-x="504" 
d="M76 0v732h88v-479l212 235h104l-181 -195l201 -293h-104l-157 229l-75 -82v-147h-88z" />
    <glyph glyph-name="l" unicode="l" horiz-adv-x="240" 
d="M76 0v732h88v-732h-88z" />
    <glyph glyph-name="m" unicode="m" horiz-adv-x="864" 
d="M76 0v488h84v-72h4q42 84 148 84q114 0 152 -99q47 99 164 99q75 0 121.5 -47t46.5 -149v-304h-88v292q0 71 -24 101.5t-76 30.5q-54 0 -91 -46.5t-37 -123.5v-254h-88v292q0 70 -25 101t-75 31q-54 0 -91 -47t-37 -124v-253h-88z" />
    <glyph glyph-name="n" unicode="n" horiz-adv-x="564" 
d="M76 0v488h84v-72h4q42 84 152 84q80 0 130 -48.5t50 -155.5v-296h-88v284q0 140 -112 140q-57 0 -94.5 -46.5t-37.5 -124.5v-253h-88z" />
    <glyph glyph-name="o" unicode="o" horiz-adv-x="560" 
d="M40 244q0 116 67 186t173 70q111 0 175.5 -69.5t64.5 -186.5q0 -116 -67 -186t-173 -70q-111 0 -175.5 69.5t-64.5 186.5zM132 244q0 -81 41 -130.5t107 -49.5t107 49.5t41 130.5q0 83 -40.5 131.5t-107.5 48.5q-66 0 -107 -49.5t-41 -130.5z" />
    <glyph glyph-name="p" unicode="p" horiz-adv-x="584" 
d="M164 -88v-132h-88v708h84v-76h4q44 88 164 88q95 0 155.5 -67.5t60.5 -184.5t-64 -188.5t-160 -71.5q-112 0 -156 88h-4q4 -64 4 -164zM452 248q0 84 -40.5 130t-103.5 46q-61 0 -101.5 -45.5t-42.5 -126.5v-8q0 -84 41 -132t103 -48t103 49.5t41 134.5z" />
    <glyph glyph-name="q" unicode="q" horiz-adv-x="580" 
d="M420 -88q0 100 4 164h-4q-44 -88 -164 -88q-95 0 -155.5 67.5t-60.5 184.5t64 188.5t160 71.5q112 0 156 -88h4v76h84v-708h-88v132zM132 240q0 -84 40.5 -130t103.5 -46q61 0 101.5 45.5t42.5 125.5v17q-2 81 -42.5 126.5t-101.5 45.5q-62 0 -103 -49.5t-41 -134.5z" />
    <glyph glyph-name="r" unicode="r" horiz-adv-x="360" 
d="M76 0v488h84v-71h3q38 83 129 83q39 0 68 -20l-28 -80q-32 16 -60 16q-52 0 -80 -46.5t-28 -114.5v-255h-88z" />
    <glyph glyph-name="s" unicode="s" horiz-adv-x="492" 
d="M40 140h84q0 -41 34.5 -62.5t81.5 -21.5q120 0 120 80q0 28 -18.5 42.5t-57.5 21.5l-92 16q-142 24 -142 132q0 70 55 111t139 41t138 -37t54 -111h-84q0 38 -29.5 59t-78.5 21q-47 0 -77.5 -20t-30.5 -56q0 -51 84 -65l92 -16q64 -11 100 -40.5t36 -90.5
q0 -75 -56.5 -115.5t-151.5 -40.5q-90 0 -145 39.5t-55 112.5z" />
    <glyph glyph-name="t" unicode="t" horiz-adv-x="328" 
d="M88 144v272h-92v72h92v148h88v-148h128v-72h-128v-268q0 -39 16 -55.5t52 -16.5h60v-76h-72q-144 0 -144 144z" />
    <glyph glyph-name="u" unicode="u" horiz-adv-x="560" 
d="M68 192v296h88v-284q0 -140 112 -140q57 0 92.5 47t35.5 125v252h88v-488h-84v72h-4q-42 -84 -148 -84q-80 0 -130 48.5t-50 155.5z" />
    <glyph glyph-name="v" unicode="v" horiz-adv-x="468" 
d="M188 0l-184 488h96l136 -392h4l136 392h88l-180 -488h-96z" />
    <glyph glyph-name="w" unicode="w" horiz-adv-x="724" 
d="M144 0l-140 488h92l100 -396h4l112 396h104l112 -396h4l100 396h88l-140 -488h-108l-108 400h-4l-108 -400h-108z" />
    <glyph glyph-name="x" unicode="x" horiz-adv-x="464" 
d="M12 0l172 246l-168 242h104l117 -175l115 175h96l-169 -241l173 -247h-104l-121 181l-119 -181h-96z" />
    <glyph glyph-name="y" unicode="y" horiz-adv-x="468" 
d="M33 -152h32q84 0 120 100l11 31l-192 509h96l136 -392h4l136 392h88l-207 -564q-55 -152 -176 -152h-48v76z" />
    <glyph glyph-name="z" unicode="z" horiz-adv-x="444" 
d="M32 416v72h376v-60l-259 -356h263v-72h-376v52l264 364h-268z" />
    <glyph glyph-name="braceleft" unicode="{" horiz-adv-x="356" 
d="M132 -76v176q0 76 -22.5 104t-89.5 28v60q67 0 89.5 28t22.5 104v168q0 76 35 114t121 38h52v-68h-48q-45 0 -62.5 -18.5t-17.5 -61.5v-196q0 -56 -23 -88.5t-77 -47.5v-4q54 -15 77 -47.5t23 -88.5v-204q0 -43 17.5 -61.5t62.5 -18.5h48v-68h-52q-86 0 -121 38t-35 114z
" />
    <glyph glyph-name="bar" unicode="|" horiz-adv-x="256" 
d="M88 -240v1000h80v-1000h-80z" />
    <glyph glyph-name="braceright" unicode="}" horiz-adv-x="356" 
d="M16 -160h48q45 0 62.5 18.5t17.5 61.5v204q0 56 23 88.5t77 47.5v4q-54 15 -77 47.5t-23 88.5v196q0 43 -17.5 61.5t-62.5 18.5h-48v68h52q86 0 121 -38t35 -114v-168q0 -76 22.5 -104t89.5 -28v-60q-67 0 -89.5 -28t-22.5 -104v-176q0 -76 -35 -114t-121 -38h-52v68z
" />
    <glyph glyph-name="asciitilde" unicode="~" 
d="M56 184q0 74 36.5 113t91.5 39q39 0 76 -19t68.5 -38t55.5 -19q52 0 52 76h76q0 -74 -35.5 -113t-88.5 -39q-39 0 -77.5 20t-70.5 40t-56 20q-52 0 -52 -80h-76z" />
    <glyph glyph-name="exclamdown" unicode="&#xa1;" horiz-adv-x="280" 
d="M88 380v108h104v-108h-104zM88 -8l28 304h48l28 -304v-192h-104v192z" />
    <glyph glyph-name="cent" unicode="&#xa2;" 
d="M252 -12v107q-92 14 -144 81t-52 172q0 102 56.5 170.5t143.5 82.5v99h88v-100q74 -12 118.5 -58t53.5 -114h-88q-8 45 -41.5 72.5t-90.5 27.5q-64 0 -106 -50t-42 -130t42 -130t106 -50q57 0 90.5 27.5t41.5 72.5h88q-9 -69 -55 -115.5t-121 -57.5v-107h-88z" />
    <glyph glyph-name="sterling" unicode="&#xa3;" 
d="M60 326v62h87q-27 85 -27 136q0 80 50.5 128t133.5 48q81 0 127.5 -45.5t52.5 -130.5h-88q-5 54 -28.5 79t-67.5 25q-39 0 -65.5 -26t-26.5 -70q0 -51 33 -144h159v-62h-138q14 -52 14 -90q0 -54 -14 -105q4 -3 16 -11l16.5 -11l15 -10t16 -10l15 -8t16.5 -7t15.5 -5
t16 -4t15.5 -1q64 0 68 100h76q-13 -176 -148 -176q-28 0 -60 13.5t-51 26.5t-53 39q-45 -79 -128 -79q-48 0 -76 26t-28 66q0 51 32.5 79.5t83.5 28.5q31 0 70 -16q2 22 2 32q0 48 -24 122h-108zM110 40q46 0 68 68q-38 24 -66 24q-20 0 -34 -13t-14 -33q0 -21 12 -33.5
t34 -12.5z" />
    <glyph glyph-name="currency" unicode="&#xa4;" 
d="M132 148l-44 44l58 59q-30 46 -30 93q0 49 32 95l-60 61l44 44l60 -62q40 26 92 26q51 0 91 -26l61 62l44 -44l-60 -61q32 -46 32 -95q0 -46 -31 -93l59 -59l-44 -44l-58 59q-39 -27 -94 -27t-94 27zM284 244q41 0 68.5 27.5t27.5 72.5t-27.5 72.5t-68.5 27.5
t-68.5 -27.5t-27.5 -72.5t27.5 -72.5t68.5 -27.5z" />
    <glyph glyph-name="yen" unicode="&#xa5;" 
d="M88 248v56h152v6l-224 378h100l170 -296h4l170 296h92l-224 -381v-3h152v-56h-152v-76h152v-56h-152v-116h-88v116h-152v56h152v76h-152z" />
    <glyph glyph-name="brokenbar" unicode="&#xa6;" horiz-adv-x="256" 
d="M88 336v352h80v-352h-80zM88 -164v352h80v-352h-80z" />
    <glyph glyph-name="section" unicode="&#xa7;" horiz-adv-x="572" 
d="M68 -68h84q9 -92 128 -92q60 0 92 25.5t32 70.5q0 37 -23 56.5t-73 35.5l-92 28q-82 25 -119 67t-37 109q0 53 31 94t86 61q-97 43 -97 141q0 80 58.5 126t153.5 46q94 0 150 -39.5t62 -120.5h-84q-9 92 -128 92q-60 0 -92 -25.5t-32 -70.5q0 -37 23 -56.5t73 -35.5
l92 -28q82 -25 119 -67t37 -109q0 -53 -31 -93.5t-86 -61.5q97 -44 97 -141q0 -80 -58.5 -126t-153.5 -46q-94 0 -150 39.5t-62 120.5zM320 340l-65 19q-54 -13 -82.5 -44.5t-28.5 -70.5q0 -48 25.5 -71.5t82.5 -40.5l57 -18q58 12 88.5 43t30.5 71q0 47 -25 70.5t-83 41.5z
" />
    <glyph glyph-name="dieresis" unicode="&#xa8;" horiz-adv-x="560" 
d="M336 604v92h88v-92h-88zM136 604v92h88v-92h-88z" />
    <glyph glyph-name="copyright" unicode="&#xa9;" horiz-adv-x="776" 
d="M36 348q0 151 100 251.5t252 100.5q150 0 251 -101t101 -251q0 -152 -100.5 -256t-251.5 -104t-251.5 104t-100.5 256zM108 348q0 -125 79 -212.5t201 -87.5q119 0 199.5 88t80.5 212t-78.5 206t-201.5 82t-201.5 -82t-78.5 -206zM216 348q0 75 47 125.5t125 50.5
q61 0 100.5 -31.5t49.5 -84.5h-70q-16 56 -80 56q-45 0 -72.5 -33.5t-27.5 -82.5t27.5 -82.5t72.5 -33.5q64 0 80 56h70q-10 -53 -49.5 -84.5t-100.5 -31.5q-78 0 -125 50.5t-47 125.5z" />
    <glyph glyph-name="ordfeminine" unicode="&#xaa;" horiz-adv-x="386" 
d="M151 336q-54 0 -84.5 27t-30.5 71q0 89 115 105l65 8q26 3 35 8.5t9 20.5q0 27 -16.5 44.5t-48.5 17.5q-64 0 -68 -60h-75q4 60 43.5 89.5t99.5 29.5q69 0 107 -31.5t38 -92.5v-229h-77v42h-3q-31 -50 -109 -50zM173 392q37 0 62 22.5t25 67.5v31q-9 -13 -34 -16l-56 -7
q-54 -7 -54 -50q0 -23 15 -35.5t42 -12.5z" />
    <glyph glyph-name="guillemotleft" unicode="&#xab;" horiz-adv-x="512" 
d="M244 252l144 204h72l-116 -204l116 -204h-72zM196 48l-144 204l144 204h72l-116 -204l116 -204h-72z" />
    <glyph glyph-name="logicalnot" unicode="&#xac;" 
d="M56 216v76h456v-264h-80v188h-376z" />
    <glyph glyph-name="uni00AD" unicode="&#xad;" horiz-adv-x="396" 
d="M60 212v80h276v-80h-276z" />
    <glyph glyph-name="registered" unicode="&#xae;" horiz-adv-x="776" 
d="M36 348q0 151 100 251.5t252 100.5q150 0 251 -101t101 -251q0 -152 -100.5 -256t-251.5 -104t-251.5 104t-100.5 256zM108 348q0 -125 79 -212.5t201 -87.5q119 0 199.5 88t80.5 212t-78.5 206t-201.5 82t-201.5 -82t-78.5 -206zM248 176v344h158q63 0 96.5 -28.5
t33.5 -79.5q0 -35 -21 -62.5t-55 -40.5l88 -133h-78l-77 124h-73v-124h-72zM404 460h-84v-100h84q60 0 60 52q0 48 -60 48z" />
    <glyph glyph-name="macron" unicode="&#xaf;" horiz-adv-x="560" 
d="M140 616v68h276v-68h-276z" />
    <glyph glyph-name="degree" unicode="&#xb0;" horiz-adv-x="360" 
d="M180 428q-60 0 -100 38t-40 98t40 98t100 38t100 -38t40 -98t-40 -98t-100 -38zM180 636q-30 0 -49 -20t-19 -52t19 -52t49 -20t49 20t19 52t-19 52t-49 20z" />
    <glyph glyph-name="plusminus" unicode="&#xb1;" 
d="M56 316v76h188v174h80v-174h188v-76h-188v-174h-80v174h-188zM56 0v76h456v-76h-456z" />
    <glyph glyph-name="acute" unicode="&#xb4;" horiz-adv-x="560" 
d="M248 568l104 164h104l-144 -164h-64z" />
    <glyph glyph-name="mu" unicode="&#xb5;" 
d="M152 16q12 -96 12 -160v-76h-88v708h88v-284q0 -75 28 -107.5t84 -32.5q57 0 92.5 47t35.5 125v252h88v-488h-84v72h-4q-42 -84 -148 -84q-57 0 -98 28h-6z" />
    <glyph glyph-name="paragraph" unicode="&#xb6;" horiz-adv-x="628" 
d="M436 0v688h88v-688h-88zM264 0v249q-104 7 -164 66t-60 153q0 100 67.5 160t184.5 60h60v-688h-88z" />
    <glyph glyph-name="periodcentered" unicode="&#xb7;" horiz-adv-x="264" 
d="M76 196v112h112v-112h-112z" />
    <glyph glyph-name="cedilla" unicode="&#xb8;" horiz-adv-x="560" 
d="M236 -84l28 84h32v-36q44 -3 68 -27.5t24 -60.5q0 -43 -30 -69.5t-86 -26.5h-56v56h52q52 0 52 40t-52 40h-32z" />
    <glyph glyph-name="ordmasculine" unicode="&#xba;" horiz-adv-x="413" 
d="M206 336q-81 0 -128.5 48.5t-47.5 131.5q0 82 48.5 131.5t127.5 49.5q81 0 129 -49t48 -132q0 -82 -49 -131t-128 -49zM206 400q43 0 68.5 32t25.5 84q0 53 -25.5 84.5t-68.5 31.5q-42 0 -67.5 -32t-25.5 -84t25.5 -84t67.5 -32z" />
    <glyph glyph-name="guillemotright" unicode="&#xbb;" horiz-adv-x="512" 
d="M244 48l116 204l-116 204h72l144 -204l-144 -204h-72zM52 48l116 204l-116 204h72l144 -204l-144 -204h-72z" />
    <glyph glyph-name="onequarter" unicode="&#xbc;" horiz-adv-x="776" 
d="M448 64v48l188 232h64v-220h48v-60h-48v-64h-76v64h-176zM216 -12l348 712h68l-348 -712h-68zM72 550l-32 54l140 84h48v-280h92v-64h-268v64h100v188zM531 124h93v117z" />
    <glyph glyph-name="onehalf" unicode="&#xbd;" horiz-adv-x="776" 
d="M456 0q0 70 30 106.5t82 62.5l24 12q68 34 68 63q0 48 -60 48q-63 0 -68 -64h-72q2 63 41.5 93.5t98.5 30.5q62 0 99 -27.5t37 -78.5q0 -23 -9 -41.5t-28.5 -33t-33.5 -23t-41 -21.5l-24 -12q-22 -11 -39 -26t-17 -25h192v-64h-280zM192 -12l348 712h68l-348 -712h-68z
M72 550l-32 54l140 84h48v-280h92v-64h-268v64h100v188z" />
    <glyph glyph-name="threequarters" unicode="&#xbe;" horiz-adv-x="776" 
d="M448 64v48l188 232h64v-220h48v-60h-48v-64h-76v64h-176zM34 448h72q0 -26 19.5 -41t50.5 -15q70 0 70 52t-70 52h-28v52h28q62 0 62 46t-62 46q-28 0 -45 -14.5t-17 -37.5h-72q0 52 37.5 80t100.5 28q59 0 95.5 -27t36.5 -69q0 -28 -15 -49t-41 -27v-3q31 -7 49.5 -30
t18.5 -55q0 -48 -39 -74t-109 -26q-142 0 -142 112zM204 -12l348 712h68l-348 -712h-68zM531 124h93v117z" />
    <glyph glyph-name="questiondown" unicode="&#xbf;" horiz-adv-x="504" 
d="M208 380v108h104v-108h-104zM40 -32q0 38 13 69t32.5 49t42.5 37l42.5 35t32.5 40t13 54v40h88v-28q0 -52 -17.5 -90t-43 -60t-51 -40.5t-43 -43.5t-17.5 -58q0 -46 32 -77t84 -31q65 0 98.5 40.5t33.5 103.5h88q0 -92 -56.5 -156t-163.5 -64q-92 0 -150 49t-58 131z" />
    <glyph glyph-name="Agrave" unicode="&#xc0;" horiz-adv-x="644" 
d="M12 0l256 688h108l256 -688h-96l-65 180h-302l-65 -180h-92zM322 592h-4l-120 -332h244zM288 768l-144 164h104l104 -164h-64z" />
    <glyph glyph-name="Aacute" unicode="&#xc1;" horiz-adv-x="644" 
d="M12 0l256 688h108l256 -688h-96l-65 180h-302l-65 -180h-92zM322 592h-4l-120 -332h244zM288 768l104 164h104l-144 -164h-64z" />
    <glyph glyph-name="Acircumflex" unicode="&#xc2;" horiz-adv-x="644" 
d="M12 0l256 688h108l256 -688h-96l-65 180h-302l-65 -180h-92zM322 592h-4l-120 -332h244zM152 768l128 164h80l128 -164h-84l-84 112l-84 -112h-84z" />
    <glyph glyph-name="Atilde" unicode="&#xc3;" horiz-adv-x="644" 
d="M12 0l256 688h108l256 -688h-96l-65 180h-302l-65 -180h-92zM322 592h-4l-120 -332h244zM156 796q2 47 27 77.5t69 30.5q32 0 79 -24t61 -24q36 0 44 48h48q-2 -47 -27 -77.5t-69 -30.5q-32 0 -79 24t-61 24q-36 0 -44 -48h-48z" />
    <glyph glyph-name="Adieresis" unicode="&#xc4;" horiz-adv-x="644" 
d="M12 0l256 688h108l256 -688h-96l-65 180h-302l-65 -180h-92zM322 592h-4l-120 -332h244zM376 804v92h88v-92h-88zM176 804v92h88v-92h-88z" />
    <glyph glyph-name="Aring" unicode="&#xc5;" horiz-adv-x="644" 
d="M12 0l256 688h108l256 -688h-96l-65 180h-302l-65 -180h-92zM322 592h-4l-120 -332h244zM320 764q-41 0 -70.5 27t-29.5 69t29.5 69t70.5 27t70.5 -27t29.5 -69t-29.5 -69t-70.5 -27zM320 808q22 0 37 15t15 37t-15 37t-37 15t-37 -15t-15 -37t15 -37t37 -15z" />
    <glyph glyph-name="AE" unicode="&#xc6;" horiz-adv-x="1064" 
d="M12 0l496 688h496v-80h-372v-218h296v-80h-296v-230h380v-80h-472v160h-305l-115 -160h-108zM536 580l-244 -340h248v340h-4z" />
    <glyph glyph-name="Ccedilla" unicode="&#xc7;" horiz-adv-x="712" 
d="M328 -84l24 73q-137 8 -222.5 106t-85.5 249q0 155 92.5 255.5t239.5 100.5q118 0 194 -62t98 -166h-95q-40 144 -197 144q-105 0 -170.5 -76t-65.5 -196q0 -118 65 -195t167 -77q161 0 201 144h95q-21 -100 -94.5 -162t-185.5 -66v-24q44 -3 68 -27.5t24 -60.5
q0 -43 -30 -69.5t-86 -26.5h-56v56h52q52 0 52 40t-52 40h-32z" />
    <glyph glyph-name="Egrave" unicode="&#xc8;" horiz-adv-x="612" 
d="M88 0v688h464v-80h-372v-218h296v-80h-296v-230h380v-80h-472zM288 768l-144 164h104l104 -164h-64z" />
    <glyph glyph-name="Eacute" unicode="&#xc9;" horiz-adv-x="612" 
d="M88 0v688h464v-80h-372v-218h296v-80h-296v-230h380v-80h-472zM288 768l104 164h104l-144 -164h-64z" />
    <glyph glyph-name="Ecircumflex" unicode="&#xca;" horiz-adv-x="612" 
d="M88 0v688h464v-80h-372v-218h296v-80h-296v-230h380v-80h-472zM152 768l128 164h80l128 -164h-84l-84 112l-84 -112h-84z" />
    <glyph glyph-name="Edieresis" unicode="&#xcb;" horiz-adv-x="612" 
d="M88 0v688h464v-80h-372v-218h296v-80h-296v-230h380v-80h-472zM376 804v92h88v-92h-88zM176 804v92h88v-92h-88z" />
    <glyph glyph-name="Igrave" unicode="&#xcc;" horiz-adv-x="268" 
d="M88 0v688h92v-688h-92zM102 768l-144 164h104l104 -164h-64z" />
    <glyph glyph-name="Iacute" unicode="&#xcd;" horiz-adv-x="268" 
d="M88 0v688h92v-688h-92zM102 768l104 164h104l-144 -164h-64z" />
    <glyph glyph-name="Icircumflex" unicode="&#xce;" horiz-adv-x="268" 
d="M88 0v688h92v-688h-92zM-34 768l128 164h80l128 -164h-84l-84 112l-84 -112h-84z" />
    <glyph glyph-name="Idieresis" unicode="&#xcf;" horiz-adv-x="268" 
d="M88 0v688h92v-688h-92zM190 804v92h88v-92h-88zM-10 804v92h88v-92h-88z" />
    <glyph glyph-name="Eth" unicode="&#xd0;" horiz-adv-x="704" 
d="M4 308v76h84v304h212q173 0 266.5 -94.5t93.5 -249.5t-93.5 -249.5t-266.5 -94.5h-212v308h-84zM300 608h-120v-224h160v-76h-160v-228h120q136 0 200 74.5t64 189.5t-64 189.5t-200 74.5z" />
    <glyph glyph-name="Ntilde" unicode="&#xd1;" horiz-adv-x="736" 
d="M88 0v688h88l380 -532h4l-4 532h92v-688h-88l-380 528h-4l4 -528h-92zM204 796q2 47 27 77.5t69 30.5q32 0 79 -24t61 -24q36 0 44 48h48q-2 -47 -27 -77.5t-69 -30.5q-32 0 -79 24t-61 24q-36 0 -44 -48h-48z" />
    <glyph glyph-name="Ograve" unicode="&#xd2;" horiz-adv-x="760" 
d="M44 344q0 155 93.5 255.5t242.5 100.5q147 0 241.5 -101t94.5 -255t-94.5 -255t-241.5 -101q-149 0 -242.5 100.5t-93.5 255.5zM140 344q0 -118 66.5 -195t173.5 -77t173.5 77t66.5 195t-66.5 195t-173.5 77t-173.5 -77t-66.5 -195zM348 768l-144 164h104l104 -164h-64z
" />
    <glyph glyph-name="Oacute" unicode="&#xd3;" horiz-adv-x="760" 
d="M44 344q0 155 93.5 255.5t242.5 100.5q147 0 241.5 -101t94.5 -255t-94.5 -255t-241.5 -101q-149 0 -242.5 100.5t-93.5 255.5zM140 344q0 -118 66.5 -195t173.5 -77t173.5 77t66.5 195t-66.5 195t-173.5 77t-173.5 -77t-66.5 -195zM348 768l104 164h104l-144 -164h-64z
" />
    <glyph glyph-name="Ocircumflex" unicode="&#xd4;" horiz-adv-x="760" 
d="M44 344q0 155 93.5 255.5t242.5 100.5q147 0 241.5 -101t94.5 -255t-94.5 -255t-241.5 -101q-149 0 -242.5 100.5t-93.5 255.5zM140 344q0 -118 66.5 -195t173.5 -77t173.5 77t66.5 195t-66.5 195t-173.5 77t-173.5 -77t-66.5 -195zM212 768l128 164h80l128 -164h-84
l-84 112l-84 -112h-84z" />
    <glyph glyph-name="Otilde" unicode="&#xd5;" horiz-adv-x="760" 
d="M44 344q0 155 93.5 255.5t242.5 100.5q147 0 241.5 -101t94.5 -255t-94.5 -255t-241.5 -101q-149 0 -242.5 100.5t-93.5 255.5zM140 344q0 -118 66.5 -195t173.5 -77t173.5 77t66.5 195t-66.5 195t-173.5 77t-173.5 -77t-66.5 -195zM216 796q2 47 27 77.5t69 30.5
q32 0 79 -24t61 -24q36 0 44 48h48q-2 -47 -27 -77.5t-69 -30.5q-32 0 -79 24t-61 24q-36 0 -44 -48h-48z" />
    <glyph glyph-name="Odieresis" unicode="&#xd6;" horiz-adv-x="760" 
d="M44 344q0 155 93.5 255.5t242.5 100.5q147 0 241.5 -101t94.5 -255t-94.5 -255t-241.5 -101q-149 0 -242.5 100.5t-93.5 255.5zM140 344q0 -118 66.5 -195t173.5 -77t173.5 77t66.5 195t-66.5 195t-173.5 77t-173.5 -77t-66.5 -195zM436 804v92h88v-92h-88zM236 804v92
h88v-92h-88z" />
    <glyph glyph-name="multiply" unicode="&#xd7;" 
d="M76 412l52 52l156 -158l156 158l52 -52l-157 -158l157 -158l-52 -52l-156 158l-156 -158l-52 52l156 158z" />
    <glyph glyph-name="Oslash" unicode="&#xd8;" horiz-adv-x="760" 
d="M56 -12l81 101q-93 101 -93 255t94.5 255t241.5 101q109 0 197 -64l51 64h76l-82 -103q94 -100 94 -253q0 -154 -95.5 -255t-240.5 -101q-112 0 -198 62l-50 -62h-76zM620 344q0 107 -56 182l-327 -407q61 -47 143 -47q107 0 173.5 77t66.5 195zM140 344q0 -108 55 -182
l327 406q-61 48 -142 48q-107 0 -173.5 -77t-66.5 -195z" />
    <glyph glyph-name="Ugrave" unicode="&#xd9;" horiz-adv-x="696" 
d="M72 272v416h92v-416q0 -96 46 -148t138 -52t138 52t46 148v416h92v-416q0 -147 -73.5 -215.5t-202.5 -68.5t-202.5 68.5t-73.5 215.5zM316 768l-144 164h104l104 -164h-64z" />
    <glyph glyph-name="Uacute" unicode="&#xda;" horiz-adv-x="696" 
d="M72 272v416h92v-416q0 -96 46 -148t138 -52t138 52t46 148v416h92v-416q0 -147 -73.5 -215.5t-202.5 -68.5t-202.5 68.5t-73.5 215.5zM316 768l104 164h104l-144 -164h-64z" />
    <glyph glyph-name="Ucircumflex" unicode="&#xdb;" horiz-adv-x="696" 
d="M72 272v416h92v-416q0 -96 46 -148t138 -52t138 52t46 148v416h92v-416q0 -147 -73.5 -215.5t-202.5 -68.5t-202.5 68.5t-73.5 215.5zM180 768l128 164h80l128 -164h-84l-84 112l-84 -112h-84z" />
    <glyph glyph-name="Udieresis" unicode="&#xdc;" horiz-adv-x="696" 
d="M72 272v416h92v-416q0 -96 46 -148t138 -52t138 52t46 148v416h92v-416q0 -147 -73.5 -215.5t-202.5 -68.5t-202.5 68.5t-73.5 215.5zM404 804v92h88v-92h-88zM204 804v92h88v-92h-88z" />
    <glyph glyph-name="Yacute" unicode="&#xdd;" horiz-adv-x="608" 
d="M256 0v270l-244 418h104l186 -324h4l194 324h96l-248 -411v-277h-92zM272 768l104 164h104l-144 -164h-64z" />
    <glyph glyph-name="Thorn" unicode="&#xde;" horiz-adv-x="636" 
d="M88 0v688h92v-112h168q115 0 179.5 -60.5t64.5 -159.5q0 -100 -65 -164t-179 -64h-168v-128h-92zM352 496h-172v-288h172q72 0 110 42t38 106q0 63 -38 101.5t-110 38.5z" />
    <glyph glyph-name="germandbls" unicode="&#xdf;" 
d="M76 0v512q0 116 59 174t157 58q90 0 137 -44.5t47 -107.5q0 -29 -10.5 -53t-26 -39.5t-31 -29.5t-26 -29.5t-10.5 -32.5q0 -21 17.5 -39t42 -34.5t49 -36.5t42 -52.5t17.5 -73.5q0 -81 -55.5 -126.5t-144.5 -45.5h-84v72h84q51 0 81.5 24t30.5 68q0 32 -16.5 55t-40 38.5
l-47 32t-40 44t-16.5 66.5q0 29 10.5 52t26 38l31 29t26 32.5t10.5 40.5q0 33 -27.5 56.5t-80.5 23.5q-124 0 -124 -160v-512h-88z" />
    <glyph glyph-name="agrave" unicode="&#xe0;" horiz-adv-x="524" 
d="M48 124q0 62 38 98.5t122 51.5l96 16q40 7 52 14t12 24q0 46 -27 73t-77 27q-52 0 -80.5 -25t-31.5 -67h-84q3 72 55 118t141 46q94 0 143 -47t49 -133v-320h-84v65h-4q-42 -77 -156 -77q-77 0 -120.5 37t-43.5 99zM368 204v47q-14 -17 -52 -23l-92 -16q-88 -15 -88 -80
q0 -33 23.5 -52.5t68.5 -19.5q60 0 100 37.5t40 106.5zM236 568l-144 164h104l104 -164h-64z" />
    <glyph glyph-name="aacute" unicode="&#xe1;" horiz-adv-x="524" 
d="M48 124q0 62 38 98.5t122 51.5l96 16q40 7 52 14t12 24q0 46 -27 73t-77 27q-52 0 -80.5 -25t-31.5 -67h-84q3 72 55 118t141 46q94 0 143 -47t49 -133v-320h-84v65h-4q-42 -77 -156 -77q-77 0 -120.5 37t-43.5 99zM368 204v47q-14 -17 -52 -23l-92 -16q-88 -15 -88 -80
q0 -33 23.5 -52.5t68.5 -19.5q60 0 100 37.5t40 106.5zM220 568l104 164h104l-144 -164h-64z" />
    <glyph glyph-name="acircumflex" unicode="&#xe2;" horiz-adv-x="524" 
d="M48 124q0 62 38 98.5t122 51.5l96 16q40 7 52 14t12 24q0 46 -27 73t-77 27q-52 0 -80.5 -25t-31.5 -67h-84q3 72 55 118t141 46q94 0 143 -47t49 -133v-320h-84v65h-4q-42 -77 -156 -77q-77 0 -120.5 37t-43.5 99zM368 204v47q-14 -17 -52 -23l-92 -16q-88 -15 -88 -80
q0 -33 23.5 -52.5t68.5 -19.5q60 0 100 37.5t40 106.5zM92 568l128 164h80l128 -164h-84l-84 112l-84 -112h-84z" />
    <glyph glyph-name="atilde" unicode="&#xe3;" horiz-adv-x="524" 
d="M48 124q0 62 38 98.5t122 51.5l96 16q40 7 52 14t12 24q0 46 -27 73t-77 27q-52 0 -80.5 -25t-31.5 -67h-84q3 72 55 118t141 46q94 0 143 -47t49 -133v-320h-84v65h-4q-42 -77 -156 -77q-77 0 -120.5 37t-43.5 99zM368 204v47q-14 -17 -52 -23l-92 -16q-88 -15 -88 -80
q0 -33 23.5 -52.5t68.5 -19.5q60 0 100 37.5t40 106.5zM96 596q2 47 27 77.5t69 30.5q32 0 79 -24t61 -24q36 0 44 48h48q-2 -47 -27 -77.5t-69 -30.5q-32 0 -79 24t-61 24q-36 0 -44 -48h-48z" />
    <glyph glyph-name="adieresis" unicode="&#xe4;" horiz-adv-x="524" 
d="M48 124q0 62 38 98.5t122 51.5l96 16q40 7 52 14t12 24q0 46 -27 73t-77 27q-52 0 -80.5 -25t-31.5 -67h-84q3 72 55 118t141 46q94 0 143 -47t49 -133v-320h-84v65h-4q-42 -77 -156 -77q-77 0 -120.5 37t-43.5 99zM368 204v47q-14 -17 -52 -23l-92 -16q-88 -15 -88 -80
q0 -33 23.5 -52.5t68.5 -19.5q60 0 100 37.5t40 106.5zM316 604v92h88v-92h-88zM116 604v92h88v-92h-88z" />
    <glyph glyph-name="aring" unicode="&#xe5;" horiz-adv-x="524" 
d="M48 124q0 62 38 98.5t122 51.5l96 16q40 7 52 14t12 24q0 46 -27 73t-77 27q-52 0 -80.5 -25t-31.5 -67h-84q3 72 55 118t141 46q94 0 143 -47t49 -133v-320h-84v65h-4q-42 -77 -156 -77q-77 0 -120.5 37t-43.5 99zM368 204v47q-14 -17 -52 -23l-92 -16q-88 -15 -88 -80
q0 -33 23.5 -52.5t68.5 -19.5q60 0 100 37.5t40 106.5zM260 564q-41 0 -70.5 27t-29.5 69t29.5 69t70.5 27t70.5 -27t29.5 -69t-29.5 -69t-70.5 -27zM260 608q22 0 37 15t15 37t-15 37t-37 15t-37 -15t-15 -37t15 -37t37 -15z" />
    <glyph glyph-name="ae" unicode="&#xe6;" horiz-adv-x="844" 
d="M68 336q6 82 61 123t135 41q119 0 164 -74q60 74 168 74q95 0 153.5 -62t58.5 -170v-36h-348q3 -78 41 -123t99 -45q97 0 116 84h88q-10 -67 -67 -113.5t-137 -46.5q-135 0 -193 102q-59 -102 -195 -102q-77 0 -120.5 37t-43.5 99q0 123 160 150l96 16q40 7 52 14t12 24
q0 45 -26 72.5t-78 27.5q-47 0 -78 -23.5t-34 -68.5h-84zM228 60q61 0 100.5 36.5t39.5 107.5v47q-14 -17 -52 -23l-92 -16q-88 -14 -88 -80q0 -34 24 -53t68 -19zM596 424q-51 0 -86 -34t-46 -92h251q-4 61 -35.5 93.5t-83.5 32.5z" />
    <glyph glyph-name="ccedilla" unicode="&#xe7;" horiz-adv-x="516" 
d="M228 -84l24 73q-99 7 -155.5 75t-56.5 180q0 115 65.5 185.5t166.5 70.5q91 0 146.5 -48.5t65.5 -127.5h-88q-8 45 -39 72.5t-85 27.5q-61 0 -100.5 -50t-39.5 -130t39.5 -130t100.5 -50q54 0 85 27.5t39 72.5h88q-10 -75 -61 -123t-135 -52v-25q44 -3 68 -27.5t24 -60.5
q0 -43 -30 -69.5t-86 -26.5h-56v56h52q52 0 52 40t-52 40h-32z" />
    <glyph glyph-name="egrave" unicode="&#xe8;" horiz-adv-x="524" 
d="M40 244q0 113 66 184.5t166 71.5q97 0 156.5 -62t59.5 -170v-36h-356q3 -77 42 -122.5t102 -45.5q51 0 81.5 24t38.5 60h88q-10 -67 -67.5 -113.5t-140.5 -46.5q-113 0 -174.5 68.5t-61.5 187.5zM272 424q-50 0 -86.5 -33.5t-48.5 -92.5h261q-11 126 -126 126zM240 568
l-144 164h104l104 -164h-64z" />
    <glyph glyph-name="eacute" unicode="&#xe9;" horiz-adv-x="524" 
d="M40 244q0 113 66 184.5t166 71.5q97 0 156.5 -62t59.5 -170v-36h-356q3 -77 42 -122.5t102 -45.5q51 0 81.5 24t38.5 60h88q-10 -67 -67.5 -113.5t-140.5 -46.5q-113 0 -174.5 68.5t-61.5 187.5zM272 424q-50 0 -86.5 -33.5t-48.5 -92.5h261q-11 126 -126 126zM240 568
l104 164h104l-144 -164h-64z" />
    <glyph glyph-name="ecircumflex" unicode="&#xea;" horiz-adv-x="524" 
d="M40 244q0 113 66 184.5t166 71.5q97 0 156.5 -62t59.5 -170v-36h-356q3 -77 42 -122.5t102 -45.5q51 0 81.5 24t38.5 60h88q-10 -67 -67.5 -113.5t-140.5 -46.5q-113 0 -174.5 68.5t-61.5 187.5zM272 424q-50 0 -86.5 -33.5t-48.5 -92.5h261q-11 126 -126 126zM104 568
l128 164h80l128 -164h-84l-84 112l-84 -112h-84z" />
    <glyph glyph-name="edieresis" unicode="&#xeb;" horiz-adv-x="524" 
d="M40 244q0 113 66 184.5t166 71.5q97 0 156.5 -62t59.5 -170v-36h-356q3 -77 42 -122.5t102 -45.5q51 0 81.5 24t38.5 60h88q-10 -67 -67.5 -113.5t-140.5 -46.5q-113 0 -174.5 68.5t-61.5 187.5zM272 424q-50 0 -86.5 -33.5t-48.5 -92.5h261q-11 126 -126 126zM328 604
v92h88v-92h-88zM128 604v92h88v-92h-88z" />
    <glyph glyph-name="igrave" unicode="&#xec;" horiz-adv-x="240" 
d="M76 0v488h88v-488h-88zM88 568l-144 164h104l104 -164h-64z" />
    <glyph glyph-name="iacute" unicode="&#xed;" horiz-adv-x="240" 
d="M76 0v488h88v-488h-88zM88 568l104 164h104l-144 -164h-64z" />
    <glyph glyph-name="icircumflex" unicode="&#xee;" horiz-adv-x="240" 
d="M76 0v488h88v-488h-88zM-48 568l128 164h80l128 -164h-84l-84 112l-84 -112h-84z" />
    <glyph glyph-name="idieresis" unicode="&#xef;" horiz-adv-x="240" 
d="M76 0v488h88v-488h-88zM176 604v92h88v-92h-88zM-24 604v92h88v-92h-88z" />
    <glyph glyph-name="eth" unicode="&#xf0;" horiz-adv-x="576" 
d="M204 520l-32 48l90 62q-50 27 -130 50l20 64q100 -27 175 -69l101 69l32 -48l-81 -56q75 -58 114 -145t39 -224v-3q0 -132 -68 -206t-176 -74q-110 0 -177 67t-67 173q0 103 69 171.5t167 68.5q41 0 82 -14.5t66 -45.5h5q-36 123 -119 188zM136 228q0 -72 43 -118
t109 -46t109 46t43 118q0 74 -42.5 119t-109.5 45q-66 0 -109 -46t-43 -118z" />
    <glyph glyph-name="ntilde" unicode="&#xf1;" horiz-adv-x="564" 
d="M76 0v488h84v-72h4q42 84 152 84q80 0 130 -48.5t50 -155.5v-296h-88v284q0 140 -112 140q-57 0 -94.5 -46.5t-37.5 -124.5v-253h-88zM120 596q2 47 27 77.5t69 30.5q32 0 79 -24t61 -24q36 0 44 48h48q-2 -47 -27 -77.5t-69 -30.5q-32 0 -78.5 24t-61.5 24
q-36 0 -44 -48h-48z" />
    <glyph glyph-name="ograve" unicode="&#xf2;" horiz-adv-x="560" 
d="M40 244q0 116 67 186t173 70q111 0 175.5 -69.5t64.5 -186.5q0 -116 -67 -186t-173 -70q-111 0 -175.5 69.5t-64.5 186.5zM132 244q0 -81 41 -130.5t107 -49.5t107 49.5t41 130.5q0 83 -40.5 131.5t-107.5 48.5q-66 0 -107 -49.5t-41 -130.5zM248 568l-144 164h104
l104 -164h-64z" />
    <glyph glyph-name="oacute" unicode="&#xf3;" horiz-adv-x="560" 
d="M40 244q0 116 67 186t173 70q111 0 175.5 -69.5t64.5 -186.5q0 -116 -67 -186t-173 -70q-111 0 -175.5 69.5t-64.5 186.5zM132 244q0 -81 41 -130.5t107 -49.5t107 49.5t41 130.5q0 83 -40.5 131.5t-107.5 48.5q-66 0 -107 -49.5t-41 -130.5zM248 568l104 164h104
l-144 -164h-64z" />
    <glyph glyph-name="ocircumflex" unicode="&#xf4;" horiz-adv-x="560" 
d="M40 244q0 116 67 186t173 70q111 0 175.5 -69.5t64.5 -186.5q0 -116 -67 -186t-173 -70q-111 0 -175.5 69.5t-64.5 186.5zM132 244q0 -81 41 -130.5t107 -49.5t107 49.5t41 130.5q0 83 -40.5 131.5t-107.5 48.5q-66 0 -107 -49.5t-41 -130.5zM112 568l128 164h80
l128 -164h-84l-84 112l-84 -112h-84z" />
    <glyph glyph-name="otilde" unicode="&#xf5;" horiz-adv-x="560" 
d="M40 244q0 116 67 186t173 70q111 0 175.5 -69.5t64.5 -186.5q0 -116 -67 -186t-173 -70q-111 0 -175.5 69.5t-64.5 186.5zM132 244q0 -81 41 -130.5t107 -49.5t107 49.5t41 130.5q0 83 -40.5 131.5t-107.5 48.5q-66 0 -107 -49.5t-41 -130.5zM116 596q2 47 27 77.5
t69 30.5q32 0 79 -24t61 -24q36 0 44 48h48q-2 -47 -27 -77.5t-69 -30.5q-32 0 -79 24t-61 24q-36 0 -44 -48h-48z" />
    <glyph glyph-name="odieresis" unicode="&#xf6;" horiz-adv-x="560" 
d="M40 244q0 116 67 186t173 70q111 0 175.5 -69.5t64.5 -186.5q0 -116 -67 -186t-173 -70q-111 0 -175.5 69.5t-64.5 186.5zM132 244q0 -81 41 -130.5t107 -49.5t107 49.5t41 130.5q0 83 -40.5 131.5t-107.5 48.5q-66 0 -107 -49.5t-41 -130.5zM336 604v92h88v-92h-88z
M136 604v92h88v-92h-88z" />
    <glyph glyph-name="divide" unicode="&#xf7;" 
d="M236 380v100h96v-100h-96zM56 216v76h456v-76h-456zM236 26v100h96v-100h-96z" />
    <glyph glyph-name="oslash" unicode="&#xf8;" horiz-adv-x="560" 
d="M40 -12l60 74q-60 69 -60 182q0 116 67 186t173 70q82 0 142 -41l34 41h64l-61 -75q61 -69 61 -181q0 -116 -67 -186t-173 -70q-85 0 -143 41l-33 -41h-64zM132 244q0 -66 26 -110l211 259q-37 31 -89 31q-66 0 -107 -49.5t-41 -130.5zM428 244q0 66 -26 110l-211 -259
q37 -31 89 -31q66 0 107 49.5t41 130.5z" />
    <glyph glyph-name="ugrave" unicode="&#xf9;" horiz-adv-x="560" 
d="M68 192v296h88v-284q0 -140 112 -140q57 0 92.5 47t35.5 125v252h88v-488h-84v72h-4q-42 -84 -148 -84q-80 0 -130 48.5t-50 155.5zM250 568l-144 164h104l104 -164h-64z" />
    <glyph glyph-name="uacute" unicode="&#xfa;" horiz-adv-x="560" 
d="M68 192v296h88v-284q0 -140 112 -140q57 0 92.5 47t35.5 125v252h88v-488h-84v72h-4q-42 -84 -148 -84q-80 0 -130 48.5t-50 155.5zM250 568l104 164h104l-144 -164h-64z" />
    <glyph glyph-name="ucircumflex" unicode="&#xfb;" horiz-adv-x="560" 
d="M68 192v296h88v-284q0 -140 112 -140q57 0 92.5 47t35.5 125v252h88v-488h-84v72h-4q-42 -84 -148 -84q-80 0 -130 48.5t-50 155.5zM114 568l128 164h80l128 -164h-84l-84 112l-84 -112h-84z" />
    <glyph glyph-name="udieresis" unicode="&#xfc;" horiz-adv-x="560" 
d="M68 192v296h88v-284q0 -140 112 -140q57 0 92.5 47t35.5 125v252h88v-488h-84v72h-4q-42 -84 -148 -84q-80 0 -130 48.5t-50 155.5zM338 604v92h88v-92h-88zM138 604v92h88v-92h-88z" />
    <glyph glyph-name="yacute" unicode="&#xfd;" horiz-adv-x="468" 
d="M33 -152h32q84 0 120 100l11 31l-192 509h96l136 -392h4l136 392h88l-207 -564q-55 -152 -176 -152h-48v76zM200 568l104 164h104l-144 -164h-64z" />
    <glyph glyph-name="thorn" unicode="&#xfe;" horiz-adv-x="584" 
d="M544 248q0 -117 -64 -188.5t-160 -71.5q-112 0 -156 88h-4q4 -64 4 -164v-132h-88v952h88v-156q0 -100 -4 -164h4q44 88 164 88q95 0 155.5 -67.5t60.5 -184.5zM452 248q0 84 -40.5 130t-103.5 46q-61 0 -101.5 -45.5t-42.5 -126.5v-8q0 -84 41 -132t103 -48t103 49.5
t41 134.5z" />
    <glyph glyph-name="ydieresis" unicode="&#xff;" horiz-adv-x="468" 
d="M33 -152h32q84 0 120 100l11 31l-192 509h96l136 -392h4l136 392h88l-207 -564q-55 -152 -176 -152h-48v76zM288 604v92h88v-92h-88zM88 604v92h88v-92h-88z" />
    <glyph glyph-name="Amacron" unicode="&#x100;" horiz-adv-x="644" 
d="M12 0l256 688h108l256 -688h-96l-65 180h-302l-65 -180h-92zM322 592h-4l-120 -332h244zM180 816v68h276v-68h-276z" />
    <glyph glyph-name="amacron" unicode="&#x101;" horiz-adv-x="524" 
d="M48 124q0 62 38 98.5t122 51.5l96 16q40 7 52 14t12 24q0 46 -27 73t-77 27q-52 0 -80.5 -25t-31.5 -67h-84q3 72 55 118t141 46q94 0 143 -47t49 -133v-320h-84v65h-4q-42 -77 -156 -77q-77 0 -120.5 37t-43.5 99zM368 204v47q-14 -17 -52 -23l-92 -16q-88 -15 -88 -80
q0 -33 23.5 -52.5t68.5 -19.5q60 0 100 37.5t40 106.5zM120 616v68h276v-68h-276z" />
    <glyph glyph-name="Abreve" unicode="&#x102;" horiz-adv-x="644" 
d="M12 0l256 688h108l256 -688h-96l-65 180h-302l-65 -180h-92zM322 592h-4l-120 -332h244zM320 780q-54 0 -95 33.5t-49 106.5h56q13 -84 88 -84t88 84h56q-8 -73 -49 -106.5t-95 -33.5z" />
    <glyph glyph-name="abreve" unicode="&#x103;" horiz-adv-x="524" 
d="M48 124q0 62 38 98.5t122 51.5l96 16q40 7 52 14t12 24q0 46 -27 73t-77 27q-52 0 -80.5 -25t-31.5 -67h-84q3 72 55 118t141 46q94 0 143 -47t49 -133v-320h-84v65h-4q-42 -77 -156 -77q-77 0 -120.5 37t-43.5 99zM368 204v47q-14 -17 -52 -23l-92 -16q-88 -15 -88 -80
q0 -33 23.5 -52.5t68.5 -19.5q60 0 100 37.5t40 106.5zM260 580q-54 0 -95 33.5t-49 106.5h56q13 -84 88 -84t88 84h56q-8 -73 -49 -106.5t-95 -33.5z" />
    <glyph glyph-name="Aogonek" unicode="&#x104;" horiz-adv-x="644" 
d="M504 -128q0 63 80 128h-48l-65 180h-302l-65 -180h-92l256 688h108l256 -688q-60 -63 -60 -112q0 -48 56 -48h28v-60h-40q-53 0 -82.5 25.5t-29.5 66.5zM322 592h-4l-120 -332h244z" />
    <glyph glyph-name="aogonek" unicode="&#x105;" horiz-adv-x="524" 
d="M328 -128q0 63 80 128h-36v65h-4q-42 -77 -156 -77q-77 0 -120.5 37t-43.5 99t38 98.5t122 51.5l96 16q40 7 52 14t12 24q0 46 -27 73t-77 27q-52 0 -80.5 -25t-31.5 -67h-84q3 72 55 118t141 46q94 0 143 -47t49 -133v-320q-60 -63 -60 -112q0 -48 56 -48h28v-60h-40
q-53 0 -82.5 25.5t-29.5 66.5zM368 204v47q-14 -17 -52 -23l-92 -16q-88 -15 -88 -80q0 -33 23.5 -52.5t68.5 -19.5q60 0 100 37.5t40 106.5z" />
    <glyph glyph-name="Cacute" unicode="&#x106;" horiz-adv-x="712" 
d="M44 344q0 155 92.5 255.5t239.5 100.5q118 0 194 -62t98 -166h-95q-40 144 -197 144q-105 0 -170.5 -76t-65.5 -196q0 -118 65 -195t167 -77q161 0 201 144h95q-21 -104 -99.5 -166t-196.5 -62q-145 0 -236.5 99.5t-91.5 256.5zM344 768l104 164h104l-144 -164h-64z" />
    <glyph glyph-name="cacute" unicode="&#x107;" horiz-adv-x="516" 
d="M40 244q0 115 65.5 185.5t166.5 70.5q91 0 146.5 -48.5t65.5 -127.5h-88q-8 45 -39 72.5t-85 27.5q-61 0 -100.5 -50t-39.5 -130t39.5 -130t100.5 -50q54 0 85 27.5t39 72.5h88q-10 -79 -65.5 -127.5t-146.5 -48.5q-108 0 -170 69t-62 187zM240 568l104 164h104
l-144 -164h-64z" />
    <glyph glyph-name="Ccircumflex" unicode="&#x108;" horiz-adv-x="712" 
d="M44 344q0 155 92.5 255.5t239.5 100.5q118 0 194 -62t98 -166h-95q-40 144 -197 144q-105 0 -170.5 -76t-65.5 -196q0 -118 65 -195t167 -77q161 0 201 144h95q-21 -104 -99.5 -166t-196.5 -62q-145 0 -236.5 99.5t-91.5 256.5zM208 768l128 164h80l128 -164h-84l-84 112
l-84 -112h-84z" />
    <glyph glyph-name="ccircumflex" unicode="&#x109;" horiz-adv-x="516" 
d="M40 244q0 115 65.5 185.5t166.5 70.5q91 0 146.5 -48.5t65.5 -127.5h-88q-8 45 -39 72.5t-85 27.5q-61 0 -100.5 -50t-39.5 -130t39.5 -130t100.5 -50q54 0 85 27.5t39 72.5h88q-10 -79 -65.5 -127.5t-146.5 -48.5q-108 0 -170 69t-62 187zM104 568l128 164h80l128 -164
h-84l-84 112l-84 -112h-84z" />
    <glyph glyph-name="Cdotaccent" unicode="&#x10a;" horiz-adv-x="712" 
d="M44 344q0 155 92.5 255.5t239.5 100.5q118 0 194 -62t98 -166h-95q-40 144 -197 144q-105 0 -170.5 -76t-65.5 -196q0 -118 65 -195t167 -77q161 0 201 144h95q-21 -104 -99.5 -166t-196.5 -62q-145 0 -236.5 99.5t-91.5 256.5zM332 804v92h88v-92h-88z" />
    <glyph glyph-name="cdotaccent" unicode="&#x10b;" horiz-adv-x="516" 
d="M40 244q0 115 65.5 185.5t166.5 70.5q91 0 146.5 -48.5t65.5 -127.5h-88q-8 45 -39 72.5t-85 27.5q-61 0 -100.5 -50t-39.5 -130t39.5 -130t100.5 -50q54 0 85 27.5t39 72.5h88q-10 -79 -65.5 -127.5t-146.5 -48.5q-108 0 -170 69t-62 187zM228 604v92h88v-92h-88z" />
    <glyph glyph-name="Ccaron" unicode="&#x10c;" horiz-adv-x="712" 
d="M44 344q0 155 92.5 255.5t239.5 100.5q118 0 194 -62t98 -166h-95q-40 144 -197 144q-105 0 -170.5 -76t-65.5 -196q0 -118 65 -195t167 -77q161 0 201 144h95q-21 -104 -99.5 -166t-196.5 -62q-145 0 -236.5 99.5t-91.5 256.5zM336 768l-128 164h84l84 -112l84 112h84
l-128 -164h-80z" />
    <glyph glyph-name="ccaron" unicode="&#x10d;" horiz-adv-x="516" 
d="M40 244q0 115 65.5 185.5t166.5 70.5q91 0 146.5 -48.5t65.5 -127.5h-88q-8 45 -39 72.5t-85 27.5q-61 0 -100.5 -50t-39.5 -130t39.5 -130t100.5 -50q54 0 85 27.5t39 72.5h88q-10 -79 -65.5 -127.5t-146.5 -48.5q-108 0 -170 69t-62 187zM232 568l-128 164h84l84 -112
l84 112h84l-128 -164h-80z" />
    <glyph glyph-name="Dcaron" unicode="&#x10e;" horiz-adv-x="704" 
d="M88 0v688h212q173 0 266.5 -94.5t93.5 -249.5t-93.5 -249.5t-266.5 -94.5h-212zM300 608h-120v-528h120q136 0 200 74.5t64 189.5t-64 189.5t-200 74.5zM284 768l-128 164h84l84 -112l84 112h84l-128 -164h-80z" />
    <glyph glyph-name="dcaron" unicode="&#x10f;" horiz-adv-x="584" 
d="M40 240q0 117 64 188.5t160 71.5q112 0 156 -88h4q-4 64 -4 164v156h88v-732h-84v76h-4q-44 -88 -164 -88q-95 0 -155.5 67.5t-60.5 184.5zM132 240q0 -84 40.5 -130t103.5 -46q61 0 101.5 45.5t42.5 125.5v17q-2 81 -42.5 126.5t-101.5 45.5q-62 0 -103 -49.5
t-41 -134.5zM596 516l28 116h-40v100h96v-92l-40 -124h-44z" />
    <glyph glyph-name="Dcroat" unicode="&#x110;" horiz-adv-x="704" 
d="M4 308v76h84v304h212q173 0 266.5 -94.5t93.5 -249.5t-93.5 -249.5t-266.5 -94.5h-212v308h-84zM300 608h-120v-224h160v-76h-160v-228h120q136 0 200 74.5t64 189.5t-64 189.5t-200 74.5z" />
    <glyph glyph-name="dcroat" unicode="&#x111;" horiz-adv-x="584" 
d="M276 592v60h144v80h88v-80h76v-60h-76v-592h-84v76h-4q-44 -88 -164 -88q-95 0 -155.5 67.5t-60.5 184.5t64 188.5t160 71.5q112 0 156 -88h4q-4 64 -4 164v16h-144zM132 240q0 -84 40.5 -130t103.5 -46q61 0 101.5 45.5t42.5 125.5v9q0 84 -41 132t-103 48t-103 -49.5
t-41 -134.5z" />
    <glyph glyph-name="Emacron" unicode="&#x112;" horiz-adv-x="612" 
d="M88 0v688h464v-80h-372v-218h296v-80h-296v-230h380v-80h-472zM180 816v68h276v-68h-276z" />
    <glyph glyph-name="emacron" unicode="&#x113;" horiz-adv-x="524" 
d="M40 244q0 113 66 184.5t166 71.5q97 0 156.5 -62t59.5 -170v-36h-356q3 -77 42 -122.5t102 -45.5q51 0 81.5 24t38.5 60h88q-10 -67 -67.5 -113.5t-140.5 -46.5q-113 0 -174.5 68.5t-61.5 187.5zM272 424q-50 0 -86.5 -33.5t-48.5 -92.5h261q-11 126 -126 126zM132 616
v68h276v-68h-276z" />
    <glyph glyph-name="Ebreve" unicode="&#x114;" horiz-adv-x="612" 
d="M88 0v688h464v-80h-372v-218h296v-80h-296v-230h380v-80h-472zM320 780q-54 0 -95 33.5t-49 106.5h56q13 -84 88 -84t88 84h56q-8 -73 -49 -106.5t-95 -33.5z" />
    <glyph glyph-name="ebreve" unicode="&#x115;" horiz-adv-x="524" 
d="M40 244q0 113 66 184.5t166 71.5q97 0 156.5 -62t59.5 -170v-36h-356q3 -77 42 -122.5t102 -45.5q51 0 81.5 24t38.5 60h88q-10 -67 -67.5 -113.5t-140.5 -46.5q-113 0 -174.5 68.5t-61.5 187.5zM272 424q-50 0 -86.5 -33.5t-48.5 -92.5h261q-11 126 -126 126zM272 580
q-54 0 -95 33.5t-49 106.5h56q13 -84 88 -84t88 84h56q-8 -73 -49 -106.5t-95 -33.5z" />
    <glyph glyph-name="Edotaccent" unicode="&#x116;" horiz-adv-x="612" 
d="M88 0v688h464v-80h-372v-218h296v-80h-296v-230h380v-80h-472zM276 804v92h88v-92h-88z" />
    <glyph glyph-name="edotaccent" unicode="&#x117;" horiz-adv-x="524" 
d="M40 244q0 113 66 184.5t166 71.5q97 0 156.5 -62t59.5 -170v-36h-356q3 -77 42 -122.5t102 -45.5q51 0 81.5 24t38.5 60h88q-10 -67 -67.5 -113.5t-140.5 -46.5q-113 0 -174.5 68.5t-61.5 187.5zM272 424q-50 0 -86.5 -33.5t-48.5 -92.5h261q-11 126 -126 126zM228 604
v92h88v-92h-88z" />
    <glyph glyph-name="Eogonek" unicode="&#x118;" horiz-adv-x="612" 
d="M88 0v688h464v-80h-372v-218h296v-80h-296v-230h380v-80q-60 -63 -60 -112q0 -48 56 -48h28v-60h-40q-53 0 -82.5 25.5t-29.5 66.5q0 63 80 128h-424z" />
    <glyph glyph-name="eogonek" unicode="&#x119;" horiz-adv-x="524" 
d="M215 -136q0 59 76 125q-5 -1 -15 -1q-113 0 -174.5 68.5t-61.5 187.5q0 113 66 184.5t166 71.5q97 0 156.5 -62t59.5 -170v-36h-356q3 -77 42 -122.5t102 -45.5q51 0 81.5 24t38.5 60h88q-12 -75 -86 -127q-44 -30 -79.5 -70t-35.5 -69q0 -22 13 -32t43 -10h28v-60h-40
q-54 0 -83 22t-29 62zM272 424q-50 0 -86.5 -33.5t-48.5 -92.5h261q-11 126 -126 126z" />
    <glyph glyph-name="Ecaron" unicode="&#x11a;" horiz-adv-x="612" 
d="M88 0v688h464v-80h-372v-218h296v-80h-296v-230h380v-80h-472zM280 768l-128 164h84l84 -112l84 112h84l-128 -164h-80z" />
    <glyph glyph-name="ecaron" unicode="&#x11b;" horiz-adv-x="524" 
d="M40 244q0 113 66 184.5t166 71.5q97 0 156.5 -62t59.5 -170v-36h-356q3 -77 42 -122.5t102 -45.5q51 0 81.5 24t38.5 60h88q-10 -67 -67.5 -113.5t-140.5 -46.5q-113 0 -174.5 68.5t-61.5 187.5zM272 424q-50 0 -86.5 -33.5t-48.5 -92.5h261q-11 126 -126 126zM232 568
l-128 164h84l84 -112l84 112h84l-128 -164h-80z" />
    <glyph glyph-name="Gcircumflex" unicode="&#x11c;" horiz-adv-x="760" 
d="M624 0l-16 100h-3q-71 -112 -225 -112q-147 0 -241.5 101t-94.5 255q0 155 95 255.5t245 100.5q119 0 198 -60.5t102 -155.5h-96q-18 58 -69.5 95t-134.5 37q-110 0 -177 -76.5t-67 -195.5q0 -118 67.5 -195t172.5 -77q91 0 155.5 51.5t64.5 140.5v20h-216v80h300v-364
h-60zM216 768l128 164h80l128 -164h-84l-84 112l-84 -112h-84z" />
    <glyph glyph-name="gcircumflex" unicode="&#x11d;" horiz-adv-x="584" 
d="M52 -60h84q0 -44 37 -70t95 -26q156 0 156 180v52h-4q-44 -88 -164 -88q-95 0 -155.5 67.5t-60.5 184.5t64 188.5t160 71.5q112 0 156 -88h4v76h84v-464q0 -130 -66.5 -191t-173.5 -61q-95 0 -155.5 44t-60.5 124zM132 240q0 -84 40.5 -130t103.5 -46q62 0 103 48t41 132
t-41 132t-103 48t-103 -49.5t-41 -134.5zM108 568l128 164h80l128 -164h-84l-84 112l-84 -112h-84z" />
    <glyph glyph-name="Gbreve" unicode="&#x11e;" horiz-adv-x="760" 
d="M624 0l-16 100h-3q-71 -112 -225 -112q-147 0 -241.5 101t-94.5 255q0 155 95 255.5t245 100.5q119 0 198 -60.5t102 -155.5h-96q-18 58 -69.5 95t-134.5 37q-110 0 -177 -76.5t-67 -195.5q0 -118 67.5 -195t172.5 -77q91 0 155.5 51.5t64.5 140.5v20h-216v80h300v-364
h-60zM384 780q-54 0 -95 33.5t-49 106.5h56q13 -84 88 -84t88 84h56q-8 -73 -49 -106.5t-95 -33.5z" />
    <glyph glyph-name="gbreve" unicode="&#x11f;" horiz-adv-x="584" 
d="M52 -60h84q0 -44 37 -70t95 -26q156 0 156 180v52h-4q-44 -88 -164 -88q-95 0 -155.5 67.5t-60.5 184.5t64 188.5t160 71.5q112 0 156 -88h4v76h84v-464q0 -130 -66.5 -191t-173.5 -61q-95 0 -155.5 44t-60.5 124zM132 240q0 -84 40.5 -130t103.5 -46q62 0 103 48t41 132
t-41 132t-103 48t-103 -49.5t-41 -134.5zM276 580q-54 0 -95 33.5t-49 106.5h56q13 -84 88 -84t88 84h56q-8 -73 -49 -106.5t-95 -33.5z" />
    <glyph glyph-name="Gdotaccent" unicode="&#x120;" horiz-adv-x="760" 
d="M624 0l-16 100h-3q-71 -112 -225 -112q-147 0 -241.5 101t-94.5 255q0 155 95 255.5t245 100.5q119 0 198 -60.5t102 -155.5h-96q-18 58 -69.5 95t-134.5 37q-110 0 -177 -76.5t-67 -195.5q0 -118 67.5 -195t172.5 -77q91 0 155.5 51.5t64.5 140.5v20h-216v80h300v-364
h-60zM340 804v92h88v-92h-88z" />
    <glyph glyph-name="gdotaccent" unicode="&#x121;" horiz-adv-x="584" 
d="M52 -60h84q0 -44 37 -70t95 -26q156 0 156 180v52h-4q-44 -88 -164 -88q-95 0 -155.5 67.5t-60.5 184.5t64 188.5t160 71.5q112 0 156 -88h4v76h84v-464q0 -130 -66.5 -191t-173.5 -61q-95 0 -155.5 44t-60.5 124zM132 240q0 -84 40.5 -130t103.5 -46q62 0 103 48t41 132
t-41 132t-103 48t-103 -49.5t-41 -134.5zM232 604v92h88v-92h-88z" />
    <glyph glyph-name="Gcommaaccent" unicode="&#x122;" horiz-adv-x="760" 
d="M624 0l-16 100h-3q-71 -112 -225 -112q-147 0 -241.5 101t-94.5 255q0 155 95 255.5t245 100.5q119 0 198 -60.5t102 -155.5h-96q-18 58 -69.5 95t-134.5 37q-110 0 -177 -76.5t-67 -195.5q0 -118 67.5 -195t172.5 -77q91 0 155.5 51.5t64.5 140.5v20h-216v80h300v-364
h-60zM336 -68h88v-78l-37 -102h-40l26 92h-37v88z" />
    <glyph glyph-name="gcommaaccent" unicode="&#x123;" horiz-adv-x="584" 
d="M52 -60h84q0 -44 37 -70t95 -26q156 0 156 180v52h-4q-44 -88 -164 -88q-95 0 -155.5 67.5t-60.5 184.5t64 188.5t160 71.5q112 0 156 -88h4v76h84v-464q0 -130 -66.5 -191t-173.5 -61q-95 0 -155.5 44t-60.5 124zM132 240q0 -84 40.5 -130t103.5 -46q62 0 103 48t41 132
t-41 132t-103 48t-103 -49.5t-41 -134.5zM232 568v78l37 102h40l-26 -92h37v-88h-88z" />
    <glyph glyph-name="Hcircumflex" unicode="&#x124;" horiz-adv-x="728" 
d="M88 0v688h92v-300h368v300h92v-688h-92v308h-368v-308h-92zM196 768l128 164h80l128 -164h-84l-84 112l-84 -112h-84z" />
    <glyph glyph-name="hcircumflex" unicode="&#x125;" horiz-adv-x="564" 
d="M76 0v732h88v-152q0 -100 -4 -164h4q42 84 152 84q80 0 130 -48.5t50 -155.5v-296h-88v284q0 140 -112 140q-57 0 -94.5 -46.5t-37.5 -122.5v-255h-88zM-48 812l128 164h80l128 -164h-84l-84 112l-84 -112h-84z" />
    <glyph glyph-name="Hbar" unicode="&#x126;" horiz-adv-x="728" 
d="M0 504v76h88v108h92v-108h368v108h92v-108h88v-76h-88v-504h-92v308h-368v-308h-92v504h-88zM180 504v-116h368v116h-368z" />
    <glyph glyph-name="hbar" unicode="&#x127;" horiz-adv-x="564" 
d="M0 592v60h76v80h88v-80h144v-60h-144v-12q0 -100 -4 -164h4q42 84 152 84q80 0 130 -48.5t50 -155.5v-296h-88v284q0 140 -112 140q-57 0 -94.5 -46.5t-37.5 -123.5v-254h-88v592h-76z" />
    <glyph glyph-name="Itilde" unicode="&#x128;" horiz-adv-x="268" 
d="M88 0v688h92v-688h-92zM-30 796q2 47 27 77.5t69 30.5q32 0 79 -24t61 -24q36 0 44 48h48q-2 -47 -27 -77.5t-69 -30.5q-32 0 -79 24t-61 24q-36 0 -44 -48h-48z" />
    <glyph glyph-name="itilde" unicode="&#x129;" horiz-adv-x="240" 
d="M76 0v488h88v-488h-88zM-44 596q2 47 27 77.5t69 30.5q32 0 79 -24t61 -24q36 0 44 48h48q-2 -47 -27 -77.5t-69 -30.5q-32 0 -79 24t-61 24q-36 0 -44 -48h-48z" />
    <glyph glyph-name="Imacron" unicode="&#x12a;" horiz-adv-x="268" 
d="M88 0v688h92v-688h-92zM-6 816v68h276v-68h-276z" />
    <glyph glyph-name="imacron" unicode="&#x12b;" horiz-adv-x="240" 
d="M76 0v488h88v-488h-88zM-20 616v68h276v-68h-276z" />
    <glyph glyph-name="Ibreve" unicode="&#x12c;" horiz-adv-x="268" 
d="M88 0v688h92v-688h-92zM134 780q-54 0 -95 33.5t-49 106.5h56q13 -84 88 -84t88 84h56q-8 -73 -49 -106.5t-95 -33.5z" />
    <glyph glyph-name="ibreve" unicode="&#x12d;" horiz-adv-x="240" 
d="M76 0v488h88v-488h-88zM120 580q-54 0 -95 33.5t-49 106.5h56q13 -84 88 -84t88 84h56q-8 -73 -49 -106.5t-95 -33.5z" />
    <glyph glyph-name="Iogonek" unicode="&#x12e;" horiz-adv-x="268" 
d="M88 0v688h92v-688h-2q-60 -63 -60 -112q0 -48 56 -48h28v-60h-40q-53 0 -82.5 25.5t-29.5 66.5q0 63 80 128h-42z" />
    <glyph glyph-name="iogonek" unicode="&#x12f;" horiz-adv-x="240" 
d="M76 0v488h88v-488q-60 -63 -60 -112q0 -48 56 -48h28v-60h-40q-53 0 -82.5 25.5t-29.5 66.5q0 63 80 128h-40zM72 632v100h96v-100h-96z" />
    <glyph glyph-name="Idotaccent" unicode="&#x130;" horiz-adv-x="268" 
d="M88 0v688h92v-688h-92zM90 804v92h88v-92h-88z" />
    <glyph glyph-name="dotlessi" unicode="&#x131;" horiz-adv-x="240" 
d="M76 0v488h88v-488h-88z" />
    <glyph glyph-name="IJ" unicode="&#x132;" horiz-adv-x="784" 
d="M88 0v688h92v-688h-92zM308 196v32h92v-28q0 -132 108 -132t108 132v488h92v-492q0 -107 -53.5 -157.5t-146.5 -50.5t-146.5 50.5t-53.5 157.5z" />
    <glyph glyph-name="ij" unicode="&#x133;" horiz-adv-x="480" 
d="M72 632v100h96v-100h-96zM76 0v488h88v-488h-88zM312 632v100h96v-100h-96zM316 -72v560h88v-576q0 -132 -136 -132h-32v76h24q31 0 43.5 17.5t12.5 54.5z" />
    <glyph glyph-name="Jcircumflex" unicode="&#x134;" horiz-adv-x="512" 
d="M36 196v32h92v-24q0 -70 29 -103t79 -33t79 33t29 103v484h92v-492q0 -107 -53.5 -157.5t-146.5 -50.5t-146.5 50.5t-53.5 157.5zM226 768l128 164h80l128 -164h-84l-84 112l-84 -112h-84z" />
    <glyph glyph-name="jcircumflex" unicode="&#x135;" horiz-adv-x="240" 
d="M76 -72v560h88v-576q0 -132 -136 -132h-32v76h24q31 0 43.5 17.5t12.5 54.5zM-48 568l128 164h80l128 -164h-84l-84 112l-84 -112h-84z" />
    <glyph glyph-name="Kcommaaccent" unicode="&#x136;" horiz-adv-x="652" 
d="M88 0v688h92v-370l344 370h108l-283 -299l295 -389h-104l-252 325l-108 -115v-210h-92zM296 -68h88v-78l-37 -102h-40l26 92h-37v88z" />
    <glyph glyph-name="kcommaaccent" unicode="&#x137;" horiz-adv-x="504" 
d="M76 0v732h88v-479l212 235h104l-181 -195l201 -293h-104l-157 229l-75 -82v-147h-88zM224 -68h88v-78l-37 -102h-40l26 92h-37v88z" />
    <glyph glyph-name="Lacute" unicode="&#x139;" horiz-adv-x="544" 
d="M88 0v688h92v-608h336v-80h-428zM100 768l104 164h104l-144 -164h-64z" />
    <glyph glyph-name="lacute" unicode="&#x13a;" horiz-adv-x="240" 
d="M76 0v732h88v-732h-88zM88 812l104 164h104l-144 -164h-64z" />
    <glyph glyph-name="Lcommaaccent" unicode="&#x13b;" horiz-adv-x="544" 
d="M88 0v688h92v-608h336v-80h-428zM252 -68h88v-78l-37 -102h-40l26 92h-37v88z" />
    <glyph glyph-name="lcommaaccent" unicode="&#x13c;" horiz-adv-x="240" 
d="M76 0v732h88v-732h-88zM76 -68h88v-78l-37 -102h-40l26 92h-37v88z" />
    <glyph glyph-name="Lcaron" unicode="&#x13d;" horiz-adv-x="544" 
d="M88 0v688h92v-608h336v-80h-428zM328 472l28 116h-40v100h96v-92l-40 -124h-44z" />
    <glyph glyph-name="lcaron" unicode="&#x13e;" horiz-adv-x="240" 
d="M252 516l28 116h-40v100h96v-92l-40 -124h-44zM76 0v732h88v-732h-88z" />
    <glyph glyph-name="Ldot" unicode="&#x13f;" horiz-adv-x="544" 
d="M88 0v688h92v-608h336v-80h-428zM304 304v100h96v-100h-96z" />
    <glyph glyph-name="ldot" unicode="&#x140;" horiz-adv-x="320" 
d="M76 0v732h88v-732h-88zM236 288v100h96v-100h-96z" />
    <glyph glyph-name="Lslash" unicode="&#x141;" horiz-adv-x="544" 
d="M28 184l-44 60l104 74v370h92v-304l138 100l44 -60l-182 -131v-213h336v-80h-428v227z" />
    <glyph glyph-name="lslash" unicode="&#x142;" horiz-adv-x="240" 
d="M-20 256l96 91v385h88v-301l60 57l40 -48l-100 -95v-345h-88v261l-56 -53z" />
    <glyph glyph-name="Nacute" unicode="&#x143;" horiz-adv-x="736" 
d="M88 0v688h88l380 -532h4l-4 532h92v-688h-88l-380 528h-4l4 -528h-92zM336 768l104 164h104l-144 -164h-64z" />
    <glyph glyph-name="nacute" unicode="&#x144;" horiz-adv-x="564" 
d="M76 0v488h84v-72h4q42 84 152 84q80 0 130 -48.5t50 -155.5v-296h-88v284q0 140 -112 140q-57 0 -94.5 -46.5t-37.5 -124.5v-253h-88zM252 568l104 164h104l-144 -164h-64z" />
    <glyph glyph-name="Ncommaaccent" unicode="&#x145;" horiz-adv-x="736" 
d="M88 0v688h88l380 -532h4l-4 532h92v-688h-88l-380 528h-4l4 -528h-92zM324 -68h88v-78l-37 -102h-40l26 92h-37v88z" />
    <glyph glyph-name="ncommaaccent" unicode="&#x146;" horiz-adv-x="564" 
d="M76 0v488h84v-72h4q42 84 152 84q80 0 130 -48.5t50 -155.5v-296h-88v284q0 140 -112 140q-57 0 -94.5 -46.5t-37.5 -124.5v-253h-88zM236 -68h88v-78l-37 -102h-40l26 92h-37v88z" />
    <glyph glyph-name="Ncaron" unicode="&#x147;" horiz-adv-x="736" 
d="M88 0v688h88l380 -532h4l-4 532h92v-688h-88l-380 528h-4l4 -528h-92zM328 768l-128 164h84l84 -112l84 112h84l-128 -164h-80z" />
    <glyph glyph-name="ncaron" unicode="&#x148;" horiz-adv-x="564" 
d="M76 0v488h84v-72h4q42 84 152 84q80 0 130 -48.5t50 -155.5v-296h-88v284q0 140 -112 140q-57 0 -94.5 -46.5t-37.5 -124.5v-253h-88zM244 568l-128 164h84l84 -112l84 112h84l-128 -164h-80z" />
    <glyph glyph-name="napostrophe" unicode="&#x149;" horiz-adv-x="564" 
d="M76 0v488h84v-72h4q42 84 152 84q80 0 130 -48.5t50 -155.5v-296h-88v284q0 140 -112 140q-57 0 -94.5 -46.5t-37.5 -124.5v-253h-88zM83 568l26 92h-37v88h88v-78l-37 -102h-40z" />
    <glyph glyph-name="Eng" unicode="&#x14a;" horiz-adv-x="736" 
d="M88 0v688h88l380 -532h4l-4 532h92v-720q0 -104 -45 -146t-135 -42h-48v84h44q48 0 70 26t22 86v29l-376 523h-4l4 -528h-92z" />
    <glyph glyph-name="eng" unicode="&#x14b;" horiz-adv-x="564" 
d="M408 -72v356q0 140 -112 140q-57 0 -94.5 -46.5t-37.5 -122.5v-255h-88v488h84v-72h4q42 84 152 84q80 0 130 -48.5t50 -155.5v-384q0 -132 -136 -132h-32v76h24q31 0 43.5 17.5t12.5 54.5z" />
    <glyph glyph-name="Omacron" unicode="&#x14c;" horiz-adv-x="760" 
d="M44 344q0 155 93.5 255.5t242.5 100.5q147 0 241.5 -101t94.5 -255t-94.5 -255t-241.5 -101q-149 0 -242.5 100.5t-93.5 255.5zM140 344q0 -118 66.5 -195t173.5 -77t173.5 77t66.5 195t-66.5 195t-173.5 77t-173.5 -77t-66.5 -195zM240 816v68h276v-68h-276z" />
    <glyph glyph-name="omacron" unicode="&#x14d;" horiz-adv-x="560" 
d="M40 244q0 116 67 186t173 70q111 0 175.5 -69.5t64.5 -186.5q0 -116 -67 -186t-173 -70q-111 0 -175.5 69.5t-64.5 186.5zM132 244q0 -81 41 -130.5t107 -49.5t107 49.5t41 130.5q0 83 -40.5 131.5t-107.5 48.5q-66 0 -107 -49.5t-41 -130.5zM140 616v68h276v-68h-276z
" />
    <glyph glyph-name="Obreve" unicode="&#x14e;" horiz-adv-x="760" 
d="M44 344q0 155 93.5 255.5t242.5 100.5q147 0 241.5 -101t94.5 -255t-94.5 -255t-241.5 -101q-149 0 -242.5 100.5t-93.5 255.5zM140 344q0 -118 66.5 -195t173.5 -77t173.5 77t66.5 195t-66.5 195t-173.5 77t-173.5 -77t-66.5 -195zM380 780q-54 0 -95 33.5t-49 106.5h56
q13 -84 88 -84t88 84h56q-8 -73 -49 -106.5t-95 -33.5z" />
    <glyph glyph-name="obreve" unicode="&#x14f;" horiz-adv-x="560" 
d="M40 244q0 116 67 186t173 70q111 0 175.5 -69.5t64.5 -186.5q0 -116 -67 -186t-173 -70q-111 0 -175.5 69.5t-64.5 186.5zM132 244q0 -81 41 -130.5t107 -49.5t107 49.5t41 130.5q0 83 -40.5 131.5t-107.5 48.5q-66 0 -107 -49.5t-41 -130.5zM280 580q-54 0 -95 33.5
t-49 106.5h56q13 -84 88 -84t88 84h56q-8 -73 -49 -106.5t-95 -33.5z" />
    <glyph glyph-name="Ohungarumlaut" unicode="&#x150;" horiz-adv-x="760" 
d="M44 344q0 155 93.5 255.5t242.5 100.5q147 0 241.5 -101t94.5 -255t-94.5 -255t-241.5 -101q-149 0 -242.5 100.5t-93.5 255.5zM140 344q0 -118 66.5 -195t173.5 -77t173.5 77t66.5 195t-66.5 195t-173.5 77t-173.5 -77t-66.5 -195zM436 768l104 164h104l-144 -164h-64z
M256 768l104 164h104l-144 -164h-64z" />
    <glyph glyph-name="ohungarumlaut" unicode="&#x151;" horiz-adv-x="560" 
d="M40 244q0 116 67 186t173 70q111 0 175.5 -69.5t64.5 -186.5q0 -116 -67 -186t-173 -70q-111 0 -175.5 69.5t-64.5 186.5zM132 244q0 -81 41 -130.5t107 -49.5t107 49.5t41 130.5q0 83 -40.5 131.5t-107.5 48.5q-66 0 -107 -49.5t-41 -130.5zM336 568l104 164h104
l-144 -164h-64zM156 568l104 164h104l-144 -164h-64z" />
    <glyph glyph-name="OE" unicode="&#x152;" horiz-adv-x="1032" 
d="M972 608h-372v-218h296v-80h-296v-230h380v-80h-576q-173 0 -266.5 94.5t-93.5 249.5t93.5 249.5t266.5 94.5h568v-80zM140 344q0 -115 64 -189.5t200 -74.5h104v528h-104q-136 0 -200 -74.5t-64 -189.5z" />
    <glyph glyph-name="oe" unicode="&#x153;" horiz-adv-x="908" 
d="M40 244q0 116 67 186t173 70q131 0 193 -100q63 100 183 100q97 0 156.5 -62t59.5 -170v-36h-356q3 -77 42 -122.5t102 -45.5q51 0 81.5 24t38.5 60h88q-10 -67 -67.5 -113.5t-140.5 -46.5q-133 0 -191 98q-63 -98 -189 -98q-111 0 -175.5 69.5t-64.5 186.5zM132 244
q0 -81 41 -130.5t107 -49.5t107 49.5t41 130.5q0 83 -40.5 131.5t-107.5 48.5q-66 0 -107 -49.5t-41 -130.5zM656 424q-49 0 -85.5 -34t-49.5 -92h261q-11 126 -126 126z" />
    <glyph glyph-name="Racute" unicode="&#x154;" horiz-adv-x="652" 
d="M88 0v688h260q117 0 178.5 -53t61.5 -151q0 -78 -39 -131.5t-112 -73.5l175 -279h-100l-171 268h-161v-268h-92zM352 608h-172v-260h172q69 0 106.5 38t37.5 98q0 58 -38 91t-106 33zM280 768l104 164h104l-144 -164h-64z" />
    <glyph glyph-name="racute" unicode="&#x155;" horiz-adv-x="360" 
d="M76 0v488h84v-71h3q38 83 129 83q39 0 68 -20l-28 -80q-32 16 -60 16q-52 0 -80 -46.5t-28 -114.5v-255h-88zM188 568l104 164h104l-144 -164h-64z" />
    <glyph glyph-name="Rcommaaccent" unicode="&#x156;" horiz-adv-x="652" 
d="M88 0v688h260q117 0 178.5 -53t61.5 -151q0 -78 -39 -131.5t-112 -73.5l175 -279h-100l-171 268h-161v-268h-92zM352 608h-172v-260h172q69 0 106.5 38t37.5 98q0 58 -38 91t-106 33zM282 -68h88v-78l-37 -102h-40l26 92h-37v88z" />
    <glyph glyph-name="rcommaaccent" unicode="&#x157;" horiz-adv-x="360" 
d="M76 0v488h84v-71h3q38 83 129 83q39 0 68 -20l-28 -80q-32 16 -60 16q-52 0 -80 -46.5t-28 -114.5v-255h-88zM76 -68h88v-78l-37 -102h-40l26 92h-37v88z" />
    <glyph glyph-name="Rcaron" unicode="&#x158;" horiz-adv-x="652" 
d="M88 0v688h260q117 0 178.5 -53t61.5 -151q0 -78 -39 -131.5t-112 -73.5l175 -279h-100l-171 268h-161v-268h-92zM352 608h-172v-260h172q69 0 106.5 38t37.5 98q0 58 -38 91t-106 33zM272 768l-128 164h84l84 -112l84 112h84l-128 -164h-80z" />
    <glyph glyph-name="rcaron" unicode="&#x159;" horiz-adv-x="360" 
d="M76 0v488h84v-71h3q38 83 129 83q39 0 68 -20l-28 -80q-32 16 -60 16q-52 0 -80 -46.5t-28 -114.5v-255h-88zM180 568l-128 164h84l84 -112l84 112h84l-128 -164h-80z" />
    <glyph glyph-name="Sacute" unicode="&#x15a;" horiz-adv-x="648" 
d="M56 196h92q0 -58 46.5 -95t125.5 -37q84 0 130 33.5t46 94.5q0 37 -23.5 60.5t-61.5 34.5t-84 19t-92 19.5t-84 29.5t-61.5 54.5t-23.5 90.5q0 88 70 144t184 56q113 0 182.5 -52.5t69.5 -143.5h-92q0 56 -44.5 88t-115.5 32q-70 0 -115 -30t-45 -86q0 -36 24 -59t62 -34
t84 -19t92 -19.5t84 -30t62 -56.5t24 -94q0 -94 -72.5 -151t-199.5 -57q-124 0 -194 56.5t-70 151.5zM288 768l104 164h104l-144 -164h-64z" />
    <glyph glyph-name="sacute" unicode="&#x15b;" horiz-adv-x="492" 
d="M40 140h84q0 -41 34.5 -62.5t81.5 -21.5q120 0 120 80q0 28 -18.5 42.5t-57.5 21.5l-92 16q-142 24 -142 132q0 70 55 111t139 41t138 -37t54 -111h-84q0 38 -29.5 59t-78.5 21q-47 0 -77.5 -20t-30.5 -56q0 -51 84 -65l92 -16q64 -11 100 -40.5t36 -90.5
q0 -75 -56.5 -115.5t-151.5 -40.5q-90 0 -145 39.5t-55 112.5zM212 568l104 164h104l-144 -164h-64z" />
    <glyph glyph-name="Scircumflex" unicode="&#x15c;" horiz-adv-x="648" 
d="M56 196h92q0 -58 46.5 -95t125.5 -37q84 0 130 33.5t46 94.5q0 37 -23.5 60.5t-61.5 34.5t-84 19t-92 19.5t-84 29.5t-61.5 54.5t-23.5 90.5q0 88 70 144t184 56q113 0 182.5 -52.5t69.5 -143.5h-92q0 56 -44.5 88t-115.5 32q-70 0 -115 -30t-45 -86q0 -36 24 -59t62 -34
t84 -19t92 -19.5t84 -30t62 -56.5t24 -94q0 -94 -72.5 -151t-199.5 -57q-124 0 -194 56.5t-70 151.5zM152 768l128 164h80l128 -164h-84l-84 112l-84 -112h-84z" />
    <glyph glyph-name="scircumflex" unicode="&#x15d;" horiz-adv-x="492" 
d="M40 140h84q0 -41 34.5 -62.5t81.5 -21.5q120 0 120 80q0 28 -18.5 42.5t-57.5 21.5l-92 16q-142 24 -142 132q0 70 55 111t139 41t138 -37t54 -111h-84q0 38 -29.5 59t-78.5 21q-47 0 -77.5 -20t-30.5 -56q0 -51 84 -65l92 -16q64 -11 100 -40.5t36 -90.5
q0 -75 -56.5 -115.5t-151.5 -40.5q-90 0 -145 39.5t-55 112.5zM76 568l128 164h80l128 -164h-84l-84 112l-84 -112h-84z" />
    <glyph glyph-name="Scedilla" unicode="&#x15e;" horiz-adv-x="648" 
d="M276 -84l24 73q-115 4 -179.5 60t-64.5 147h92q0 -58 46.5 -95t125.5 -37q84 0 130 33.5t46 94.5q0 37 -23.5 60.5t-61.5 34.5t-84 19t-92 19.5t-84 29.5t-61.5 54.5t-23.5 90.5q0 88 70 144t184 56q113 0 182.5 -52.5t69.5 -143.5h-92q0 56 -44.5 88t-115.5 32
q-70 0 -115 -30t-45 -86q0 -36 24 -59t62 -34t84 -19t92 -19.5t84 -30t62 -56.5t24 -94q0 -91 -68 -147.5t-188 -60.5v-24q44 -3 68 -27.5t24 -60.5q0 -43 -30 -69.5t-86 -26.5h-56v56h52q52 0 52 40t-52 40h-32z" />
    <glyph glyph-name="scedilla" unicode="&#x15f;" horiz-adv-x="492" 
d="M196 -84l24 73q-82 4 -131 43t-49 108h84q0 -41 34.5 -62.5t81.5 -21.5q120 0 120 80q0 28 -18.5 42.5t-57.5 21.5l-92 16q-142 24 -142 132q0 70 55 111t139 41t138 -37t54 -111h-84q0 38 -29.5 59t-78.5 21q-47 0 -77.5 -20t-30.5 -56q0 -51 84 -65l92 -16
q64 -11 100 -40.5t36 -90.5q0 -72 -51.5 -112t-140.5 -43v-25q44 -3 68 -27.5t24 -60.5q0 -43 -30 -69.5t-86 -26.5h-56v56h52q52 0 52 40t-52 40h-32z" />
    <glyph glyph-name="Scaron" unicode="&#x160;" horiz-adv-x="648" 
d="M56 196h92q0 -58 46.5 -95t125.5 -37q84 0 130 33.5t46 94.5q0 37 -23.5 60.5t-61.5 34.5t-84 19t-92 19.5t-84 29.5t-61.5 54.5t-23.5 90.5q0 88 70 144t184 56q113 0 182.5 -52.5t69.5 -143.5h-92q0 56 -44.5 88t-115.5 32q-70 0 -115 -30t-45 -86q0 -36 24 -59t62 -34
t84 -19t92 -19.5t84 -30t62 -56.5t24 -94q0 -94 -72.5 -151t-199.5 -57q-124 0 -194 56.5t-70 151.5zM280 768l-128 164h84l84 -112l84 112h84l-128 -164h-80z" />
    <glyph glyph-name="scaron" unicode="&#x161;" horiz-adv-x="492" 
d="M40 140h84q0 -41 34.5 -62.5t81.5 -21.5q120 0 120 80q0 28 -18.5 42.5t-57.5 21.5l-92 16q-142 24 -142 132q0 70 55 111t139 41t138 -37t54 -111h-84q0 38 -29.5 59t-78.5 21q-47 0 -77.5 -20t-30.5 -56q0 -51 84 -65l92 -16q64 -11 100 -40.5t36 -90.5
q0 -75 -56.5 -115.5t-151.5 -40.5q-90 0 -145 39.5t-55 112.5zM204 568l-128 164h84l84 -112l84 112h84l-128 -164h-80z" />
    <glyph glyph-name="Tcommaaccent" unicode="&#x162;" horiz-adv-x="588" 
d="M252 -84l28 84h-32v610h-240v78h572v-78h-240v-610h-28v-36q44 -3 68 -27.5t24 -60.5q0 -43 -30 -69.5t-86 -26.5h-56v56h52q52 0 52 40t-52 40h-32z" />
    <glyph glyph-name="tcommaaccent" unicode="&#x163;" horiz-adv-x="328" 
d="M144 -84l27 92q-83 27 -83 136v272h-92v72h92v148h88v-148h128v-72h-128v-268q0 -39 16 -55.5t52 -16.5h60v-76h-72q-19 0 -28 1v-37q44 -3 68 -27.5t24 -60.5q0 -43 -30 -69.5t-86 -26.5h-56v56h52q52 0 52 40t-52 40h-32z" />
    <glyph glyph-name="Tcaron" unicode="&#x164;" horiz-adv-x="588" 
d="M8 610v78h572v-78h-240v-610h-92v610h-240zM252 768l-128 164h84l84 -112l84 112h84l-128 -164h-80z" />
    <glyph glyph-name="tcaron" unicode="&#x165;" horiz-adv-x="328" 
d="M88 144v272h-92v72h92v148h88v-148h128v-72h-128v-268q0 -39 16 -55.5t52 -16.5h60v-76h-72q-144 0 -144 144zM240 544l28 116h-40v100h96v-92l-40 -124h-44z" />
    <glyph glyph-name="Tbar" unicode="&#x166;" horiz-adv-x="588" 
d="M8 610v78h572v-78h-240v-254h184v-72h-184v-284h-92v284h-184v72h184v254h-240z" />
    <glyph glyph-name="tbar" unicode="&#x167;" horiz-adv-x="328" 
d="M-4 224v60h92v132h-92v72h92v148h88v-148h128v-72h-128v-132h128v-60h-128v-76q0 -39 16 -55.5t52 -16.5h60v-76h-72q-144 0 -144 144v80h-92z" />
    <glyph glyph-name="Utilde" unicode="&#x168;" horiz-adv-x="696" 
d="M72 272v416h92v-416q0 -96 46 -148t138 -52t138 52t46 148v416h92v-416q0 -147 -73.5 -215.5t-202.5 -68.5t-202.5 68.5t-73.5 215.5zM184 796q2 47 27 77.5t69 30.5q32 0 79 -24t61 -24q36 0 44 48h48q-2 -47 -27 -77.5t-69 -30.5q-32 0 -79 24t-61 24q-36 0 -44 -48
h-48z" />
    <glyph glyph-name="utilde" unicode="&#x169;" horiz-adv-x="560" 
d="M68 192v296h88v-284q0 -140 112 -140q57 0 92.5 47t35.5 125v252h88v-488h-84v72h-4q-42 -84 -148 -84q-80 0 -130 48.5t-50 155.5zM118 596q2 47 27 77.5t69 30.5q32 0 79 -24t61 -24q36 0 44 48h48q-2 -47 -27 -77.5t-69 -30.5q-32 0 -79 24t-61 24q-36 0 -44 -48h-48z
" />
    <glyph glyph-name="Umacron" unicode="&#x16a;" horiz-adv-x="696" 
d="M72 272v416h92v-416q0 -96 46 -148t138 -52t138 52t46 148v416h92v-416q0 -147 -73.5 -215.5t-202.5 -68.5t-202.5 68.5t-73.5 215.5zM208 816v68h276v-68h-276z" />
    <glyph glyph-name="umacron" unicode="&#x16b;" horiz-adv-x="560" 
d="M68 192v296h88v-284q0 -140 112 -140q57 0 92.5 47t35.5 125v252h88v-488h-84v72h-4q-42 -84 -148 -84q-80 0 -130 48.5t-50 155.5zM142 616v68h276v-68h-276z" />
    <glyph glyph-name="Ubreve" unicode="&#x16c;" horiz-adv-x="696" 
d="M72 272v416h92v-416q0 -96 46 -148t138 -52t138 52t46 148v416h92v-416q0 -147 -73.5 -215.5t-202.5 -68.5t-202.5 68.5t-73.5 215.5zM348 780q-54 0 -95 33.5t-49 106.5h56q13 -84 88 -84t88 84h56q-8 -73 -49 -106.5t-95 -33.5z" />
    <glyph glyph-name="ubreve" unicode="&#x16d;" horiz-adv-x="560" 
d="M68 192v296h88v-284q0 -140 112 -140q57 0 92.5 47t35.5 125v252h88v-488h-84v72h-4q-42 -84 -148 -84q-80 0 -130 48.5t-50 155.5zM282 580q-54 0 -95 33.5t-49 106.5h56q13 -84 88 -84t88 84h56q-8 -73 -49 -106.5t-95 -33.5z" />
    <glyph glyph-name="Uring" unicode="&#x16e;" horiz-adv-x="696" 
d="M72 272v416h92v-416q0 -96 46 -148t138 -52t138 52t46 148v416h92v-416q0 -147 -73.5 -215.5t-202.5 -68.5t-202.5 68.5t-73.5 215.5zM348 764q-41 0 -70.5 27t-29.5 69t29.5 69t70.5 27t70.5 -27t29.5 -69t-29.5 -69t-70.5 -27zM348 808q22 0 37 15t15 37t-15 37t-37 15
t-37 -15t-15 -37t15 -37t37 -15z" />
    <glyph glyph-name="uring" unicode="&#x16f;" horiz-adv-x="560" 
d="M68 192v296h88v-284q0 -140 112 -140q57 0 92.5 47t35.5 125v252h88v-488h-84v72h-4q-42 -84 -148 -84q-80 0 -130 48.5t-50 155.5zM282 564q-41 0 -70.5 27t-29.5 69t29.5 69t70.5 27t70.5 -27t29.5 -69t-29.5 -69t-70.5 -27zM282 608q22 0 37 15t15 37t-15 37t-37 15
t-37 -15t-15 -37t15 -37t37 -15z" />
    <glyph glyph-name="Uhungarumlaut" unicode="&#x170;" horiz-adv-x="696" 
d="M72 272v416h92v-416q0 -96 46 -148t138 -52t138 52t46 148v416h92v-416q0 -147 -73.5 -215.5t-202.5 -68.5t-202.5 68.5t-73.5 215.5zM404 768l104 164h104l-144 -164h-64zM224 768l104 164h104l-144 -164h-64z" />
    <glyph glyph-name="uhungarumlaut" unicode="&#x171;" horiz-adv-x="560" 
d="M68 192v296h88v-284q0 -140 112 -140q57 0 92.5 47t35.5 125v252h88v-488h-84v72h-4q-42 -84 -148 -84q-80 0 -130 48.5t-50 155.5zM338 568l104 164h104l-144 -164h-64zM158 568l104 164h104l-144 -164h-64z" />
    <glyph glyph-name="Uogonek" unicode="&#x172;" horiz-adv-x="696" 
d="M317 -124q0 62 77 115q-22 -3 -46 -3q-129 0 -202.5 68.5t-73.5 215.5v416h92v-416q0 -96 46 -148t138 -52t138 52t46 148v416h92v-416q0 -180 -123 -251q-48 -27 -80 -61.5t-32 -67.5q0 -52 56 -52h28v-60h-40q-116 0 -116 96z" />
    <glyph glyph-name="uogonek" unicode="&#x173;" horiz-adv-x="560" 
d="M356 -128q0 63 80 128h-36v72h-4q-42 -84 -148 -84q-80 0 -130 48.5t-50 155.5v296h88v-284q0 -140 112 -140q57 0 92.5 47t35.5 125v252h88v-488q-60 -63 -60 -112q0 -48 56 -48h28v-60h-40q-53 0 -82.5 25.5t-29.5 66.5z" />
    <glyph glyph-name="Wcircumflex" unicode="&#x174;" horiz-adv-x="936" 
d="M196 0l-184 688h96l146 -592h4l158 592h112l158 -592h4l142 592h92l-180 -688h-116l-156 584h-4l-156 -584h-116zM302 768l128 164h80l128 -164h-84l-84 112l-84 -112h-84z" />
    <glyph glyph-name="wcircumflex" unicode="&#x175;" horiz-adv-x="724" 
d="M144 0l-140 488h92l100 -396h4l112 396h104l112 -396h4l100 396h88l-140 -488h-108l-108 400h-4l-108 -400h-108zM194 568l128 164h80l128 -164h-84l-84 112l-84 -112h-84z" />
    <glyph glyph-name="Ycircumflex" unicode="&#x176;" horiz-adv-x="608" 
d="M256 0v270l-244 418h104l186 -324h4l194 324h96l-248 -411v-277h-92zM136 768l128 164h80l128 -164h-84l-84 112l-84 -112h-84z" />
    <glyph glyph-name="ycircumflex" unicode="&#x177;" horiz-adv-x="468" 
d="M33 -152h32q84 0 120 100l11 31l-192 509h96l136 -392h4l136 392h88l-207 -564q-55 -152 -176 -152h-48v76zM64 568l128 164h80l128 -164h-84l-84 112l-84 -112h-84z" />
    <glyph glyph-name="Ydieresis" unicode="&#x178;" horiz-adv-x="608" 
d="M256 0v270l-244 418h104l186 -324h4l194 324h96l-248 -411v-277h-92zM360 804v92h88v-92h-88zM160 804v92h88v-92h-88z" />
    <glyph glyph-name="Zacute" unicode="&#x179;" horiz-adv-x="584" 
d="M56 610v78h492v-60l-397 -550h393v-78h-508v60l397 550h-377zM260 768l104 164h104l-144 -164h-64z" />
    <glyph glyph-name="zacute" unicode="&#x17a;" horiz-adv-x="444" 
d="M32 416v72h376v-60l-259 -356h263v-72h-376v52l264 364h-268zM188 568l104 164h104l-144 -164h-64z" />
    <glyph glyph-name="Zdotaccent" unicode="&#x17b;" horiz-adv-x="584" 
d="M56 610v78h492v-60l-397 -550h393v-78h-508v60l397 550h-377zM248 804v92h88v-92h-88z" />
    <glyph glyph-name="zdotaccent" unicode="&#x17c;" horiz-adv-x="444" 
d="M32 416v72h376v-60l-259 -356h263v-72h-376v52l264 364h-268zM176 604v92h88v-92h-88z" />
    <glyph glyph-name="Zcaron" unicode="&#x17d;" horiz-adv-x="584" 
d="M56 610v78h492v-60l-397 -550h393v-78h-508v60l397 550h-377zM252 768l-128 164h84l84 -112l84 112h84l-128 -164h-80z" />
    <glyph glyph-name="zcaron" unicode="&#x17e;" horiz-adv-x="444" 
d="M32 416v72h376v-60l-259 -356h263v-72h-376v52l264 364h-268zM180 568l-128 164h84l84 -112l84 112h84l-128 -164h-80z" />
    <glyph glyph-name="longs" unicode="&#x17f;" horiz-adv-x="308" 
d="M96 0v416h-92v72h92v80q0 164 164 164h60v-76h-52q-46 0 -65 -22.5t-19 -69.5v-564h-88z" />
    <glyph glyph-name="florin" unicode="&#x192;" 
d="M96 292v64h126l19 180q9 82 51.5 123t109.5 41q141 0 131 -148l-3 -44h-80l3 44q5 76 -55 76q-59 0 -69 -92l-19 -180h154v-64h-161l-33 -320q-9 -82 -51.5 -123t-109.5 -41q-141 0 -131 148l3 44h80l-3 -44q-5 -76 55 -76q59 0 69 92l33 320h-119z" />
    <glyph glyph-name="AEacute" unicode="&#x1fc;" horiz-adv-x="1064" 
d="M12 0l496 688h496v-80h-372v-218h296v-80h-296v-230h380v-80h-472v160h-305l-115 -160h-108zM536 580l-244 -340h248v340h-4zM556 768l104 164h104l-144 -164h-64z" />
    <glyph glyph-name="aeacute" unicode="&#x1fd;" horiz-adv-x="844" 
d="M68 336q6 82 61 123t135 41q119 0 164 -74q60 74 168 74q95 0 153.5 -62t58.5 -170v-36h-348q3 -78 41 -123t99 -45q97 0 116 84h88q-10 -67 -67 -113.5t-137 -46.5q-135 0 -193 102q-59 -102 -195 -102q-77 0 -120.5 37t-43.5 99q0 123 160 150l96 16q40 7 52 14t12 24
q0 45 -26 72.5t-78 27.5q-47 0 -78 -23.5t-34 -68.5h-84zM228 60q61 0 100.5 36.5t39.5 107.5v47q-14 -17 -52 -23l-92 -16q-88 -14 -88 -80q0 -34 24 -53t68 -19zM596 424q-51 0 -86 -34t-46 -92h251q-4 61 -35.5 93.5t-83.5 32.5zM384 568l104 164h104l-144 -164h-64z" />
    <glyph glyph-name="Oslashacute" unicode="&#x1fe;" horiz-adv-x="760" 
d="M56 -12l81 101q-93 101 -93 255t94.5 255t241.5 101q109 0 197 -64l51 64h76l-82 -103q94 -100 94 -253q0 -154 -95.5 -255t-240.5 -101q-112 0 -198 62l-50 -62h-76zM620 344q0 107 -56 182l-327 -407q61 -47 143 -47q107 0 173.5 77t66.5 195zM140 344q0 -108 55 -182
l327 406q-61 48 -142 48q-107 0 -173.5 -77t-66.5 -195zM348 768l104 164h104l-144 -164h-64z" />
    <glyph glyph-name="oslashacute" unicode="&#x1ff;" horiz-adv-x="560" 
d="M40 -12l60 74q-60 69 -60 182q0 116 67 186t173 70q82 0 142 -41l34 41h64l-61 -75q61 -69 61 -181q0 -116 -67 -186t-173 -70q-85 0 -143 41l-33 -41h-64zM132 244q0 -66 26 -110l211 259q-37 31 -89 31q-66 0 -107 -49.5t-41 -130.5zM428 244q0 66 -26 110l-211 -259
q37 -31 89 -31q66 0 107 49.5t41 130.5zM248 568l104 164h104l-144 -164h-64z" />
    <glyph glyph-name="Scommaaccent" unicode="&#x218;" horiz-adv-x="648" 
d="M56 196h92q0 -58 46.5 -95t125.5 -37q84 0 130 33.5t46 94.5q0 37 -23.5 60.5t-61.5 34.5t-84 19t-92 19.5t-84 29.5t-61.5 54.5t-23.5 90.5q0 88 70 144t184 56q113 0 182.5 -52.5t69.5 -143.5h-92q0 56 -44.5 88t-115.5 32q-70 0 -115 -30t-45 -86q0 -36 24 -59t62 -34
t84 -19t92 -19.5t84 -30t62 -56.5t24 -94q0 -94 -72.5 -151t-199.5 -57q-124 0 -194 56.5t-70 151.5zM276 -68h88v-78l-37 -102h-40l26 92h-37v88z" />
    <glyph glyph-name="scommaaccent" unicode="&#x219;" horiz-adv-x="492" 
d="M40 140h84q0 -41 34.5 -62.5t81.5 -21.5q120 0 120 80q0 28 -18.5 42.5t-57.5 21.5l-92 16q-142 24 -142 132q0 70 55 111t139 41t138 -37t54 -111h-84q0 38 -29.5 59t-78.5 21q-47 0 -77.5 -20t-30.5 -56q0 -51 84 -65l92 -16q64 -11 100 -40.5t36 -90.5
q0 -75 -56.5 -115.5t-151.5 -40.5q-90 0 -145 39.5t-55 112.5zM196 -68h88v-78l-37 -102h-40l26 92h-37v88z" />
    <glyph glyph-name="uni021A" unicode="&#x21a;" horiz-adv-x="588" 
d="M8 610v78h572v-78h-240v-610h-92v610h-240zM252 -68h88v-78l-37 -102h-40l26 92h-37v88z" />
    <glyph glyph-name="uni021B" unicode="&#x21b;" horiz-adv-x="328" 
d="M88 144v272h-92v72h92v148h88v-148h128v-72h-128v-268q0 -39 16 -55.5t52 -16.5h60v-76h-72q-144 0 -144 144zM144 -68h88v-78l-37 -102h-40l26 92h-37v88z" />
    <glyph glyph-name="circumflex" unicode="&#x2c6;" horiz-adv-x="560" 
d="M112 568l128 164h80l128 -164h-84l-84 112l-84 -112h-84z" />
    <glyph glyph-name="caron" unicode="&#x2c7;" horiz-adv-x="560" 
d="M240 568l-128 164h84l84 -112l84 112h84l-128 -164h-80z" />
    <glyph glyph-name="uni02C9" unicode="&#x2c9;" horiz-adv-x="560" 
d="M140 616v68h276v-68h-276z" />
    <glyph glyph-name="breve" unicode="&#x2d8;" horiz-adv-x="560" 
d="M280 580q-54 0 -95 33.5t-49 106.5h56q13 -84 88 -84t88 84h56q-8 -73 -49 -106.5t-95 -33.5z" />
    <glyph glyph-name="dotaccent" unicode="&#x2d9;" horiz-adv-x="560" 
d="M236 604v92h88v-92h-88z" />
    <glyph glyph-name="ring" unicode="&#x2da;" horiz-adv-x="560" 
d="M280 564q-41 0 -70.5 27t-29.5 69t29.5 69t70.5 27t70.5 -27t29.5 -69t-29.5 -69t-70.5 -27zM280 608q22 0 37 15t15 37t-15 37t-37 15t-37 -15t-15 -37t15 -37t37 -15z" />
    <glyph glyph-name="ogonek" unicode="&#x2db;" horiz-adv-x="560" 
d="M196 -128q0 63 80 128h48q-60 -63 -60 -112q0 -48 56 -48h28v-60h-40q-53 0 -82.5 25.5t-29.5 66.5z" />
    <glyph glyph-name="tilde" unicode="&#x2dc;" horiz-adv-x="560" 
d="M116 596q2 47 27 77.5t69 30.5q32 0 79 -24t61 -24q36 0 44 48h48q-2 -47 -27 -77.5t-69 -30.5q-32 0 -79 24t-61 24q-36 0 -44 -48h-48z" />
    <glyph glyph-name="hungarumlaut" unicode="&#x2dd;" horiz-adv-x="560" 
d="M336 568l104 164h104l-144 -164h-64zM156 568l104 164h104l-144 -164h-64z" />
    <glyph glyph-name="uni0394" unicode="&#x394;" horiz-adv-x="644" 
d="M28 0l240 688h108l240 -688h-588zM322 604h-4l-177 -528h357z" />
    <glyph glyph-name="uni03A9" unicode="&#x3a9;" horiz-adv-x="696" 
d="M408 0v212q59 17 103.5 70.5t44.5 133.5q0 93 -57.5 150.5t-150.5 57.5t-150.5 -57.5t-57.5 -150.5q0 -80 44.5 -133.5t103.5 -70.5v-212h-228v76h144v90q-69 33 -112.5 98t-43.5 152q0 122 83.5 203t216.5 81t216.5 -81t83.5 -203q0 -86 -43.5 -151t-112.5 -99v-90h144
v-76h-228z" />
    <glyph glyph-name="uni03BC" unicode="&#x3bc;" 
d="M152 16q12 -96 12 -160v-76h-88v708h88v-284q0 -75 28 -107.5t84 -32.5q57 0 92.5 47t35.5 125v252h88v-488h-84v72h-4q-42 -84 -148 -84q-57 0 -98 28h-6z" />
    <glyph glyph-name="pi" unicode="&#x3c0;" horiz-adv-x="588" 
d="M84 0v488h420v-488h-88v412h-244v-412h-88z" />
    <glyph glyph-name="Wgrave" unicode="&#x1e80;" horiz-adv-x="936" 
d="M196 0l-184 688h96l146 -592h4l158 592h112l158 -592h4l142 592h92l-180 -688h-116l-156 584h-4l-156 -584h-116zM438 768l-144 164h104l104 -164h-64z" />
    <glyph glyph-name="wgrave" unicode="&#x1e81;" horiz-adv-x="724" 
d="M144 0l-140 488h92l100 -396h4l112 396h104l112 -396h4l100 396h88l-140 -488h-108l-108 400h-4l-108 -400h-108zM330 568l-144 164h104l104 -164h-64z" />
    <glyph glyph-name="Wacute" unicode="&#x1e82;" horiz-adv-x="936" 
d="M196 0l-184 688h96l146 -592h4l158 592h112l158 -592h4l142 592h92l-180 -688h-116l-156 584h-4l-156 -584h-116zM438 768l104 164h104l-144 -164h-64z" />
    <glyph glyph-name="wacute" unicode="&#x1e83;" horiz-adv-x="724" 
d="M144 0l-140 488h92l100 -396h4l112 396h104l112 -396h4l100 396h88l-140 -488h-108l-108 400h-4l-108 -400h-108zM330 568l104 164h104l-144 -164h-64z" />
    <glyph glyph-name="Wdieresis" unicode="&#x1e84;" horiz-adv-x="936" 
d="M196 0l-184 688h96l146 -592h4l158 592h112l158 -592h4l142 592h92l-180 -688h-116l-156 584h-4l-156 -584h-116zM526 804v92h88v-92h-88zM326 804v92h88v-92h-88z" />
    <glyph glyph-name="wdieresis" unicode="&#x1e85;" horiz-adv-x="724" 
d="M144 0l-140 488h92l100 -396h4l112 396h104l112 -396h4l100 396h88l-140 -488h-108l-108 400h-4l-108 -400h-108zM418 604v92h88v-92h-88zM218 604v92h88v-92h-88z" />
    <glyph glyph-name="Ygrave" unicode="&#x1ef2;" horiz-adv-x="608" 
d="M256 0v270l-244 418h104l186 -324h4l194 324h96l-248 -411v-277h-92zM272 768l-144 164h104l104 -164h-64z" />
    <glyph glyph-name="ygrave" unicode="&#x1ef3;" horiz-adv-x="468" 
d="M33 -152h32q84 0 120 100l11 31l-192 509h96l136 -392h4l136 392h88l-207 -564q-55 -152 -176 -152h-48v76zM200 568l-144 164h104l104 -164h-64z" />
    <glyph glyph-name="endash" unicode="&#x2013;" horiz-adv-x="556" 
d="M60 212v80h436v-80h-436z" />
    <glyph glyph-name="emdash" unicode="&#x2014;" horiz-adv-x="840" 
d="M60 212v80h720v-80h-720z" />
    <glyph glyph-name="quoteleft" unicode="&#x2018;" horiz-adv-x="248" 
d="M72 436v100l40 152h48l-28 -144h44v-108h-104z" />
    <glyph glyph-name="quoteright" unicode="&#x2019;" horiz-adv-x="248" 
d="M88 436l28 144h-44v108h104v-100l-40 -152h-48z" />
    <glyph glyph-name="quotesinglbase" unicode="&#x201a;" horiz-adv-x="248" 
d="M116 0h-44v108h104v-100l-40 -152h-48z" />
    <glyph glyph-name="quotedblleft" unicode="&#x201c;" horiz-adv-x="428" 
d="M72 436v100l40 152h48l-28 -144h44v-108h-104zM252 436v100l40 152h48l-28 -144h44v-108h-104z" />
    <glyph glyph-name="quotedblright" unicode="&#x201d;" horiz-adv-x="428" 
d="M88 436l28 144h-44v108h104v-100l-40 -152h-48zM268 436l28 144h-44v108h104v-100l-40 -152h-48z" />
    <glyph glyph-name="quotedblbase" unicode="&#x201e;" horiz-adv-x="428" 
d="M116 0h-44v108h104v-100l-40 -152h-48zM296 0h-44v108h104v-100l-40 -152h-48z" />
    <glyph glyph-name="dagger" unicode="&#x2020;" horiz-adv-x="440" 
d="M44 448v72h136v168h80v-168h136v-72h-136v-448h-80v448h-136z" />
    <glyph glyph-name="daggerdbl" unicode="&#x2021;" horiz-adv-x="440" 
d="M44 448v72h136v168h80v-168h136v-72h-136v-212h136v-72h-136v-164h-80v164h-136v72h136v212h-136z" />
    <glyph glyph-name="bullet" unicode="&#x2022;" horiz-adv-x="488" 
d="M244 80q-73 0 -122.5 49.5t-49.5 122.5t49.5 122.5t122.5 49.5t122.5 -49.5t49.5 -122.5t-49.5 -122.5t-122.5 -49.5z" />
    <glyph glyph-name="ellipsis" unicode="&#x2026;" horiz-adv-x="776" 
d="M588 0v116h112v-116h-112zM332 0v116h112v-116h-112zM76 0v116h112v-116h-112z" />
    <glyph glyph-name="perthousand" unicode="&#x2030;" horiz-adv-x="1128" 
d="M176 336q-74 0 -111 50t-37 130t37 130t111 50t111 -50t37 -130t-37 -130t-111 -50zM600 -8q-74 0 -111 50t-37 130t37 130t111 50t111 -50t37 -130t-37 -130t-111 -50zM952 -8q-74 0 -111 50t-37 130t37 130t111 50t111 -50t37 -130t-37 -130t-111 -50zM180 -12l348 712
h68l-348 -712h-68zM176 396q72 0 72 120t-72 120t-72 -120t72 -120zM600 52q72 0 72 120t-72 120t-72 -120t72 -120zM952 52q72 0 72 120t-72 120t-72 -120t72 -120z" />
    <glyph glyph-name="guilsinglleft" unicode="&#x2039;" horiz-adv-x="320" 
d="M196 48l-144 204l144 204h72l-116 -204l116 -204h-72z" />
    <glyph glyph-name="guilsinglright" unicode="&#x203a;" horiz-adv-x="320" 
d="M52 48l116 204l-116 204h72l144 -204l-144 -204h-72z" />
    <glyph glyph-name="fraction" unicode="&#x2044;" horiz-adv-x="72" 
d="M-172 -12l348 712h68l-348 -712h-68z" />
    <glyph glyph-name="uni2070" unicode="&#x2070;" horiz-adv-x="352" 
d="M176 488q-74 0 -111 50t-37 130t37 130t111 50t111 -50t37 -130t-37 -130t-111 -50zM176 548q72 0 72 120t-72 120t-72 -120t72 -120z" />
    <glyph glyph-name="uni2074" unicode="&#x2074;" horiz-adv-x="352" 
d="M24 560v48l188 232h64v-220h48v-60h-48v-64h-76v64h-176zM107 620h93v117z" />
    <glyph glyph-name="uni2075" unicode="&#x2075;" horiz-adv-x="352" 
d="M48 588h74q3 -18 19 -31t41 -13q26 0 44 16t18 46q0 29 -17.5 43.5t-44.5 14.5q-41 0 -57 -32l-73 4l12 204h236v-64h-168l-8 -84h4q21 28 68 28q124 0 124 -114q0 -56 -39.5 -87t-96.5 -31q-65 0 -98.5 27.5t-37.5 72.5z" />
    <glyph glyph-name="uni2076" unicode="&#x2076;" horiz-adv-x="352" 
d="M308 748h-76q0 18 -13.5 31t-34.5 13q-67 0 -72 -108q10 15 33.5 25.5t50.5 10.5q55 0 87.5 -28t32.5 -86q0 -56 -39.5 -87t-96.5 -31q-144 0 -144 172q0 188 148 188q60 0 90.5 -27.5t33.5 -72.5zM178 664q-26 0 -44 -14.5t-18 -43.5q0 -30 18 -46t44 -16t44 16t18 46
q0 29 -17.5 43.5t-44.5 14.5z" />
    <glyph glyph-name="uni2077" unicode="&#x2077;" horiz-adv-x="352" 
d="M76 496l152 276h-196v68h288v-48l-160 -296h-84z" />
    <glyph glyph-name="uni2078" unicode="&#x2078;" horiz-adv-x="352" 
d="M28 588q0 33 19 55.5t49 28.5v4q-26 6 -41 27t-15 49q0 43 37 69.5t99 26.5t99 -26.5t37 -69.5q0 -28 -15 -49t-41 -27v-4q30 -6 49 -28.5t19 -55.5q0 -48 -39 -74t-109 -26t-109 26t-39 74zM106 596q0 -52 70 -52t70 52t-70 52t-70 -52zM114 746q0 -46 62 -46t62 46
t-62 46t-62 -46z" />
    <glyph glyph-name="uni2079" unicode="&#x2079;" horiz-adv-x="352" 
d="M40 588h76q0 -18 17 -31t39 -13q30 0 46 23t18 84q-7 -15 -30 -25t-49 -10q-57 0 -91 28t-34 82q0 57 39 89.5t97 32.5q144 0 144 -172q0 -188 -140 -188q-61 0 -95 28t-37 72zM170 672q26 0 44 14t18 44t-18 46t-44 16t-44 -16t-18 -46q0 -29 17.5 -43.5t44.5 -14.5z
" />
    <glyph glyph-name="parenleft.superior" unicode="&#x207d;" horiz-adv-x="220" 
d="M140 424q-32 39 -56 105.5t-24 138.5t24 138.5t56 105.5h72q-30 -37 -55 -105t-25 -139t25 -139t55 -105h-72z" />
    <glyph glyph-name="parenright.superior" unicode="&#x207e;" horiz-adv-x="220" 
d="M8 424q30 37 55 105t25 139t-25 139t-55 105h72q32 -39 56 -105.5t24 -138.5t-24 -138.5t-56 -105.5h-72z" />
    <glyph glyph-name="n.superior" unicode="&#x207f;" horiz-adv-x="412" 
d="M52 496v344h76v-52h3q28 61 108 61q56 0 90.5 -33t34.5 -103v-217h-80v198q0 89 -71 89q-36 0 -58.5 -28.5t-22.5 -78.5v-180h-80z" />
    <glyph glyph-name="uni2080" unicode="&#x2080;" horiz-adv-x="352" 
d="M176 -160q-74 0 -111 50t-37 130t37 130t111 50t111 -50t37 -130t-37 -130t-111 -50zM176 -100q72 0 72 120t-72 120t-72 -120t72 -120z" />
    <glyph glyph-name="uni2081" unicode="&#x2081;" horiz-adv-x="352" 
d="M72 54l-32 54l140 84h48v-280h92v-64h-268v64h100v188z" />
    <glyph glyph-name="uni2082" unicode="&#x2082;" horiz-adv-x="352" 
d="M32 -152q0 70 30 106.5t82 62.5l24 12q68 34 68 63q0 48 -60 48q-63 0 -68 -64h-72q2 63 41.5 93.5t98.5 30.5q62 0 99 -27.5t37 -78.5q0 -23 -9 -41.5t-28.5 -33t-33.5 -23t-41 -21.5l-24 -12q-22 -11 -39 -26t-17 -25h192v-64h-280z" />
    <glyph glyph-name="uni2083" unicode="&#x2083;" horiz-adv-x="352" 
d="M34 -48h72q0 -26 19.5 -41t50.5 -15q70 0 70 52t-70 52h-28v52h28q62 0 62 46t-62 46q-28 0 -45 -14.5t-17 -37.5h-72q0 52 37.5 80t100.5 28q59 0 95.5 -27t36.5 -69q0 -28 -15 -49t-41 -27v-3q31 -7 49.5 -30t18.5 -55q0 -48 -39 -74t-109 -26q-142 0 -142 112z" />
    <glyph glyph-name="uni2084" unicode="&#x2084;" horiz-adv-x="352" 
d="M24 -88v48l188 232h64v-220h48v-60h-48v-64h-76v64h-176zM107 -28h93v117z" />
    <glyph glyph-name="uni2085" unicode="&#x2085;" horiz-adv-x="352" 
d="M48 -60h74q3 -18 19 -31t41 -13q26 0 44 16t18 46q0 29 -17.5 43.5t-44.5 14.5q-41 0 -57 -32l-73 4l12 204h236v-64h-168l-8 -84h4q21 28 68 28q124 0 124 -114q0 -56 -39.5 -87t-96.5 -31q-65 0 -98.5 27.5t-37.5 72.5z" />
    <glyph glyph-name="uni2086" unicode="&#x2086;" horiz-adv-x="352" 
d="M308 100h-76q0 18 -13.5 31t-34.5 13q-67 0 -72 -108q10 15 33.5 25.5t50.5 10.5q55 0 87.5 -28t32.5 -86q0 -56 -39.5 -87t-96.5 -31q-144 0 -144 172q0 188 148 188q60 0 90.5 -27.5t33.5 -72.5zM178 16q-26 0 -44 -14.5t-18 -43.5q0 -30 18 -46t44 -16t44 16t18 46
q0 29 -17.5 43.5t-44.5 14.5z" />
    <glyph glyph-name="uni2087" unicode="&#x2087;" horiz-adv-x="352" 
d="M76 -152l152 276h-196v68h288v-48l-160 -296h-84z" />
    <glyph glyph-name="uni2088" unicode="&#x2088;" horiz-adv-x="352" 
d="M28 -60q0 33 19 55.5t49 28.5v4q-26 6 -41 27t-15 49q0 43 37 69.5t99 26.5t99 -26.5t37 -69.5q0 -28 -15 -49t-41 -27v-4q30 -6 49 -28.5t19 -55.5q0 -48 -39 -74t-109 -26t-109 26t-39 74zM106 -52q0 -52 70 -52t70 52t-70 52t-70 -52zM114 98q0 -46 62 -46t62 46
t-62 46t-62 -46z" />
    <glyph glyph-name="uni2089" unicode="&#x2089;" horiz-adv-x="352" 
d="M40 -60h76q0 -18 17 -31t39 -13q30 0 46 23t18 84q-7 -15 -30 -25t-49 -10q-57 0 -91 28t-34 82q0 57 39 89.5t97 32.5q144 0 144 -172q0 -188 -140 -188q-61 0 -95 28t-37 72zM170 24q26 0 44 14t18 44t-18 46t-44 16t-44 -16t-18 -46q0 -29 17.5 -43.5t44.5 -14.5z" />
    <glyph glyph-name="parenleft.inferior" unicode="&#x208d;" horiz-adv-x="220" 
d="M140 -224q-32 39 -56 105.5t-24 138.5t24 138.5t56 105.5h72q-30 -37 -55 -105t-25 -139t25 -139t55 -105h-72z" />
    <glyph glyph-name="parenright.inferior" unicode="&#x208e;" horiz-adv-x="220" 
d="M8 -224q30 37 55 105t25 139t-25 139t-55 105h72q32 -39 56 -105.5t24 -138.5t-24 -138.5t-56 -105.5h-72z" />
    <glyph glyph-name="Euro" unicode="&#x20ac;" 
d="M16 396l16 56h56q20 114 82.5 181t165.5 67q179 0 216 -180h-85q-17 54 -46 79t-81 25q-63 0 -103.5 -45t-55.5 -127h203l-16 -56h-195q-1 -17 -1 -52q0 -27 1 -40h191l-16 -56h-169q14 -88 55 -136t106 -48q48 0 75 20t45 64h86q-41 -160 -210 -160q-106 0 -169 70
t-80 190h-91l16 56h69q-1 13 -1 40q0 35 2 52h-66z" />
    <glyph glyph-name="afii61289" unicode="&#x2113;" horiz-adv-x="412" 
d="M129 26q-38 41 -38 139v74l-2 1l-59 -41l-12 24l73 61v136q0 102 18 157t55 89q37 33 85 33q47 0 74 -34.5t27 -93.5q0 -46 -17.5 -89.5t-50 -80.5t-55.5 -58.5t-58 -48.5v-109q0 -138 91 -138q63 0 118 80l22 -16q-24 -58 -68 -90.5t-101 -32.5q-66 0 -102 38zM171 342
q121 103 121 230q0 91 -55 91q-68 0 -68 -179v-141z" />
    <glyph glyph-name="afii61352" unicode="&#x2116;" horiz-adv-x="1212" 
d="M88 0v688h92l376 -536h4l-4 536h92v-688h-92l-376 532h-4l4 -532h-92zM790 516q0 82 48.5 131.5t127.5 49.5q81 0 129 -49t48 -132q0 -82 -49 -131t-128 -49q-81 0 -128.5 48.5t-47.5 131.5zM873 516q0 -52 25.5 -84t67.5 -32q43 0 68.5 32t25.5 84q0 53 -25.5 84.5
t-68.5 31.5q-42 0 -67.5 -32t-25.5 -84zM789 0v64h355v-64h-355zM789 176v64h355v-64h-355z" />
    <glyph glyph-name="trademark" unicode="&#x2122;" horiz-adv-x="804" 
d="M360 344v344h100l100 -248h4l100 248h100v-344h-72l4 248h-4l-100 -248h-60l-100 248h-4l4 -248h-72zM4 628v60h308v-60h-116v-284h-72v284h-120z" />
    <glyph glyph-name="Omega" unicode="&#x2126;" horiz-adv-x="696" 
d="M408 0v212q59 17 103.5 70.5t44.5 133.5q0 93 -57.5 150.5t-150.5 57.5t-150.5 -57.5t-57.5 -150.5q0 -80 44.5 -133.5t103.5 -70.5v-212h-228v76h144v90q-69 33 -112.5 98t-43.5 152q0 122 83.5 203t216.5 81t216.5 -81t83.5 -203q0 -86 -43.5 -151t-112.5 -99v-90h144
v-76h-228z" />
    <glyph glyph-name="estimated" unicode="&#x212e;" horiz-adv-x="850" 
d="M184 113q98 -103 243 -103q76 0 142 31t113 86h58q-55 -64 -137.5 -101.5t-176.5 -37.5q-165 0 -281 104t-116 252t116.5 252t280.5 104t280 -104t116 -252v-10h-641q-7 0 -7 -4v-194q0 -11 10 -23zM181 355h492q4 0 4 6v193q0 14 -10 24q-98 100 -240 100t-242 -103
q-11 -11 -11 -26v-188q0 -6 7 -6z" />
    <glyph glyph-name="uni2153" unicode="&#x2153;" horiz-adv-x="776" 
d="M458 104h72q0 -26 19.5 -41t50.5 -15q70 0 70 52t-70 52h-28v52h28q62 0 62 46t-62 46q-28 0 -45 -14.5t-17 -37.5h-72q0 52 37.5 80t100.5 28q59 0 95.5 -27t36.5 -69q0 -28 -15 -49t-41 -27v-3q31 -7 49.5 -30t18.5 -55q0 -48 -39 -74t-109 -26q-142 0 -142 112z
M196 -12l348 712h68l-348 -712h-68zM72 550l-32 54l140 84h48v-280h92v-64h-268v64h100v188z" />
    <glyph glyph-name="uni2154" unicode="&#x2154;" horiz-adv-x="776" 
d="M32 344q0 70 30 106.5t82 62.5l24 12q68 34 68 63q0 48 -60 48q-63 0 -68 -64h-72q2 63 41.5 93.5t98.5 30.5q62 0 99 -27.5t37 -78.5q0 -23 -9 -41.5t-28.5 -33t-33.5 -23t-41 -21.5l-24 -12q-22 -11 -39 -26t-17 -25h192v-64h-280zM458 104h72q0 -26 19.5 -41t50.5 -15
q70 0 70 52t-70 52h-28v52h28q62 0 62 46t-62 46q-28 0 -45 -14.5t-17 -37.5h-72q0 52 37.5 80t100.5 28q59 0 95.5 -27t36.5 -69q0 -28 -15 -49t-41 -27v-3q31 -7 49.5 -30t18.5 -55q0 -48 -39 -74t-109 -26q-142 0 -142 112zM196 -12l348 712h68l-348 -712h-68z" />
    <glyph glyph-name="uni2155" unicode="&#x2155;" horiz-adv-x="776" 
d="M472 92h74q3 -18 19 -31t41 -13q26 0 44 16t18 46q0 29 -17.5 43.5t-44.5 14.5q-41 0 -57 -32l-73 4l12 204h236v-64h-168l-8 -82h4q22 26 68 26q124 0 124 -114q0 -56 -39.5 -87t-96.5 -31q-65 0 -98.5 27.5t-37.5 72.5zM192 -12l348 712h68l-348 -712h-68zM72 550
l-32 54l140 84h48v-280h92v-64h-268v64h100v188z" />
    <glyph glyph-name="uni2156" unicode="&#x2156;" horiz-adv-x="776" 
d="M472 92h74q3 -18 19 -31t41 -13q26 0 44 16t18 46q0 29 -17.5 43.5t-44.5 14.5q-41 0 -57 -32l-73 4l12 204h236v-64h-168l-8 -82h4q21 26 68 26q124 0 124 -114q0 -56 -39.5 -87t-96.5 -31q-65 0 -98.5 27.5t-37.5 72.5zM32 344q0 70 30 106.5t82 62.5l24 12
q68 34 68 63q0 48 -60 48q-63 0 -68 -64h-72q2 63 41.5 93.5t98.5 30.5q62 0 99 -27.5t37 -78.5q0 -23 -9 -41.5t-28.5 -33t-33.5 -23t-41 -21.5l-24 -12q-22 -11 -39 -26t-17 -25h192v-64h-280zM192 -12l348 712h68l-348 -712h-68z" />
    <glyph glyph-name="uni2157" unicode="&#x2157;" horiz-adv-x="776" 
d="M472 92h74q3 -18 19 -31t41 -13q26 0 44 16t18 46q0 29 -17.5 43.5t-44.5 14.5q-41 0 -57 -32l-73 4l12 204h236v-64h-168l-8 -82h4q21 26 68 26q124 0 124 -114q0 -56 -39.5 -87t-96.5 -31q-65 0 -98.5 27.5t-37.5 72.5zM34 448h72q0 -26 19.5 -41t50.5 -15q70 0 70 52
t-70 52h-28v52h28q62 0 62 46t-62 46q-28 0 -45 -14.5t-17 -37.5h-72q0 52 37.5 80t100.5 28q59 0 95.5 -27t36.5 -69q0 -28 -15 -49t-41 -27v-3q31 -7 49.5 -30t18.5 -55q0 -48 -39 -74t-109 -26q-142 0 -142 112zM184 -12l348 712h68l-348 -712h-68z" />
    <glyph glyph-name="uni2158" unicode="&#x2158;" horiz-adv-x="776" 
d="M472 92h74q3 -18 19 -31t41 -13q26 0 44 16t18 46q0 29 -17.5 43.5t-44.5 14.5q-41 0 -57 -32l-73 4l12 204h236v-64h-170l-6 -82h4q21 26 68 26q124 0 124 -114q0 -56 -39.5 -87t-96.5 -31q-65 0 -98.5 27.5t-37.5 72.5zM24 408v48l188 232h64v-220h48v-60h-48v-64h-76
v64h-176zM184 -12l348 712h68l-348 -712h-68zM107 468h93v117z" />
    <glyph glyph-name="uni2159" unicode="&#x2159;" horiz-adv-x="776" 
d="M732 252h-76q0 18 -13.5 31t-34.5 13q-67 0 -72 -108h4q9 15 31.5 25.5t48.5 10.5q55 0 87.5 -28t32.5 -86q0 -56 -39.5 -87t-96.5 -31q-144 0 -144 172q0 188 148 188q60 0 90.5 -27.5t33.5 -72.5zM200 -12l348 712h68l-348 -712h-68zM72 550l-32 54l140 84h48v-280h92
v-64h-268v64h100v188zM602 168q-26 0 -44 -14.5t-18 -43.5q0 -30 18 -46t44 -16t44 16t18 46q0 29 -17.5 43.5t-44.5 14.5z" />
    <glyph glyph-name="uni215A" unicode="&#x215a;" horiz-adv-x="776" 
d="M732 252h-76q0 18 -13.5 31t-34.5 13q-67 0 -72 -108h4q9 15 31.5 25.5t48.5 10.5q55 0 87.5 -28t32.5 -86q0 -56 -39.5 -87t-96.5 -31q-144 0 -144 172q0 188 148 188q60 0 90.5 -27.5t33.5 -72.5zM48 436h74q3 -18 19 -31t41 -13q26 0 44 16t18 46q0 29 -17.5 43.5
t-44.5 14.5q-41 0 -57 -32l-73 4l12 204h236v-64h-168l-8 -82h4q21 26 68 26q124 0 124 -114q0 -56 -39.5 -87t-96.5 -31q-65 0 -98.5 27.5t-37.5 72.5zM180 -12l348 712h68l-348 -712h-68zM602 168q-26 0 -44 -14.5t-18 -43.5q0 -30 18 -46t44 -16t44 16t18 46
q0 29 -17.5 43.5t-44.5 14.5z" />
    <glyph glyph-name="uni215B" unicode="&#x215b;" horiz-adv-x="776" 
d="M452 92q0 33 19 55.5t49 28.5v4q-26 6 -41 27t-15 49q0 43 37 69.5t99 26.5t99 -26.5t37 -69.5q0 -28 -15 -49t-41 -27v-4q30 -6 49 -28.5t19 -55.5q0 -48 -39 -74t-109 -26t-109 26t-39 74zM196 -12l348 712h68l-348 -712h-68zM72 550l-32 54l140 84h48v-280h92v-64
h-268v64h100v188zM530 100q0 -52 70 -52t70 52t-70 52t-70 -52zM538 250q0 -46 62 -46t62 46t-62 46t-62 -46z" />
    <glyph glyph-name="uni215C" unicode="&#x215c;" horiz-adv-x="776" 
d="M452 92q0 33 19 55.5t49 28.5v4q-26 6 -41 27t-15 49q0 43 37 69.5t99 26.5t99 -26.5t37 -69.5q0 -28 -15 -49t-41 -27v-4q30 -6 49 -28.5t19 -55.5q0 -48 -39 -74t-109 -26t-109 26t-39 74zM34 448h72q0 -26 19.5 -41t50.5 -15q70 0 70 52t-70 52h-28v52h28q62 0 62 46
t-62 46q-28 0 -45 -14.5t-17 -37.5h-72q0 52 37.5 80t100.5 28q59 0 95.5 -27t36.5 -69q0 -28 -15 -49t-41 -27v-3q31 -7 49.5 -30t18.5 -55q0 -48 -39 -74t-109 -26q-142 0 -142 112zM180 -12l348 712h68l-348 -712h-68zM530 100q0 -52 70 -52t70 52t-70 52t-70 -52z
M538 250q0 -46 62 -46t62 46t-62 46t-62 -46z" />
    <glyph glyph-name="uni215D" unicode="&#x215d;" horiz-adv-x="776" 
d="M452 92q0 33 19 55.5t49 28.5v4q-26 6 -41 27t-15 49q0 43 37 69.5t99 26.5t99 -26.5t37 -69.5q0 -28 -15 -49t-41 -27v-4q30 -6 49 -28.5t19 -55.5q0 -48 -39 -74t-109 -26t-109 26t-39 74zM48 436h74q3 -18 19 -31t41 -13q26 0 44 16t18 46q0 29 -17.5 43.5t-44.5 14.5
q-41 0 -57 -32l-73 4l12 204h236v-64h-168l-8 -82h4q21 26 68 26q124 0 124 -114q0 -56 -39.5 -87t-96.5 -31q-65 0 -98.5 27.5t-37.5 72.5zM180 -12l348 712h68l-348 -712h-68zM530 100q0 -52 70 -52t70 52t-70 52t-70 -52zM538 250q0 -46 62 -46t62 46t-62 46t-62 -46z
" />
    <glyph glyph-name="uni215E" unicode="&#x215e;" horiz-adv-x="776" 
d="M452 92q0 33 19 55.5t49 28.5v4q-26 6 -41 27t-15 49q0 43 37 69.5t99 26.5t99 -26.5t37 -69.5q0 -28 -15 -49t-41 -27v-4q30 -6 49 -28.5t19 -55.5q0 -48 -39 -74t-109 -26t-109 26t-39 74zM152 -12l348 712h68l-348 -712h-68zM76 344l152 276h-196v68h288v-48
l-160 -296h-84zM530 100q0 -52 70 -52t70 52t-70 52t-70 -52zM538 250q0 -46 62 -46t62 46t-62 46t-62 -46z" />
    <glyph glyph-name="uni2190" unicode="&#x2190;" horiz-adv-x="660" 
d="M318 50l-46 -42l-244 244l244 244l46 -42l-177 -174q64 4 167 4h324v-64h-324q-103 0 -167 4z" />
    <glyph glyph-name="uni2191" unicode="&#x2191;" horiz-adv-x="660" 
d="M128 264l-42 46l244 244l244 -244l-42 -46l-174 177q4 -64 4 -167v-324h-64v324q0 103 4 167z" />
    <glyph glyph-name="uni2192" unicode="&#x2192;" horiz-adv-x="660" 
d="M388 8l-46 42l176 174q-63 -4 -166 -4h-324v64h324q103 0 166 -4l-176 174l46 42l244 -244z" />
    <glyph glyph-name="uni2193" unicode="&#x2193;" horiz-adv-x="660" 
d="M532 240l42 -46l-244 -244l-244 244l42 46l174 -177q-4 64 -4 167v324h64v-324q0 -103 -4 -167z" />
    <glyph glyph-name="uni2196" unicode="&#x2196;" horiz-adv-x="660" 
d="M116 488h344v-60h-244q28 -24 120 -116l228 -228l-44 -48l-228 232q-74 71 -116 120v-244h-60v344z" />
    <glyph glyph-name="uni2197" unicode="&#x2197;" horiz-adv-x="660" 
d="M220 428v60h344v-344h-60v244q-42 -49 -116 -120l-228 -232l-44 48l228 228q92 92 120 116h-244z" />
    <glyph glyph-name="uni2198" unicode="&#x2198;" horiz-adv-x="660" 
d="M220 36v60h244q-28 24 -120 116l-228 228l44 48l228 -232q74 -71 116 -120v244h60v-344h-344z" />
    <glyph glyph-name="uni2199" unicode="&#x2199;" horiz-adv-x="660" 
d="M216 96h244v-60h-344v344h60v-244q42 49 116 120l228 232l44 -48l-228 -228q-92 -92 -120 -116z" />
    <glyph glyph-name="partialdiff" unicode="&#x2202;" 
d="M20 192q0 111 70 179.5t174 68.5q54 0 99 -23.5t63 -62.5q2 32 2 46q0 115 -39.5 169.5t-100.5 54.5q-57 0 -89 -29.5t-43 -78.5h-88q18 85 75.5 134.5t152.5 49.5q96 0 160 -74.5t64 -225.5q0 -91 -16.5 -163.5t-44.5 -118t-66.5 -75.5t-79 -42.5t-85.5 -12.5
q-87 0 -147.5 55.5t-60.5 148.5zM240 64q64 0 112 47.5t48 116.5q0 62 -36 99t-96 37q-66 0 -111 -46.5t-45 -121.5q0 -60 36 -96t92 -36z" />
    <glyph glyph-name="Delta" unicode="&#x2206;" horiz-adv-x="644" 
d="M28 0l240 688h108l240 -688h-588zM322 604h-4l-177 -528h357z" />
    <glyph glyph-name="product" unicode="&#x220f;" horiz-adv-x="724" 
d="M92 0v688h540v-688h-88v612h-364v-612h-88z" />
    <glyph glyph-name="summation" unicode="&#x2211;" horiz-adv-x="528" 
d="M24 0v53l220 287l-212 288v60h460v-76h-348l200 -268l-212 -268h376v-76h-484z" />
    <glyph glyph-name="minus" unicode="&#x2212;" 
d="M56 216v76h456v-76h-456z" />
    <glyph glyph-name="uni2215" unicode="&#x2215;" horiz-adv-x="72" 
d="M-172 -12l348 712h68l-348 -712h-68z" />
    <glyph glyph-name="uni2219" unicode="&#x2219;" horiz-adv-x="264" 
d="M76 196v112h112v-112h-112z" />
    <glyph glyph-name="radical" unicode="&#x221a;" horiz-adv-x="588" 
d="M28 304v76l140 44l130 -328h4l210 592h88l-248 -688h-100l-137 331z" />
    <glyph glyph-name="infinity" unicode="&#x221e;" horiz-adv-x="708" 
d="M188 88q-73 0 -118.5 46t-45.5 118t45.5 118t118.5 46q97 0 168 -105q75 105 164 105q73 0 118.5 -46t45.5 -118t-45.5 -118t-118.5 -46q-98 0 -168 104q-75 -104 -164 -104zM184 160q61 0 128 92q-67 92 -128 92q-38 0 -61 -27t-23 -65t23 -65t61 -27zM396 252
q67 -92 128 -92q38 0 61 27t23 65t-23 65t-61 27q-61 0 -128 -92z" />
    <glyph glyph-name="integral" unicode="&#x222b;" horiz-adv-x="364" 
d="M32 -108h24q50 0 73.5 25.5t24 66.5t-1.5 92l-28 496q-3 56 1.5 97t22 78.5t55.5 57t97 19.5h32v-76h-24q-50 0 -73.5 -25.5t-24 -66.5t1.5 -92l28 -496q1 -40 0 -76.5t-12 -68.5t-29.5 -56t-53 -37.5t-81.5 -13.5h-32v76z" />
    <glyph glyph-name="approxequal" unicode="&#x2248;" 
d="M56 284q0 74 36.5 113t91.5 39q39 0 76 -19t68.5 -38t55.5 -19q52 0 52 76h76q0 -74 -35.5 -113t-88.5 -39q-39 0 -77.5 20t-70.5 40t-56 20q-52 0 -52 -80h-76zM56 76q0 74 36.5 113t91.5 39q39 0 76 -19t68.5 -38t55.5 -19q52 0 52 76h76q0 -74 -35.5 -113t-88.5 -39
q-39 0 -77.5 20t-70.5 40t-56 20q-52 0 -52 -80h-76z" />
    <glyph glyph-name="notequal" unicode="&#x2260;" 
d="M56 320v76h262l78 140l64 -36l-58 -104h110v-76h-152l-73 -132h225v-76h-267l-77 -140l-64 36l57 104h-105v76h147l73 132h-220z" />
    <glyph glyph-name="lessequal" unicode="&#x2264;" 
d="M72 320v76l424 180v-80l-335 -136l335 -136v-84zM72 0v76h424v-76h-424z" />
    <glyph glyph-name="greaterequal" unicode="&#x2265;" 
d="M496 396v-76l-424 -180v80l335 136l-335 136v84zM72 0v76h424v-76h-424z" />
    <glyph glyph-name="uni25A0" unicode="&#x25a0;" horiz-adv-x="688" 
d="M0 0v688h688v-688h-688z" />
    <glyph glyph-name="uni25A1" unicode="&#x25a1;" horiz-adv-x="688" 
d="M0 0v688h688v-688h-688zM80 76h528v536h-528v-536z" />
    <glyph glyph-name="uni25B6" unicode="&#x25b6;" horiz-adv-x="502" 
d="M44 -12v512l446 -256z" />
    <glyph glyph-name="uni25B7" unicode="&#x25b7;" horiz-adv-x="502" 
d="M44 -12v512l446 -256zM124 120l224 124l-224 124v-248z" />
    <glyph glyph-name="uni25C0" unicode="&#x25c0;" horiz-adv-x="502" 
d="M12 244l446 256v-512z" />
    <glyph glyph-name="uni25C1" unicode="&#x25c1;" horiz-adv-x="502" 
d="M12 244l446 256v-512zM154 244l224 -124v248z" />
    <glyph glyph-name="lozenge" unicode="&#x25ca;" horiz-adv-x="644" 
d="M280 0l-244 344l244 344h84l244 -344l-244 -344h-84zM322 616h-4l-188 -269l192 -275h4l188 269z" />
    <glyph glyph-name="uni25CB" unicode="&#x25cb;" horiz-adv-x="552" 
d="M24 244q0 108 73.5 182t178.5 74q106 0 179 -73t73 -183q0 -108 -73.5 -182t-178.5 -74q-106 0 -179 73t-73 183zM104 244q0 -79 49 -131.5t123 -52.5q76 0 124 52t48 132q0 79 -49 131.5t-123 52.5q-76 0 -124 -52t-48 -132z" />
    <glyph glyph-name="uni25CF" unicode="&#x25cf;" horiz-adv-x="552" 
d="M24 244q0 108 73.5 182t178.5 74q106 0 179 -73t73 -183q0 -108 -73.5 -182t-178.5 -74q-106 0 -179 73t-73 183z" />
    <glyph glyph-name="uni25FB" unicode="&#x25fb;" horiz-adv-x="488" 
d="M0 0v488h488v-488h-488zM80 72h328v344h-328v-344z" />
    <glyph glyph-name="uni25FC" unicode="&#x25fc;" horiz-adv-x="488" 
d="M0 0v488h488v-488h-488z" />
    <glyph glyph-name="uni2605" unicode="&#x2605;" horiz-adv-x="546" 
d="M106 13l68 183l-162 108l5 16l195 -9l53 189h16l52 -189l196 9l5 -16l-163 -108l69 -183l-14 -10l-153 121l-153 -121z" />
    <glyph glyph-name="dotlessi.sc" unicode="&#xe08e;" horiz-adv-x="264" 
d="M88 0v520h88v-520h-88z" />
    <glyph glyph-name="g.superior" unicode="&#xe0a3;" horiz-adv-x="429" 
d="M41 454h76q1 -28 23.5 -43t60.5 -15q100 0 100 118v36h-3q-30 -62 -116 -62q-64 0 -107 47t-43 130t46 133.5t110 50.5q80 0 110 -63h3v54h76v-328q0 -177 -176 -177q-72 0 -115.5 30.5t-44.5 88.5zM115 665q0 -53 25 -83t66 -30q40 0 65.5 31.5t25.5 84.5v5
q-1 51 -27 81t-64 30q-40 0 -65.5 -32.5t-25.5 -86.5z" />
    <glyph glyph-name="germandbls.sc" unicode="&#xe0a4;" horiz-adv-x="1044" 
d="M44 148h88q0 -42 34 -65t94 -23q128 0 128 84q0 34 -34.5 51t-83.5 24t-98 18t-83.5 44t-34.5 91q0 72 57.5 116t152.5 44q93 0 146.5 -42t53.5 -114h-84q0 39 -32 61.5t-84 22.5q-120 0 -120 -80q0 -30 25 -48t62 -23.5t81 -14.5t81 -20.5t62 -42.5t25 -79
q0 -76 -58 -120t-162 -44q-101 0 -158.5 43t-57.5 117zM560 148h88q0 -42 34 -65t94 -23q128 0 128 84q0 34 -34.5 51t-83.5 24t-98 18t-83.5 44t-34.5 91q0 72 57.5 116t152.5 44q93 0 146.5 -42t53.5 -114h-84q0 39 -32 61.5t-84 22.5q-120 0 -120 -80q0 -30 25 -48
t62 -23.5t81 -14.5t81 -20.5t62 -42.5t25 -79q0 -76 -58 -120t-162 -44q-101 0 -158.5 43t-57.5 117z" />
    <glyph glyph-name="onesuperior" unicode="&#xe105;" horiz-adv-x="352" 
d="M72 702l-32 54l140 84h48v-280h92v-64h-268v64h100v188z" />
    <glyph glyph-name="twosuperior" unicode="&#xe107;" horiz-adv-x="352" 
d="M32 496q0 70 30 106.5t82 62.5l24 12q68 34 68 63q0 48 -60 48q-63 0 -68 -64h-72q2 63 41.5 93.5t98.5 30.5q62 0 99 -27.5t37 -78.5q0 -23 -9 -41.5t-28.5 -33t-33.5 -23t-41 -21.5l-24 -12q-22 -11 -39 -26t-17 -25h192v-64h-280z" />
    <glyph glyph-name="threesuperior" unicode="&#xe108;" horiz-adv-x="352" 
d="M34 600h72q0 -26 19.5 -41t50.5 -15q70 0 70 52t-70 52h-28v52h28q62 0 62 46t-62 46q-28 0 -45 -14.5t-17 -37.5h-72q0 52 37.5 80t100.5 28q59 0 95.5 -27t36.5 -69q0 -28 -15 -49t-41 -27v-3q31 -7 49.5 -30t18.5 -55q0 -48 -39 -74t-109 -26q-142 0 -142 112z" />
    <glyph glyph-name="cent.denominator" unicode="&#xf629;" horiz-adv-x="352" 
d="M36 172q0 52 30 87t86 43v50h64v-51q45 -7 71 -33.5t29 -59.5h-76q-10 38 -56 38q-32 0 -50 -20t-18 -54t18 -54t50 -20q46 0 56 38h76q-3 -34 -29 -60t-71 -34v-50h-64v50q-56 8 -86 43t-30 87z" />
    <glyph glyph-name="dollar.denominator" unicode="&#xf62a;" horiz-adv-x="352" 
d="M28 100h72q2 -23 23 -37.5t53 -14.5q29 0 48.5 11t19.5 33q0 20 -21.5 31t-52 16.5t-61 14t-52 31t-21.5 59.5q0 42 29 70t79 35v55h64v-55q45 -7 73 -31.5t31 -61.5h-76q-4 19 -20.5 29.5t-39.5 10.5q-64 0 -64 -40q0 -21 21.5 -32t52 -17.5t61 -15t52 -31.5t21.5 -60
q0 -45 -29.5 -72.5t-82.5 -33.5v-62h-64v62q-54 7 -84.5 35t-31.5 71z" />
    <glyph glyph-name="hyphen.denominator" unicode="&#xf62b;" horiz-adv-x="276" 
d="M36 140v68h204v-68h-204z" />
    <glyph glyph-name="parenleft.denominator" unicode="&#xf62c;" horiz-adv-x="220" 
d="M140 -72q-32 39 -56 105.5t-24 138.5t24 138.5t56 105.5h72q-30 -37 -55 -105t-25 -139t25 -139t55 -105h-72z" />
    <glyph glyph-name="parenright.denominator" unicode="&#xf62d;" horiz-adv-x="220" 
d="M8 -72q30 37 55 105t25 139t-25 139t-55 105h72q32 -39 56 -105.5t24 -138.5t-24 -138.5t-56 -105.5h-72z" />
    <glyph glyph-name="cent.numerator" unicode="&#xf62e;" horiz-adv-x="352" 
d="M36 516q0 52 30 87t86 43v50h64v-51q45 -7 71 -33.5t29 -59.5h-76q-10 38 -56 38q-32 0 -50 -20t-18 -54t18 -54t50 -20q46 0 56 38h76q-3 -34 -29 -60t-71 -34v-50h-64v50q-56 8 -86 43t-30 87z" />
    <glyph glyph-name="dollar.numerator" unicode="&#xf62f;" horiz-adv-x="352" 
d="M28 444h72q2 -23 23 -37.5t53 -14.5q29 0 48.5 11t19.5 33q0 20 -21.5 31t-52 16.5t-61 14t-52 31t-21.5 59.5q0 42 29 70t79 35v55h64v-55q45 -7 73 -31.5t31 -61.5h-76q-4 19 -20.5 29.5t-39.5 10.5q-64 0 -64 -40q0 -21 21.5 -32t52 -17.5t61 -15t52 -31.5t21.5 -60
q0 -45 -29.5 -72.5t-82.5 -33.5v-62h-64v62q-54 7 -84.5 35t-31.5 71z" />
    <glyph glyph-name="hyphen.numerator" unicode="&#xf630;" horiz-adv-x="276" 
d="M36 484v68h204v-68h-204z" />
    <glyph glyph-name="parenleft.numerator" unicode="&#xf631;" horiz-adv-x="220" 
d="M140 272q-32 39 -56 105.5t-24 138.5t24 138.5t56 105.5h72q-30 -37 -55 -105t-25 -139t25 -139t55 -105h-72z" />
    <glyph glyph-name="parenright.numerator" unicode="&#xf632;" horiz-adv-x="220" 
d="M8 272q30 37 55 105t25 139t-25 139t-55 105h72q32 -39 56 -105.5t24 -138.5t-24 -138.5t-56 -105.5h-72z" />
    <glyph glyph-name="h.superior" unicode="&#xf637;" horiz-adv-x="412" 
d="M52 496v516h80v-108q0 -67 -4 -116h3q28 61 108 61q56 0 90.5 -33t34.5 -103v-217h-80v198q0 89 -71 89q-36 0 -58.5 -28.5t-22.5 -78.5v-180h-80z" />
    <glyph glyph-name="zero.denominator" unicode="&#xf655;" horiz-adv-x="352" 
d="M176 -8q-74 0 -111 50t-37 130t37 130t111 50t111 -50t37 -130t-37 -130t-111 -50zM176 52q72 0 72 120t-72 120t-72 -120t72 -120z" />
    <glyph glyph-name="one.denominator" unicode="&#xf656;" horiz-adv-x="352" 
d="M72 206l-32 54l140 84h48v-280h92v-64h-268v64h100v188z" />
    <glyph glyph-name="two.denominator" unicode="&#xf657;" horiz-adv-x="352" 
d="M32 0q0 70 30 106.5t82 62.5l24 12q68 34 68 63q0 48 -60 48q-63 0 -68 -64h-72q2 63 41.5 93.5t98.5 30.5q62 0 99 -27.5t37 -78.5q0 -23 -9 -41.5t-28.5 -33t-33.5 -23t-41 -21.5l-24 -12q-22 -11 -39 -26t-17 -25h192v-64h-280z" />
    <glyph glyph-name="three.denominator" unicode="&#xf658;" horiz-adv-x="352" 
d="M34 104h72q0 -26 19.5 -41t50.5 -15q70 0 70 52t-70 52h-28v52h28q62 0 62 46t-62 46q-28 0 -45 -14.5t-17 -37.5h-72q0 52 37.5 80t100.5 28q59 0 95.5 -27t36.5 -69q0 -28 -15 -49t-41 -27v-3q31 -7 49.5 -30t18.5 -55q0 -48 -39 -74t-109 -26q-142 0 -142 112z" />
    <glyph glyph-name="four.denominator" unicode="&#xf659;" horiz-adv-x="352" 
d="M24 64v48l188 232h64v-220h48v-60h-48v-64h-76v64h-176zM107 124h93v117z" />
    <glyph glyph-name="five.denominator" unicode="&#xf65a;" horiz-adv-x="352" 
d="M48 92h74q3 -18 19 -31t41 -13q26 0 44 16t18 46q0 29 -17.5 43.5t-44.5 14.5q-41 0 -57 -32l-73 4l12 204h236v-64h-168l-8 -84h4q21 28 68 28q124 0 124 -114q0 -56 -39.5 -87t-96.5 -31q-65 0 -98.5 27.5t-37.5 72.5z" />
    <glyph glyph-name="six.denominator" unicode="&#xf65b;" horiz-adv-x="352" 
d="M308 252h-76q0 18 -13.5 31t-34.5 13q-67 0 -72 -108q10 15 33.5 25.5t50.5 10.5q55 0 87.5 -28t32.5 -86q0 -56 -39.5 -87t-96.5 -31q-144 0 -144 172q0 188 148 188q60 0 90.5 -27.5t33.5 -72.5zM178 168q-26 0 -44 -14.5t-18 -43.5q0 -30 18 -46t44 -16t44 16t18 46
q0 29 -17.5 43.5t-44.5 14.5z" />
    <glyph glyph-name="seven.denominator" unicode="&#xf65c;" horiz-adv-x="352" 
d="M76 0l152 276h-196v68h288v-48l-160 -296h-84z" />
    <glyph glyph-name="eight.denominator" unicode="&#xf65d;" horiz-adv-x="352" 
d="M28 92q0 33 19 55.5t49 28.5v4q-26 6 -41 27t-15 49q0 43 37 69.5t99 26.5t99 -26.5t37 -69.5q0 -28 -15 -49t-41 -27v-4q30 -6 49 -28.5t19 -55.5q0 -48 -39 -74t-109 -26t-109 26t-39 74zM106 100q0 -52 70 -52t70 52t-70 52t-70 -52zM114 250q0 -46 62 -46t62 46
t-62 46t-62 -46z" />
    <glyph glyph-name="nine.denominator" unicode="&#xf65e;" horiz-adv-x="352" 
d="M40 92h76q0 -18 17 -31t39 -13q30 0 46 23t18 84q-7 -15 -30 -25t-49 -10q-57 0 -91 28t-34 82q0 57 39 89.5t97 32.5q144 0 144 -172q0 -188 -140 -188q-61 0 -95 28t-37 72zM170 176q26 0 44 14t18 44t-18 46t-44 16t-44 -16t-18 -46q0 -29 17.5 -43.5t44.5 -14.5z" />
    <glyph glyph-name="comma.denominator" unicode="&#xf65f;" horiz-adv-x="184" 
d="M48 0v92h88v-88l-28 -116h-44l22 112h-38z" />
    <glyph glyph-name="period.denominator" unicode="&#xf660;" horiz-adv-x="184" 
d="M48 0v92h88v-92h-88z" />
    <glyph glyph-name="zero.numerator" unicode="&#xf661;" horiz-adv-x="352" 
d="M176 336q-74 0 -111 50t-37 130t37 130t111 50t111 -50t37 -130t-37 -130t-111 -50zM176 396q72 0 72 120t-72 120t-72 -120t72 -120z" />
    <glyph glyph-name="one.numerator" unicode="&#xf662;" horiz-adv-x="352" 
d="M72 550l-32 54l140 84h48v-280h92v-64h-268v64h100v188z" />
    <glyph glyph-name="two.numerator" unicode="&#xf663;" horiz-adv-x="352" 
d="M32 344q0 70 30 106.5t82 62.5l24 12q68 34 68 63q0 48 -60 48q-63 0 -68 -64h-72q2 63 41.5 93.5t98.5 30.5q62 0 99 -27.5t37 -78.5q0 -23 -9 -41.5t-28.5 -33t-33.5 -23t-41 -21.5l-24 -12q-22 -11 -39 -26t-17 -25h192v-64h-280z" />
    <glyph glyph-name="three.numerator" unicode="&#xf664;" horiz-adv-x="352" 
d="M34 448h72q0 -26 19.5 -41t50.5 -15q70 0 70 52t-70 52h-28v52h28q62 0 62 46t-62 46q-28 0 -45 -14.5t-17 -37.5h-72q0 52 37.5 80t100.5 28q59 0 95.5 -27t36.5 -69q0 -28 -15 -49t-41 -27v-3q31 -7 49.5 -30t18.5 -55q0 -48 -39 -74t-109 -26q-142 0 -142 112z" />
    <glyph glyph-name="four.numerator" unicode="&#xf665;" horiz-adv-x="352" 
d="M24 408v48l188 232h64v-220h48v-60h-48v-64h-76v64h-176zM107 468h93v117z" />
    <glyph glyph-name="five.numerator" unicode="&#xf666;" horiz-adv-x="352" 
d="M48 436h74q3 -18 19 -31t41 -13q26 0 44 16t18 46q0 29 -17.5 43.5t-44.5 14.5q-41 0 -57 -32l-73 4l12 204h236v-64h-168l-8 -84h4q21 28 68 28q124 0 124 -114q0 -56 -39.5 -87t-96.5 -31q-65 0 -98.5 27.5t-37.5 72.5z" />
    <glyph glyph-name="six.numerator" unicode="&#xf667;" horiz-adv-x="352" 
d="M308 596h-76q0 18 -13.5 31t-34.5 13q-67 0 -72 -108q10 15 33.5 25.5t50.5 10.5q55 0 87.5 -28t32.5 -86q0 -56 -39.5 -87t-96.5 -31q-144 0 -144 172q0 188 148 188q60 0 90.5 -27.5t33.5 -72.5zM178 512q-26 0 -44 -14.5t-18 -43.5q0 -30 18 -46t44 -16t44 16t18 46
q0 29 -17.5 43.5t-44.5 14.5z" />
    <glyph glyph-name="seven.numerator" unicode="&#xf668;" horiz-adv-x="352" 
d="M76 344l152 276h-196v68h288v-48l-160 -296h-84z" />
    <glyph glyph-name="eight.numerator" unicode="&#xf669;" horiz-adv-x="352" 
d="M28 436q0 33 19 55.5t49 28.5v4q-26 6 -41 27t-15 49q0 43 37 69.5t99 26.5t99 -26.5t37 -69.5q0 -28 -15 -49t-41 -27v-4q30 -6 49 -28.5t19 -55.5q0 -48 -39 -74t-109 -26t-109 26t-39 74zM106 444q0 -52 70 -52t70 52t-70 52t-70 -52zM114 594q0 -46 62 -46t62 46
t-62 46t-62 -46z" />
    <glyph glyph-name="nine.numerator" unicode="&#xf66a;" horiz-adv-x="352" 
d="M40 436h76q0 -18 17 -31t39 -13q30 0 46 23t18 84q-7 -15 -30 -25t-49 -10q-57 0 -91 28t-34 82q0 57 39 89.5t97 32.5q144 0 144 -172q0 -188 -140 -188q-61 0 -95 28t-37 72zM170 520q26 0 44 14t18 44t-18 46t-44 16t-44 -16t-18 -46q0 -29 17.5 -43.5t44.5 -14.5z
" />
    <glyph glyph-name="comma.numerator" unicode="&#xf66b;" horiz-adv-x="184" 
d="M48 344v92h88v-88l-28 -116h-44l22 112h-38z" />
    <glyph glyph-name="period.numerator" unicode="&#xf66c;" horiz-adv-x="184" 
d="M48 344v92h88v-92h-88z" />
    <glyph glyph-name="abreve.sc" unicode="&#xf66d;" horiz-adv-x="524" 
d="M8 0l204 520h104l200 -520h-92l-47 126h-233l-48 -126h-88zM264 432h-4l-89 -234h179zM262 612q-54 0 -95 33.5t-49 106.5h56q13 -84 88 -84t88 84h56q-8 -73 -49 -106.5t-95 -33.5z" />
    <glyph glyph-name="amacron.sc" unicode="&#xf66e;" horiz-adv-x="524" 
d="M8 0l204 520h104l200 -520h-92l-47 126h-233l-48 -126h-88zM264 432h-4l-89 -234h179zM122 648v68h276v-68h-276z" />
    <glyph glyph-name="aogonek.sc" unicode="&#xf66f;" horiz-adv-x="524" 
d="M392 -128q0 63 80 128h-48l-47 126h-233l-48 -126h-88l204 520h104l200 -520h4q-60 -63 -60 -112q0 -48 56 -48h28v-60h-40q-53 0 -82.5 25.5t-29.5 66.5zM264 432h-4l-89 -234h179z" />
    <glyph glyph-name="aeacute.sc" unicode="&#xf670;" horiz-adv-x="880" 
d="M0 0l404 520h408v-76h-292v-142h236v-74h-236v-152h300v-76h-388v128h-235l-97 -128h-100zM428 432l-177 -232h181v232h-4zM448 600l104 164h104l-144 -164h-64z" />
    <glyph glyph-name="cacute.sc" unicode="&#xf671;" horiz-adv-x="584" 
d="M44 260q0 119 73.5 195.5t190.5 76.5q96 0 159.5 -49.5t80.5 -130.5h-88q-29 100 -148 100q-80 0 -128 -53.5t-48 -138.5q0 -81 47.5 -136.5t128.5 -55.5q116 0 148 100h88q-17 -82 -80.5 -131t-159.5 -49q-118 0 -191 78.5t-73 193.5zM276 600l104 164h104l-144 -164
h-64z" />
    <glyph glyph-name="ccaron.sc" unicode="&#xf672;" horiz-adv-x="584" 
d="M44 260q0 119 73.5 195.5t190.5 76.5q96 0 159.5 -49.5t80.5 -130.5h-88q-29 100 -148 100q-80 0 -128 -53.5t-48 -138.5q0 -81 47.5 -136.5t128.5 -55.5q116 0 148 100h88q-17 -82 -80.5 -131t-159.5 -49q-118 0 -191 78.5t-73 193.5zM268 600l-128 164h84l84 -112
l84 112h84l-128 -164h-80z" />
    <glyph glyph-name="ccircumflex.sc" unicode="&#xf673;" horiz-adv-x="584" 
d="M44 260q0 119 73.5 195.5t190.5 76.5q96 0 159.5 -49.5t80.5 -130.5h-88q-29 100 -148 100q-80 0 -128 -53.5t-48 -138.5q0 -81 47.5 -136.5t128.5 -55.5q116 0 148 100h88q-17 -82 -80.5 -131t-159.5 -49q-118 0 -191 78.5t-73 193.5zM140 600l128 164h80l128 -164h-84
l-84 112l-84 -112h-84z" />
    <glyph glyph-name="cdotaccent.sc" unicode="&#xf674;" horiz-adv-x="584" 
d="M44 260q0 119 73.5 195.5t190.5 76.5q96 0 159.5 -49.5t80.5 -130.5h-88q-29 100 -148 100q-80 0 -128 -53.5t-48 -138.5q0 -81 47.5 -136.5t128.5 -55.5q116 0 148 100h88q-17 -82 -80.5 -131t-159.5 -49q-118 0 -191 78.5t-73 193.5zM264 636v92h88v-92h-88z" />
    <glyph glyph-name="dcaron.sc" unicode="&#xf675;" horiz-adv-x="600" 
d="M88 0v520h192q129 0 202.5 -71.5t73.5 -188.5q0 -116 -73 -188t-203 -72h-192zM280 444h-104v-368h104q94 0 139 52.5t45 131.5t-45 131.5t-139 52.5zM244 600l-128 164h84l84 -112l84 112h84l-128 -164h-80z" />
    <glyph glyph-name="dcroat.sc" unicode="&#xf676;" horiz-adv-x="600" 
d="M4 228v64h84v228h192q129 0 202.5 -71.5t73.5 -188.5q0 -116 -73 -188t-203 -72h-192v228h-84zM280 444h-104v-152h108v-64h-108v-152h104q94 0 139 52.5t45 131.5t-45 131.5t-139 52.5z" />
    <glyph glyph-name="ebreve.sc" unicode="&#xf677;" horiz-adv-x="532" 
d="M88 0v520h380v-76h-292v-142h236v-74h-236v-152h300v-76h-388zM276 612q-54 0 -95 33.5t-49 106.5h56q13 -84 88 -84t88 84h56q-8 -73 -49 -106.5t-95 -33.5z" />
    <glyph glyph-name="ecaron.sc" unicode="&#xf678;" horiz-adv-x="532" 
d="M88 0v520h380v-76h-292v-142h236v-74h-236v-152h300v-76h-388zM236 600l-128 164h84l84 -112l84 112h84l-128 -164h-80z" />
    <glyph glyph-name="edotaccent.sc" unicode="&#xf679;" horiz-adv-x="532" 
d="M88 0v520h380v-76h-292v-142h236v-74h-236v-152h300v-76h-388zM232 636v92h88v-92h-88z" />
    <glyph glyph-name="emacron.sc" unicode="&#xf67a;" horiz-adv-x="532" 
d="M88 0v520h380v-76h-292v-142h236v-74h-236v-152h300v-76h-388zM136 648v68h276v-68h-276z" />
    <glyph glyph-name="eng.sc" unicode="&#xf67b;" horiz-adv-x="628" 
d="M88 0v520h80l284 -372h3l-3 372h88v-552q0 -105 -43 -146.5t-133 -41.5h-48v80h44q48 0 70 26t22 86v43l-276 357h-4l4 -372h-88z" />
    <glyph glyph-name="eogonek.sc" unicode="&#xf67c;" horiz-adv-x="532" 
d="M88 0v520h380v-76h-292v-142h236v-74h-236v-152h300v-76q-60 -63 -60 -112q0 -48 56 -48h28v-60h-40q-53 0 -82.5 25.5t-29.5 66.5q0 63 80 128h-340z" />
    <glyph glyph-name="gbreve.sc" unicode="&#xf67d;" horiz-adv-x="640" 
d="M324 204v72h240v-276h-56l-12 68h-3q-57 -80 -177 -80q-117 0 -192.5 79t-75.5 193q0 119 76.5 195.5t199.5 76.5q95 0 159.5 -47.5t80.5 -120.5h-92q-12 38 -50.5 63t-97.5 25q-84 0 -134 -53.5t-50 -138.5q0 -82 49 -137t131 -55q70 0 117 34.5t47 98.5v3h-160z
M324 612q-54 0 -95 33.5t-49 106.5h56q13 -84 88 -84t88 84h56q-8 -73 -49 -106.5t-95 -33.5z" />
    <glyph glyph-name="gcircumflex.sc" unicode="&#xf67e;" horiz-adv-x="640" 
d="M324 204v72h240v-276h-56l-12 68h-3q-57 -80 -177 -80q-117 0 -192.5 79t-75.5 193q0 119 76.5 195.5t199.5 76.5q95 0 159.5 -47.5t80.5 -120.5h-92q-12 38 -50.5 63t-97.5 25q-84 0 -134 -53.5t-50 -138.5q0 -82 49 -137t131 -55q70 0 117 34.5t47 98.5v3h-160z
M156 600l128 164h80l128 -164h-84l-84 112l-84 -112h-84z" />
    <glyph glyph-name="gcommaaccent.sc" unicode="&#xf67f;" horiz-adv-x="640" 
d="M324 204v72h240v-276h-56l-12 68h-3q-57 -80 -177 -80q-117 0 -192.5 79t-75.5 193q0 119 76.5 195.5t199.5 76.5q95 0 159.5 -47.5t80.5 -120.5h-92q-12 38 -50.5 63t-97.5 25q-84 0 -134 -53.5t-50 -138.5q0 -82 49 -137t131 -55q70 0 117 34.5t47 98.5v3h-160z
M272 -68h88v-78l-37 -102h-40l26 92h-37v88z" />
    <glyph glyph-name="gdotaccent.sc" unicode="&#xf680;" horiz-adv-x="640" 
d="M324 204v72h240v-276h-56l-12 68h-3q-57 -80 -177 -80q-117 0 -192.5 79t-75.5 193q0 119 76.5 195.5t199.5 76.5q95 0 159.5 -47.5t80.5 -120.5h-92q-12 38 -50.5 63t-97.5 25q-84 0 -134 -53.5t-50 -138.5q0 -82 49 -137t131 -55q70 0 117 34.5t47 98.5v3h-160z
M280 636v92h88v-92h-88z" />
    <glyph glyph-name="hbar.sc" unicode="&#xf681;" horiz-adv-x="628" 
d="M12 380v64h76v76h88v-76h276v76h88v-76h76v-64h-76v-380h-88v224h-276v-224h-88v380h-76zM176 380v-80h276v80h-276z" />
    <glyph glyph-name="hcircumflex.sc" unicode="&#xf682;" horiz-adv-x="628" 
d="M88 0v520h88v-220h276v220h88v-520h-88v224h-276v-224h-88zM146 600l128 164h80l128 -164h-84l-84 112l-84 -112h-84z" />
    <glyph glyph-name="ibreve.sc" unicode="&#xf683;" horiz-adv-x="264" 
d="M88 0v520h88v-520h-88zM130 612q-54 0 -95 33.5t-49 106.5h56q13 -84 88 -84t88 84h56q-8 -73 -49 -106.5t-95 -33.5z" />
    <glyph glyph-name="ij.sc" unicode="&#xf684;" horiz-adv-x="712" 
d="M88 0v520h88v-520h-88zM308 152v24h84v-20q0 -46 21.5 -69t58.5 -23q36 0 58 24t22 72v360h88v-360q0 -87 -45.5 -129.5t-122.5 -42.5q-76 0 -120 40t-44 124z" />
    <glyph glyph-name="imacron.sc" unicode="&#xf685;" horiz-adv-x="264" 
d="M88 0v520h88v-520h-88zM-10 648v68h276v-68h-276z" />
    <glyph glyph-name="iogonek.sc" unicode="&#xf686;" horiz-adv-x="264" 
d="M88 0v520h88v-520q-60 -63 -60 -112q0 -48 56 -48h28v-60h-40q-53 0 -82.5 25.5t-29.5 66.5q0 63 80 128h-40z" />
    <glyph glyph-name="itilde.sc" unicode="&#xf687;" horiz-adv-x="264" 
d="M88 0v520h88v-520h-88zM-34 628q2 47 27 77.5t69 30.5q32 0 79 -24t61 -24q36 0 44 48h48q-2 -47 -27 -77.5t-69 -30.5q-32 0 -79 24t-61 24q-36 0 -44 -48h-48z" />
    <glyph glyph-name="jcircumflex.sc" unicode="&#xf688;" horiz-adv-x="444" 
d="M40 152v24h84v-24q0 -88 80 -88t80 92v364h88v-360q0 -87 -45.5 -129.5t-122.5 -42.5q-76 0 -120 40t-44 124zM164 600l128 164h80l128 -164h-84l-84 112l-84 -112h-84z" />
    <glyph glyph-name="kcommaaccent.sc" unicode="&#xf689;" horiz-adv-x="560" 
d="M88 0v520h88v-273l256 273h104l-219 -229l231 -291h-104l-186 231l-82 -86v-145h-88zM256 -68h88v-78l-37 -102h-40l26 92h-37v88z" />
    <glyph glyph-name="lacute.sc" unicode="&#xf68a;" horiz-adv-x="464" 
d="M88 0v520h88v-440h268v-80h-356zM96 600l104 164h104l-144 -164h-64z" />
    <glyph glyph-name="lcaron.sc" unicode="&#xf68b;" horiz-adv-x="464" 
d="M88 0v520h88v-444h268v-76h-356zM303 340l26 92h-37v88h88v-78l-37 -102h-40z" />
    <glyph glyph-name="lcommaaccent.sc" unicode="&#xf68c;" horiz-adv-x="464" 
d="M88 0v520h88v-440h268v-80h-356zM220 -68h88v-78l-37 -102h-40l26 92h-37v88z" />
    <glyph glyph-name="ldot.sc" unicode="&#xf68d;" horiz-adv-x="464" 
d="M88 0v520h88v-444h268v-76h-356zM268 220v92h88v-92h-88z" />
    <glyph glyph-name="nacute.sc" unicode="&#xf68e;" horiz-adv-x="628" 
d="M88 0v520h80l284 -376h3l-3 376h88v-520h-80l-284 376h-4l4 -376h-88zM282 600l104 164h104l-144 -164h-64z" />
    <glyph glyph-name="ncaron.sc" unicode="&#xf68f;" horiz-adv-x="628" 
d="M88 0v520h80l284 -376h3l-3 376h88v-520h-80l-284 376h-4l4 -376h-88zM274 600l-128 164h84l84 -112l84 112h84l-128 -164h-80z" />
    <glyph glyph-name="ncommaaccent.sc" unicode="&#xf690;" horiz-adv-x="628" 
d="M88 0v520h80l284 -376h3l-3 376h88v-520h-80l-284 376h-4l4 -376h-88zM270 -68h88v-78l-37 -102h-40l26 92h-37v88z" />
    <glyph glyph-name="obreve.sc" unicode="&#xf691;" horiz-adv-x="632" 
d="M44 260q0 117 77.5 194.5t194.5 77.5t194.5 -77.5t77.5 -194.5t-77.5 -194.5t-194.5 -77.5t-194.5 77.5t-77.5 194.5zM136 260q0 -84 49.5 -138t130.5 -54t130.5 54t49.5 138t-49.5 138t-130.5 54t-130.5 -54t-49.5 -138zM316 612q-54 0 -95 33.5t-49 106.5h56
q13 -84 88 -84t88 84h56q-8 -73 -49 -106.5t-95 -33.5z" />
    <glyph glyph-name="ohungarumlaut.sc" unicode="&#xf692;" horiz-adv-x="632" 
d="M44 260q0 117 77.5 194.5t194.5 77.5t194.5 -77.5t77.5 -194.5t-77.5 -194.5t-194.5 -77.5t-194.5 77.5t-77.5 194.5zM136 260q0 -84 49.5 -138t130.5 -54t130.5 54t49.5 138t-49.5 138t-130.5 54t-130.5 -54t-49.5 -138zM372 600l104 164h104l-144 -164h-64zM192 600
l104 164h104l-144 -164h-64z" />
    <glyph glyph-name="omacron.sc" unicode="&#xf693;" horiz-adv-x="632" 
d="M44 260q0 117 77.5 194.5t194.5 77.5t194.5 -77.5t77.5 -194.5t-77.5 -194.5t-194.5 -77.5t-194.5 77.5t-77.5 194.5zM136 260q0 -84 49.5 -138t130.5 -54t130.5 54t49.5 138t-49.5 138t-130.5 54t-130.5 -54t-49.5 -138zM176 648v68h276v-68h-276z" />
    <glyph glyph-name="oslashacute.sc" unicode="&#xf694;" horiz-adv-x="632" 
d="M60 -12l62 76q-78 78 -78 196q0 117 77.5 194.5t194.5 77.5q84 0 152 -44l36 44h72l-65 -79q77 -77 77 -193q0 -117 -77.5 -194.5t-194.5 -77.5q-85 0 -150 42l-34 -42h-72zM136 260q0 -77 41 -129l239 293q-44 28 -100 28q-81 0 -130.5 -54t-49.5 -138zM496 260
q0 75 -40 126l-238 -292q41 -26 98 -26q81 0 130.5 54t49.5 138zM284 600l104 164h104l-144 -164h-64z" />
    <glyph glyph-name="racute.sc" unicode="&#xf695;" 
d="M88 0v520h232q89 0 136.5 -42.5t47.5 -117.5q0 -60 -30.5 -101t-87.5 -56l142 -203h-100l-132 196h-120v-196h-88zM320 444h-144v-172h144q48 0 72 23.5t24 64.5q0 39 -25 61.5t-71 22.5zM240 600l104 164h104l-144 -164h-64z" />
    <glyph glyph-name="rcaron.sc" unicode="&#xf696;" 
d="M88 0v520h232q89 0 136.5 -42.5t47.5 -117.5q0 -60 -30.5 -101t-87.5 -56l142 -203h-100l-132 196h-120v-196h-88zM320 444h-144v-172h144q48 0 72 23.5t24 64.5q0 39 -25 61.5t-71 22.5zM232 600l-128 164h84l84 -112l84 112h84l-128 -164h-80z" />
    <glyph glyph-name="rcommaaccent.sc" unicode="&#xf697;" 
d="M88 0v520h232q89 0 136.5 -42.5t47.5 -117.5q0 -60 -30.5 -101t-87.5 -56l142 -203h-100l-132 196h-120v-196h-88zM320 444h-144v-172h144q48 0 72 23.5t24 64.5q0 39 -25 61.5t-71 22.5zM240 -68h88v-78l-37 -102h-40l26 92h-37v88z" />
    <glyph glyph-name="sacute.sc" unicode="&#xf698;" horiz-adv-x="528" 
d="M44 148h88q0 -42 34 -65t94 -23q128 0 128 84q0 34 -34.5 51t-83.5 24t-98 18t-83.5 44t-34.5 91q0 72 57.5 116t152.5 44q93 0 146.5 -42t53.5 -114h-84q0 39 -32 61.5t-84 22.5q-120 0 -120 -80q0 -30 25 -48t62 -23.5t81 -14.5t81 -20.5t62 -42.5t25 -79
q0 -76 -58 -120t-162 -44q-101 0 -158.5 43t-57.5 117zM232 600l104 164h104l-144 -164h-64z" />
    <glyph glyph-name="scedilla.sc" unicode="&#xf699;" horiz-adv-x="528" 
d="M216 -84l24 73q-93 4 -144.5 46.5t-51.5 112.5h88q0 -42 34 -65t94 -23q128 0 128 84q0 34 -34.5 51t-83.5 24t-98 18t-83.5 44t-34.5 91q0 72 57.5 116t152.5 44q93 0 146.5 -42t53.5 -114h-84q0 39 -32 61.5t-84 22.5q-120 0 -120 -80q0 -30 25 -48t62 -23.5t81 -14.5
t81 -20.5t62 -42.5t25 -79q0 -73 -53.5 -116.5t-150.5 -46.5v-25q44 -3 68 -27.5t24 -60.5q0 -43 -30 -69.5t-86 -26.5h-56v56h52q52 0 52 40t-52 40h-32z" />
    <glyph glyph-name="scircumflex.sc" unicode="&#xf69a;" horiz-adv-x="528" 
d="M44 148h88q0 -42 34 -65t94 -23q128 0 128 84q0 34 -34.5 51t-83.5 24t-98 18t-83.5 44t-34.5 91q0 72 57.5 116t152.5 44q93 0 146.5 -42t53.5 -114h-84q0 39 -32 61.5t-84 22.5q-120 0 -120 -80q0 -30 25 -48t62 -23.5t81 -14.5t81 -20.5t62 -42.5t25 -79
q0 -76 -58 -120t-162 -44q-101 0 -158.5 43t-57.5 117zM96 600l128 164h80l128 -164h-84l-84 112l-84 -112h-84z" />
    <glyph glyph-name="scommaaccent.sc" unicode="&#xf69b;" horiz-adv-x="528" 
d="M44 148h88q0 -42 34 -65t94 -23q128 0 128 84q0 34 -34.5 51t-83.5 24t-98 18t-83.5 44t-34.5 91q0 72 57.5 116t152.5 44q93 0 146.5 -42t53.5 -114h-84q0 39 -32 61.5t-84 22.5q-120 0 -120 -80q0 -30 25 -48t62 -23.5t81 -14.5t81 -20.5t62 -42.5t25 -79
q0 -76 -58 -120t-162 -44q-101 0 -158.5 43t-57.5 117zM216 -68h88v-78l-37 -102h-40l26 92h-37v88z" />
    <glyph glyph-name="tbar.sc" unicode="&#xf69c;" horiz-adv-x="512" 
d="M20 444v76h472v-76h-192v-176h152v-64h-152v-204h-88v204h-144v64h144v176h-192z" />
    <glyph glyph-name="tcaron.sc" unicode="&#xf69d;" horiz-adv-x="512" 
d="M20 444v76h472v-76h-192v-444h-88v444h-192zM214 600l-128 164h84l84 -112l84 112h84l-128 -164h-80z" />
    <glyph glyph-name="tcommaaccent.sc" unicode="&#xf69e;" horiz-adv-x="512" 
d="M216 -84l28 84h-32v444h-192v76h472v-76h-192v-444h-24v-36q44 -3 68 -27.5t24 -60.5q0 -43 -30 -69.5t-86 -26.5h-56v56h52q52 0 52 40t-52 40h-32z" />
    <glyph glyph-name="ubreve.sc" unicode="&#xf69f;" horiz-adv-x="596" 
d="M72 208v312h88v-312q0 -67 34 -103.5t102 -36.5q69 0 104.5 36.5t35.5 103.5v312h88v-312q0 -114 -61.5 -167t-166.5 -53q-103 0 -163.5 53t-60.5 167zM298 612q-54 0 -95 33.5t-49 106.5h56q13 -84 88 -84t88 84h56q-8 -73 -49 -106.5t-95 -33.5z" />
    <glyph glyph-name="uhungarumlaut.sc" unicode="&#xf6a0;" horiz-adv-x="596" 
d="M72 208v312h88v-312q0 -67 34 -103.5t102 -36.5q69 0 104.5 36.5t35.5 103.5v312h88v-312q0 -114 -61.5 -167t-166.5 -53q-103 0 -163.5 53t-60.5 167zM354 600l104 164h104l-144 -164h-64zM174 600l104 164h104l-144 -164h-64z" />
    <glyph glyph-name="umacron.sc" unicode="&#xf6a1;" horiz-adv-x="596" 
d="M72 208v312h88v-312q0 -67 34 -103.5t102 -36.5q69 0 104.5 36.5t35.5 103.5v312h88v-312q0 -114 -61.5 -167t-166.5 -53q-103 0 -163.5 53t-60.5 167zM158 648v68h276v-68h-276z" />
    <glyph glyph-name="uogonek.sc" unicode="&#xf6a2;" horiz-adv-x="596" 
d="M251 -124q0 62 75 113q-5 0 -15 -0.5t-15 -0.5q-224 0 -224 220v312h88v-312q0 -67 34 -103.5t102 -36.5q69 0 104.5 36.5t35.5 103.5v312h88v-312q0 -136 -100 -194q-44 -25 -72.5 -57.5t-28.5 -64.5q0 -52 56 -52h28v-60h-40q-116 0 -116 96z" />
    <glyph glyph-name="uring.sc" unicode="&#xf6a3;" horiz-adv-x="596" 
d="M72 208v312h88v-312q0 -67 34 -103.5t102 -36.5q69 0 104.5 36.5t35.5 103.5v312h88v-312q0 -114 -61.5 -167t-166.5 -53q-103 0 -163.5 53t-60.5 167zM298 596q-41 0 -70.5 27t-29.5 69t29.5 69t70.5 27t70.5 -27t29.5 -69t-29.5 -69t-70.5 -27zM298 640q22 0 37 15
t15 37t-15 37t-37 15t-37 -15t-15 -37t15 -37t37 -15z" />
    <glyph glyph-name="utilde.sc" unicode="&#xf6a4;" horiz-adv-x="596" 
d="M72 208v312h88v-312q0 -67 34 -103.5t102 -36.5q69 0 104.5 36.5t35.5 103.5v312h88v-312q0 -114 -61.5 -167t-166.5 -53q-103 0 -163.5 53t-60.5 167zM134 628q2 47 27 77.5t69 30.5q32 0 79 -24t61 -24q36 0 44 48h48q-2 -47 -27 -77.5t-69 -30.5q-32 0 -79 24t-61 24
q-36 0 -44 -48h-48z" />
    <glyph glyph-name="wacute.sc" unicode="&#xf6a5;" horiz-adv-x="772" 
d="M156 0l-140 520h92l106 -424h4l126 424h92l125 -424h4l103 424h88l-136 -520h-112l-119 408h-2l-119 -408h-112zM356 600l104 164h104l-144 -164h-64z" />
    <glyph glyph-name="wcircumflex.sc" unicode="&#xf6a6;" horiz-adv-x="772" 
d="M156 0l-140 520h92l106 -424h4l126 424h92l125 -424h4l103 424h88l-136 -520h-112l-119 408h-2l-119 -408h-112zM220 600l128 164h80l128 -164h-84l-84 112l-84 -112h-84z" />
    <glyph glyph-name="wdieresis.sc" unicode="&#xf6a7;" horiz-adv-x="772" 
d="M156 0l-140 520h92l106 -424h4l126 424h92l125 -424h4l103 424h88l-136 -520h-112l-119 408h-2l-119 -408h-112zM444 636v92h88v-92h-88zM244 636v92h88v-92h-88z" />
    <glyph glyph-name="wgrave.sc" unicode="&#xf6a8;" horiz-adv-x="772" 
d="M156 0l-140 520h92l106 -424h4l126 424h92l125 -424h4l103 424h88l-136 -520h-112l-119 408h-2l-119 -408h-112zM356 600l-144 164h104l104 -164h-64z" />
    <glyph glyph-name="ycircumflex.sc" unicode="&#xf6a9;" horiz-adv-x="504" 
d="M206 0v202l-202 318h104l145 -234h2l149 234h96l-206 -315v-205h-88zM84 600l128 164h80l128 -164h-84l-84 112l-84 -112h-84z" />
    <glyph glyph-name="ygrave.sc" unicode="&#xf6aa;" horiz-adv-x="504" 
d="M206 0v202l-202 318h104l145 -234h2l149 234h96l-206 -315v-205h-88zM220 600l-144 164h104l104 -164h-64z" />
    <glyph glyph-name="zacute.sc" unicode="&#xf6ab;" horiz-adv-x="508" 
d="M52 444v76h408v-56l-303 -388h299v-76h-416v56l302 388h-290zM222 600l104 164h104l-144 -164h-64z" />
    <glyph glyph-name="zdotaccent.sc" unicode="&#xf6ac;" horiz-adv-x="508" 
d="M52 444v76h408v-56l-303 -388h299v-76h-416v56l302 388h-290zM210 636v92h88v-92h-88z" />
    <glyph glyph-name="idotaccent.sc" unicode="&#xf6ad;" horiz-adv-x="264" 
d="M88 0v520h88v-520h-88zM86 636v92h88v-92h-88z" />
    <glyph glyph-name="parenleft.cap" unicode="&#xf6ae;" horiz-adv-x="324" 
d="M228 -56q-140 183 -140 400t140 400h80q-136 -194 -136 -400t136 -400h-80z" />
    <glyph glyph-name="parenright.cap" unicode="&#xf6af;" horiz-adv-x="324" 
d="M16 -56q136 194 136 400t-136 400h80q140 -183 140 -400t-140 -400h-80z" />
    <glyph glyph-name="bracketleft.cap" unicode="&#xf6b0;" horiz-adv-x="332" 
d="M88 -56v800h228v-72h-148v-656h148v-72h-228z" />
    <glyph glyph-name="bracketright.cap" unicode="&#xf6b1;" horiz-adv-x="332" 
d="M16 16h148v656h-148v72h228v-800h-228v72z" />
    <glyph glyph-name="braceleft.cap" unicode="&#xf6b2;" horiz-adv-x="356" 
d="M132 96v88q0 76 -22.5 104t-89.5 28v60q67 0 89.5 28t22.5 104v84q0 76 35 114t121 38h52v-68h-48q-45 0 -62.5 -18.5t-17.5 -61.5v-112q0 -56 -23 -88.5t-77 -47.5v-4q54 -15 77 -47.5t23 -88.5v-116q0 -43 17.5 -61.5t62.5 -18.5h48v-68h-52q-86 0 -121 38t-35 114z
" />
    <glyph glyph-name="braceright.cap" unicode="&#xf6b3;" horiz-adv-x="356" 
d="M16 12h48q45 0 62.5 18.5t17.5 61.5v116q0 56 23 88.5t77 47.5v4q-54 15 -77 47.5t-23 88.5v112q0 43 -17.5 61.5t-62.5 18.5h-48v68h52q86 0 121 -38t35 -114v-84q0 -76 22.5 -104t89.5 -28v-60q-67 0 -89.5 -28t-22.5 -104v-88q0 -76 -35 -114t-121 -38h-52v68z" />
    <glyph glyph-name="exclamdown.cap" unicode="&#xf6b4;" horiz-adv-x="280" 
d="M88 580v108h104v-108h-104zM88 0v192l28 304h48l28 -304v-192h-104z" />
    <glyph glyph-name="questiondown.cap" unicode="&#xf6b5;" horiz-adv-x="504" 
d="M208 580v108h104v-108h-104zM40 168q0 38 13 69t32.5 49t42.5 37l42.5 35t32.5 40t13 54v40h88v-28q0 -52 -17.5 -90t-43 -60t-51 -40.5t-43 -43.5t-17.5 -58q0 -46 32 -77t84 -31q65 0 98.5 40.5t33.5 103.5h88q0 -92 -56.5 -156t-163.5 -64q-92 0 -150 49t-58 131z" />
    <glyph glyph-name="guillemotleft.cap" unicode="&#xf6b6;" horiz-adv-x="512" 
d="M388 144l-144 204l144 204h72l-116 -204l116 -204h-72zM196 144l-144 204l144 204h72l-116 -204l116 -204h-72z" />
    <glyph glyph-name="guillemotright.cap" unicode="&#xf6b7;" horiz-adv-x="512" 
d="M244 144l116 204l-116 204h72l144 -204l-144 -204h-72zM52 144l116 204l-116 204h72l144 -204l-144 -204h-72z" />
    <glyph glyph-name="guilsinglleft.cap" unicode="&#xf6b8;" horiz-adv-x="320" 
d="M196 144l-144 204l144 204h72l-116 -204l116 -204h-72z" />
    <glyph glyph-name="guilsinglright.cap" unicode="&#xf6b9;" horiz-adv-x="320" 
d="M52 144l116 204l-116 204h72l144 -204l-144 -204h-72z" />
    <glyph glyph-name="hyphen.cap" unicode="&#xf6ba;" horiz-adv-x="396" 
d="M60 308v80h276v-80h-276z" />
    <glyph glyph-name="endash.cap" unicode="&#xf6bb;" horiz-adv-x="556" 
d="M60 308v80h436v-80h-436z" />
    <glyph glyph-name="emdash.cap" unicode="&#xf6bc;" horiz-adv-x="840" 
d="M60 308v80h720v-80h-720z" />
    <glyph glyph-name="periodcentered.cap" unicode="&#xf6bd;" horiz-adv-x="264" 
d="M76 292v112h112v-112h-112z" />
    <glyph glyph-name="dotlessj" unicode="&#xf6be;" horiz-adv-x="240" 
d="M76 -72v560h88v-576q0 -132 -136 -132h-32v76h24q31 0 43.5 17.5t12.5 54.5z" />
    <glyph glyph-name="space_uni0326" unicode="&#xf6c3;" horiz-adv-x="560" 
d="M236 -68h88v-78l-37 -102h-40l26 92h-37v88z" />
    <glyph glyph-name="cent.inferior" unicode="&#xf6df;" horiz-adv-x="352" 
d="M36 20q0 52 30 87t86 43v50h64v-51q45 -7 71 -33.5t29 -59.5h-76q-10 38 -56 38q-32 0 -50 -20t-18 -54t18 -54t50 -20q46 0 56 38h76q-3 -34 -29 -60t-71 -34v-50h-64v50q-56 8 -86 43t-30 87z" />
    <glyph glyph-name="cent.superior" unicode="&#xf6e0;" horiz-adv-x="352" 
d="M36 668q0 52 30 87t86 43v50h64v-51q45 -7 71 -33.5t29 -59.5h-76q-10 38 -56 38q-32 0 -50 -20t-18 -54t18 -54t50 -20q46 0 56 38h76q-3 -34 -29 -60t-71 -34v-50h-64v50q-56 8 -86 43t-30 87z" />
    <glyph glyph-name="comma.inferior" unicode="&#xf6e1;" horiz-adv-x="184" 
d="M48 -152v92h88v-88l-28 -116h-44l22 112h-38z" />
    <glyph glyph-name="comma.superior" unicode="&#xf6e2;" horiz-adv-x="184" 
d="M48 496v92h88v-88l-28 -116h-44l22 112h-38z" />
    <glyph glyph-name="dollar.inferior" unicode="&#xf6e3;" horiz-adv-x="352" 
d="M28 -52h72q2 -23 23 -37.5t53 -14.5q29 0 48.5 11t19.5 33q0 20 -21.5 31t-52 16.5t-61 14t-52 31t-21.5 59.5q0 42 29 70t79 35v55h64v-55q45 -7 73 -31.5t31 -61.5h-76q-4 19 -20.5 29.5t-39.5 10.5q-64 0 -64 -40q0 -21 21.5 -32t52 -17.5t61 -15t52 -31.5t21.5 -60
q0 -45 -29.5 -72.5t-82.5 -33.5v-62h-64v62q-54 7 -84.5 35t-31.5 71z" />
    <glyph glyph-name="dollar.superior" unicode="&#xf6e4;" horiz-adv-x="352" 
d="M28 596h72q2 -23 23 -37.5t53 -14.5q29 0 48.5 11t19.5 33q0 20 -21.5 31t-52 16.5t-61 14t-52 31t-21.5 59.5q0 42 29 70t79 35v55h64v-55q45 -7 73 -31.5t31 -61.5h-76q-4 19 -20.5 29.5t-39.5 10.5q-64 0 -64 -40q0 -21 21.5 -32t52 -17.5t61 -15t52 -31.5t21.5 -60
q0 -45 -29.5 -72.5t-82.5 -33.5v-62h-64v62q-54 7 -84.5 35t-31.5 71z" />
    <glyph glyph-name="hyphen.inferior" unicode="&#xf6e5;" horiz-adv-x="276" 
d="M36 -12v68h204v-68h-204z" />
    <glyph glyph-name="hyphen.superior" unicode="&#xf6e6;" horiz-adv-x="276" 
d="M36 636v68h204v-68h-204z" />
    <glyph glyph-name="period.inferior" unicode="&#xf6e7;" horiz-adv-x="184" 
d="M48 -152v92h88v-92h-88z" />
    <glyph glyph-name="period.superior" unicode="&#xf6e8;" horiz-adv-x="184" 
d="M48 496v92h88v-92h-88z" />
    <glyph glyph-name="a.superior" unicode="&#xf6e9;" horiz-adv-x="388" 
d="M36 586q0 89 115 105l65 8q28 4 36 9.5t8 19.5q0 27 -16 44t-48 17q-65 0 -69 -59h-75q4 60 44 89t100 29q69 0 106.5 -31t37.5 -92v-229h-77v41h-3q-29 -49 -109 -49q-54 0 -84.5 27t-30.5 71zM260 635v30q-9 -13 -34 -16l-56 -7q-54 -7 -54 -50q0 -23 15 -35.5
t42 -12.5q38 0 62.5 23.5t24.5 67.5z" />
    <glyph glyph-name="b.superior" unicode="&#xf6ea;" horiz-adv-x="429" 
d="M52 496v516h80v-110q0 -67 -4 -116h3q30 63 117 63q64 0 106.5 -47.5t42.5 -130.5t-45.5 -133t-110.5 -50q-80 0 -110 62h-3v-54h-76zM132 668q0 -53 26 -84.5t66 -31.5q39 0 64.5 33t25.5 86t-25 83t-65 30t-65.5 -30t-26.5 -81v-5z" />
    <glyph glyph-name="d.superior" unicode="&#xf6eb;" horiz-adv-x="428" 
d="M32 665q0 83 46 133.5t110 50.5q80 0 110 -63h3q-4 49 -4 111v115h80v-516h-76v54h-3q-30 -62 -116 -62q-64 0 -107 47t-43 130zM115 665q0 -53 25 -83t66 -30q38 0 64 29.5t27 80.5v6q0 53 -25.5 84.5t-65.5 31.5t-65.5 -32.5t-25.5 -86.5z" />
    <glyph glyph-name="e.superior" unicode="&#xf6ec;" horiz-adv-x="398" 
d="M32 668q0 80 48 130t124 50q74 0 118 -45t44 -124v-24h-252q3 -51 27.5 -77t65.5 -26q64 0 77 48h74q-8 -49 -48.5 -80t-103.5 -31q-80 0 -127 47t-47 132zM204 785q-71 0 -86 -77h164q-9 77 -78 77z" />
    <glyph glyph-name="i.superior" unicode="&#xf6ed;" horiz-adv-x="176" 
d="M45 931v81h86v-81h-86zM48 496v344h80v-344h-80z" />
    <glyph glyph-name="l.superior" unicode="&#xf6ee;" horiz-adv-x="184" 
d="M52 496v516h80v-516h-80z" />
    <glyph glyph-name="m.superior" unicode="&#xf6ef;" horiz-adv-x="625" 
d="M52 496v344h76v-52h3q28 61 105 61q80 0 107 -70q31 70 116 70q51 0 84.5 -31t33.5 -99v-223h-80v205q0 44 -16 63t-48 19q-34 0 -56.5 -27.5t-22.5 -77.5v-182h-79v203q0 84 -65 84q-33 0 -55.5 -27.5t-22.5 -76.5v-183h-80z" />
    <glyph glyph-name="o.superior" unicode="&#xf6f0;" horiz-adv-x="417" 
d="M32 668q0 82 48.5 131.5t127.5 49.5q81 0 129 -49t48 -132q0 -82 -49 -131t-128 -49q-81 0 -128.5 48.5t-47.5 131.5zM115 668q0 -52 25.5 -84t67.5 -32q43 0 68.5 32t25.5 84q0 53 -25.5 84.5t-68.5 31.5q-42 0 -67.5 -32t-25.5 -84z" />
    <glyph glyph-name="r.superior" unicode="&#xf6f1;" horiz-adv-x="273" 
d="M52 496v344h76v-65h3q29 74 90 74q27 0 48 -15l-19 -72q-21 11 -42 11q-37 0 -56.5 -33t-19.5 -84v-160h-80z" />
    <glyph glyph-name="s.superior" unicode="&#xf6f2;" horiz-adv-x="371" 
d="M32 601h76q6 -57 79 -57q33 0 52.5 11.5t19.5 32.5q0 19 -13.5 28t-42.5 15l-68 14q-95 19 -95 98q0 50 41 78t106 28q63 0 102.5 -27t43.5 -80h-76q-4 50 -68 50q-70 0 -70 -41q0 -18 12.5 -27t42.5 -15l68 -14q44 -9 70.5 -30.5t26.5 -66.5q0 -53 -42 -81.5t-111 -28.5
q-146 0 -154 113z" />
    <glyph glyph-name="t.superior" unicode="&#xf6f3;" horiz-adv-x="249" 
d="M70 610v166h-62v64h62v104h80v-104h83v-64h-83v-161q0 -27 9.5 -39t34.5 -12h39v-68h-48q-63 0 -89 26.5t-26 87.5z" />
    <glyph glyph-name="lslash.sc" unicode="&#xf6f9;" horiz-adv-x="464" 
d="M36 112l-40 52l92 66v290h88v-226l108 78l40 -52l-148 -107v-137h268v-76h-356v149z" />
    <glyph glyph-name="oe.sc" unicode="&#xf6fa;" horiz-adv-x="872" 
d="M320 0q-129 0 -202.5 71.5t-73.5 188.5q0 116 73 188t203 72h484v-76h-292v-142h236v-74h-236v-152h300v-76h-492zM136 260q0 -79 45 -131.5t139 -52.5h104v368h-104q-94 0 -139 -52.5t-45 -131.5z" />
    <glyph glyph-name="scaron.sc" unicode="&#xf6fd;" horiz-adv-x="528" 
d="M44 148h88q0 -42 34 -65t94 -23q128 0 128 84q0 34 -34.5 51t-83.5 24t-98 18t-83.5 44t-34.5 91q0 72 57.5 116t152.5 44q93 0 146.5 -42t53.5 -114h-84q0 39 -32 61.5t-84 22.5q-120 0 -120 -80q0 -30 25 -48t62 -23.5t81 -14.5t81 -20.5t62 -42.5t25 -79
q0 -76 -58 -120t-162 -44q-101 0 -158.5 43t-57.5 117zM224 600l-128 164h84l84 -112l84 112h84l-128 -164h-80z" />
    <glyph glyph-name="zcaron.sc" unicode="&#xf6ff;" horiz-adv-x="508" 
d="M52 444v76h408v-56l-303 -388h299v-76h-416v56l302 388h-290zM214 600l-128 164h84l84 -112l84 112h84l-128 -164h-80z" />
    <glyph glyph-name="exclam.sc" unicode="&#xf721;" horiz-adv-x="280" 
d="M116 152l-28 224v144h104v-144l-28 -224h-48zM88 0v104h104v-104h-104z" />
    <glyph glyph-name="ampersand.sc" unicode="&#xf726;" horiz-adv-x="584" 
d="M48 138q0 54 33 88t90 61q-32 35 -44.5 60t-12.5 54q0 53 39.5 90.5t112.5 37.5q72 0 109.5 -32t37.5 -88q0 -49 -33 -79.5t-92 -57.5l136 -128q22 43 22 100v16h76v-15q0 -84 -44 -152l100 -93h-101l-45 42q-68 -54 -174 -54q-99 0 -154.5 40.5t-55.5 109.5zM260 60
q73 0 118 31l-160 149q-81 -41 -81 -96q0 -39 34.5 -61.5t88.5 -22.5zM191 402q0 -32 50 -85q46 21 69.5 40t23.5 47q0 60 -73 60q-33 0 -51.5 -17.5t-18.5 -44.5z" />
    <glyph glyph-name="zero.oldstyle" unicode="&#xf730;" horiz-adv-x="584" 
d="M40 244q0 113 71.5 184.5t180.5 71.5q114 0 183 -71t69 -185q0 -113 -71.5 -184.5t-180.5 -71.5q-114 0 -183 71t-69 185zM132 244q0 -80 45 -130t115 -50t115 50t45 130q0 83 -45 131.5t-115 48.5t-115 -50t-45 -130z" />
    <glyph glyph-name="one.oldstyle" unicode="&#xf731;" horiz-adv-x="344" 
d="M52 296l-40 68l180 124h68v-488h-88v379z" />
    <glyph glyph-name="two.oldstyle" unicode="&#xf732;" horiz-adv-x="492" 
d="M40 0q0 67 23 114.5t56 72t85 45.5l60 24q27 11 40 17t28.5 17t21.5 25t6 33q0 31 -25 55.5t-83 24.5q-118 0 -128 -116h-80q2 67 35 111t77 60.5t96 16.5q90 0 143 -41.5t53 -110.5q0 -28 -9 -51t-20 -37t-35 -28.5t-38 -20.5l-46 -19l-60 -24q-96 -38 -96 -92h304v-76
h-408z" />
    <glyph glyph-name="three.oldstyle" unicode="&#xf733;" horiz-adv-x="524" 
d="M20 8h84q0 -71 40.5 -107.5t107.5 -36.5q66 0 107 34t41 93q0 57 -42.5 92t-105.5 35h-52v76h52q52 0 88 33.5t36 85.5t-35.5 81.5t-88.5 29.5q-54 0 -89 -31.5t-35 -92.5h-80q0 91 56 145.5t148 54.5q94 0 151 -52t57 -134q0 -49 -30 -94t-70 -60v-4q55 -15 91.5 -61.5
t36.5 -106.5q0 -92 -67 -146t-169 -54q-107 0 -169.5 56t-62.5 164z" />
    <glyph glyph-name="four.oldstyle" unicode="&#xf734;" horiz-adv-x="536" 
d="M24 0v64l336 424h68v-412h96v-76h-96v-200h-88v200h-316zM121 76h219v268z" />
    <glyph glyph-name="five.oldstyle" unicode="&#xf735;" horiz-adv-x="504" 
d="M32 -16h88q7 -51 42 -85.5t98 -34.5q58 0 99 39.5t41 108.5q0 71 -39.5 111.5t-96.5 40.5q-71 0 -128 -68l-80 4l20 388h372v-80h-292l-12 -216h4q48 48 128 48q90 0 151 -58.5t61 -161.5q0 -111 -67 -171.5t-161 -60.5q-100 0 -160 53t-68 143z" />
    <glyph glyph-name="six.oldstyle" unicode="&#xf736;" horiz-adv-x="556" 
d="M44 324q0 195 68.5 285.5t179.5 90.5q95 0 147 -49.5t61 -134.5h-88q-14 108 -120 108q-69 0 -111 -65t-45 -210q20 42 64.5 66.5t99.5 24.5q97 0 156.5 -61.5t59.5 -162.5q0 -106 -67 -167t-161 -61q-112 0 -178 79t-66 257zM290 364q-64 0 -103 -41.5t-39 -107.5
q0 -65 38.5 -108t99.5 -43q63 0 102.5 40t39.5 112q0 65 -40 106.5t-98 41.5z" />
    <glyph glyph-name="seven.oldstyle" unicode="&#xf737;" horiz-adv-x="460" 
d="M60 -200l288 608h-332v80h428v-64l-292 -624h-92z" />
    <glyph glyph-name="eight.oldstyle" unicode="&#xf738;" horiz-adv-x="552" 
d="M36 184q0 62 36.5 109.5t91.5 62.5v4q-42 15 -71 59t-29 95q0 82 58 134t154 52t154 -52t58 -134q0 -51 -29 -95t-71 -59v-4q55 -15 91.5 -62.5t36.5 -109.5q0 -91 -65.5 -143.5t-174.5 -52.5t-174.5 52.5t-65.5 143.5zM124 191q0 -60 42 -93.5t110 -33.5t110 33.5
t42 93.5q0 57 -43.5 92t-108.5 35t-108.5 -35t-43.5 -92zM276 394q55 0 91.5 33t36.5 86q0 52 -36.5 83.5t-91.5 31.5t-91.5 -31.5t-36.5 -83.5q0 -53 36.5 -86t91.5 -33z" />
    <glyph glyph-name="nine.oldstyle" unicode="&#xf739;" horiz-adv-x="548" 
d="M500 168q0 -380 -248 -380q-94 0 -149.5 50.5t-58.5 133.5h88q5 -48 35.5 -78t84.5 -30q73 0 113 64t43 210q-20 -41 -64.5 -65.5t-99.5 -24.5q-97 0 -156.5 61.5t-59.5 162.5q0 106 67 167t161 61q244 0 244 -332zM254 124q64 0 103 41t39 108q0 65 -38.5 108t-99.5 43
q-63 0 -102.5 -40t-39.5 -112q0 -65 40 -106.5t98 -41.5z" />
    <glyph glyph-name="question.sc" unicode="&#xf73f;" horiz-adv-x="468" 
d="M188 152v20q0 31 11.5 56.5t28 40.5t36.5 30t36.5 26t28 27.5t11.5 35.5q0 30 -29.5 51t-74.5 21q-54 0 -83 -27.5t-29 -72.5h-84q0 74 51.5 123t144.5 49q86 0 139 -37.5t53 -102.5q0 -35 -16 -61.5t-39 -43l-46 -31.5t-39 -35t-16 -45v-24h-84zM180 0v104h100v-104
h-100z" />
    <glyph glyph-name="a.sc" unicode="&#xf761;" horiz-adv-x="524" 
d="M8 0l204 520h104l200 -520h-92l-47 126h-233l-48 -126h-88zM264 432h-4l-89 -234h179z" />
    <glyph glyph-name="b.sc" unicode="&#xf762;" horiz-adv-x="580" 
d="M88 0v520h240q87 0 131.5 -35.5t44.5 -100.5q0 -37 -21.5 -66t-66.5 -40v-3q50 -8 81 -42.5t31 -80.5q0 -68 -49 -110t-135 -42h-256zM344 230h-168v-154h168q45 0 68.5 21.5t23.5 58.5q0 34 -24 54t-68 20zM328 444h-152v-138h152q40 0 62 20.5t22 53.5q0 64 -84 64z
" />
    <glyph glyph-name="c.sc" unicode="&#xf763;" horiz-adv-x="584" 
d="M44 260q0 119 73.5 195.5t190.5 76.5q96 0 159.5 -49.5t80.5 -130.5h-88q-29 100 -148 100q-80 0 -128 -53.5t-48 -138.5q0 -81 47.5 -136.5t128.5 -55.5q116 0 148 100h88q-17 -82 -80.5 -131t-159.5 -49q-118 0 -191 78.5t-73 193.5z" />
    <glyph glyph-name="d.sc" unicode="&#xf764;" horiz-adv-x="600" 
d="M88 0v520h192q129 0 202.5 -71.5t73.5 -188.5q0 -116 -73 -188t-203 -72h-192zM280 444h-104v-368h104q94 0 139 52.5t45 131.5t-45 131.5t-139 52.5z" />
    <glyph glyph-name="e.sc" unicode="&#xf765;" horiz-adv-x="532" 
d="M88 0v520h380v-76h-292v-142h236v-74h-236v-152h300v-76h-388z" />
    <glyph glyph-name="f.sc" unicode="&#xf766;" horiz-adv-x="504" 
d="M88 0v520h376v-76h-288v-168h228v-74h-228v-202h-88z" />
    <glyph glyph-name="g.sc" unicode="&#xf767;" horiz-adv-x="640" 
d="M324 204v72h240v-276h-56l-12 68h-3q-57 -80 -177 -80q-117 0 -192.5 79t-75.5 193q0 119 76.5 195.5t199.5 76.5q95 0 159.5 -47.5t80.5 -120.5h-92q-12 38 -50.5 63t-97.5 25q-84 0 -134 -53.5t-50 -138.5q0 -82 49 -137t131 -55q70 0 117 34.5t47 98.5v3h-160z" />
    <glyph glyph-name="h.sc" unicode="&#xf768;" horiz-adv-x="628" 
d="M88 0v520h88v-220h276v220h88v-520h-88v224h-276v-224h-88z" />
    <glyph glyph-name="i.sc" unicode="&#xf769;" horiz-adv-x="264" 
d="M88 0v520h88v-520h-88z" />
    <glyph glyph-name="j.sc" unicode="&#xf76a;" horiz-adv-x="444" 
d="M40 152v24h84v-24q0 -88 80 -88t80 92v364h88v-360q0 -87 -45.5 -129.5t-122.5 -42.5q-76 0 -120 40t-44 124z" />
    <glyph glyph-name="k.sc" unicode="&#xf76b;" horiz-adv-x="560" 
d="M88 0v520h88v-273l256 273h104l-219 -229l231 -291h-104l-186 231l-82 -86v-145h-88z" />
    <glyph glyph-name="l.sc" unicode="&#xf76c;" horiz-adv-x="464" 
d="M88 0v520h88v-440h268v-80h-356z" />
    <glyph glyph-name="m.sc" unicode="&#xf76d;" horiz-adv-x="768" 
d="M88 0v520h112l185 -404h2l185 404h108v-520h-88l7 388h-3l-180 -388h-64l-180 388h-4l8 -388h-88z" />
    <glyph glyph-name="n.sc" unicode="&#xf76e;" horiz-adv-x="628" 
d="M88 0v520h80l284 -376h3l-3 376h88v-520h-80l-284 376h-4l4 -376h-88z" />
    <glyph glyph-name="o.sc" unicode="&#xf76f;" horiz-adv-x="632" 
d="M44 260q0 117 77.5 194.5t194.5 77.5t194.5 -77.5t77.5 -194.5t-77.5 -194.5t-194.5 -77.5t-194.5 77.5t-77.5 194.5zM136 260q0 -84 49.5 -138t130.5 -54t130.5 54t49.5 138t-49.5 138t-130.5 54t-130.5 -54t-49.5 -138z" />
    <glyph glyph-name="p.sc" unicode="&#xf770;" horiz-adv-x="548" 
d="M88 0v520h228q90 0 139 -47.5t49 -124.5t-49 -124.5t-139 -47.5h-140v-176h-88zM316 444h-140v-192h140q49 0 74.5 26t25.5 70t-25.5 70t-74.5 26z" />
    <glyph glyph-name="q.sc" unicode="&#xf771;" horiz-adv-x="632" 
d="M44 260q0 117 77.5 194.5t194.5 77.5t194.5 -77.5t77.5 -194.5q0 -122 -82 -199l104 -106l-60 -55l-111 115q-59 -27 -123 -27q-117 0 -194.5 77.5t-77.5 194.5zM136 260q0 -84 49.5 -138t130.5 -54t130.5 54t49.5 138t-49.5 138t-130.5 54t-130.5 -54t-49.5 -138z" />
    <glyph glyph-name="r.sc" unicode="&#xf772;" 
d="M88 0v520h232q89 0 136.5 -42.5t47.5 -117.5q0 -60 -30.5 -101t-87.5 -56l142 -203h-100l-132 196h-120v-196h-88zM320 444h-144v-172h144q48 0 72 23.5t24 64.5q0 39 -25 61.5t-71 22.5z" />
    <glyph glyph-name="s.sc" unicode="&#xf773;" horiz-adv-x="528" 
d="M44 148h88q0 -42 34 -65t94 -23q128 0 128 84q0 34 -34.5 51t-83.5 24t-98 18t-83.5 44t-34.5 91q0 72 57.5 116t152.5 44q93 0 146.5 -42t53.5 -114h-84q0 39 -32 61.5t-84 22.5q-120 0 -120 -80q0 -30 25 -48t62 -23.5t81 -14.5t81 -20.5t62 -42.5t25 -79
q0 -76 -58 -120t-162 -44q-101 0 -158.5 43t-57.5 117z" />
    <glyph glyph-name="t.sc" unicode="&#xf774;" horiz-adv-x="512" 
d="M20 444v76h472v-76h-192v-444h-88v444h-192z" />
    <glyph glyph-name="u.sc" unicode="&#xf775;" horiz-adv-x="596" 
d="M72 208v312h88v-312q0 -67 34 -103.5t102 -36.5q69 0 104.5 36.5t35.5 103.5v312h88v-312q0 -114 -61.5 -167t-166.5 -53q-103 0 -163.5 53t-60.5 167z" />
    <glyph glyph-name="v.sc" unicode="&#xf776;" horiz-adv-x="516" 
d="M200 0l-192 520h92l158 -432h4l158 432h88l-196 -520h-112z" />
    <glyph glyph-name="w.sc" unicode="&#xf777;" horiz-adv-x="772" 
d="M156 0l-140 520h92l106 -424h4l126 424h92l125 -424h4l103 424h88l-136 -520h-112l-119 408h-2l-119 -408h-112z" />
    <glyph glyph-name="x.sc" unicode="&#xf778;" horiz-adv-x="496" 
d="M8 0l191 267l-183 253h104l131 -187l129 187h100l-183 -251l191 -269h-96l-147 205l-145 -205h-92z" />
    <glyph glyph-name="y.sc" unicode="&#xf779;" horiz-adv-x="504" 
d="M206 0v202l-202 318h104l145 -234h2l149 234h96l-206 -315v-205h-88z" />
    <glyph glyph-name="z.sc" unicode="&#xf77a;" horiz-adv-x="508" 
d="M52 444v76h408v-56l-303 -388h299v-76h-416v56l302 388h-290z" />
    <glyph glyph-name="exclamdown.sc" unicode="&#xf7a1;" horiz-adv-x="280" 
d="M88 416v104h104v-104h-104zM88 0v144l28 224h48l28 -224v-144h-104z" />
    <glyph glyph-name="questiondown.sc" unicode="&#xf7bf;" horiz-adv-x="468" 
d="M280 368v-20q0 -31 -11.5 -56.5t-28 -40.5t-36.5 -30t-36.5 -26t-28 -27.5t-11.5 -35.5q0 -30 29.5 -51t74.5 -21q54 0 83 27.5t29 72.5h84q0 -74 -51.5 -123t-144.5 -49q-86 0 -139 37.5t-53 102.5q0 35 16 61.5t39 43l46 31.5t39 35t16 45v24h84zM288 520v-104h-100
v104h100z" />
    <glyph glyph-name="agrave.sc" unicode="&#xf7e0;" horiz-adv-x="524" 
d="M8 0l204 520h104l200 -520h-92l-47 126h-233l-48 -126h-88zM264 432h-4l-89 -234h179zM230 600l-144 164h104l104 -164h-64z" />
    <glyph glyph-name="aacute.sc" unicode="&#xf7e1;" horiz-adv-x="524" 
d="M8 0l204 520h104l200 -520h-92l-47 126h-233l-48 -126h-88zM264 432h-4l-89 -234h179zM230 600l104 164h104l-144 -164h-64z" />
    <glyph glyph-name="acircumflex.sc" unicode="&#xf7e2;" horiz-adv-x="524" 
d="M8 0l204 520h104l200 -520h-92l-47 126h-233l-48 -126h-88zM264 432h-4l-89 -234h179zM94 600l128 164h80l128 -164h-84l-84 112l-84 -112h-84z" />
    <glyph glyph-name="atilde.sc" unicode="&#xf7e3;" horiz-adv-x="524" 
d="M8 0l204 520h104l200 -520h-92l-47 126h-233l-48 -126h-88zM264 432h-4l-89 -234h179zM98 628q2 47 27 77.5t69 30.5q33 0 79.5 -24t60.5 -24q36 0 44 48h48q-2 -47 -27 -77.5t-69 -30.5q-32 0 -79 24t-61 24q-36 0 -44 -48h-48z" />
    <glyph glyph-name="adieresis.sc" unicode="&#xf7e4;" horiz-adv-x="524" 
d="M8 0l204 520h104l200 -520h-92l-47 126h-233l-48 -126h-88zM264 432h-4l-89 -234h179zM318 636v92h88v-92h-88zM118 636v92h88v-92h-88z" />
    <glyph glyph-name="aring.sc" unicode="&#xf7e5;" horiz-adv-x="524" 
d="M8 0l204 520h104l200 -520h-92l-47 126h-233l-48 -126h-88zM264 432h-4l-89 -234h179zM262 596q-41 0 -70.5 27t-29.5 69t29.5 69t70.5 27t70.5 -27t29.5 -69t-29.5 -69t-70.5 -27zM262 640q22 0 37 15t15 37t-15 37t-37 15t-37 -15t-15 -37t15 -37t37 -15z" />
    <glyph glyph-name="ae.sc" unicode="&#xf7e6;" horiz-adv-x="880" 
d="M0 0l404 520h408v-76h-292v-142h236v-74h-236v-152h300v-76h-388v128h-235l-97 -128h-100zM428 432l-177 -232h181v232h-4z" />
    <glyph glyph-name="ccedilla.sc" unicode="&#xf7e7;" horiz-adv-x="584" 
d="M264 -84l24 73q-110 7 -177 84t-67 187q0 119 73.5 195.5t190.5 76.5q96 0 159.5 -49.5t80.5 -130.5h-88q-29 100 -148 100q-80 0 -128 -53.5t-48 -138.5q0 -81 47.5 -136.5t128.5 -55.5q116 0 148 100h88q-16 -79 -75.5 -127t-148.5 -52v-25q44 -3 68 -27.5t24 -60.5
q0 -43 -30 -69.5t-86 -26.5h-56v56h52q52 0 52 40t-52 40h-32z" />
    <glyph glyph-name="egrave.sc" unicode="&#xf7e8;" horiz-adv-x="532" 
d="M88 0v520h380v-76h-292v-142h236v-74h-236v-152h300v-76h-388zM244 600l-144 164h104l104 -164h-64z" />
    <glyph glyph-name="eacute.sc" unicode="&#xf7e9;" horiz-adv-x="532" 
d="M88 0v520h380v-76h-292v-142h236v-74h-236v-152h300v-76h-388zM244 600l104 164h104l-144 -164h-64z" />
    <glyph glyph-name="ecircumflex.sc" unicode="&#xf7ea;" horiz-adv-x="532" 
d="M88 0v520h380v-76h-292v-142h236v-74h-236v-152h300v-76h-388zM108 600l128 164h80l128 -164h-84l-84 112l-84 -112h-84z" />
    <glyph glyph-name="edieresis.sc" unicode="&#xf7eb;" horiz-adv-x="532" 
d="M88 0v520h380v-76h-292v-142h236v-74h-236v-152h300v-76h-388zM332 636v92h88v-92h-88zM132 636v92h88v-92h-88z" />
    <glyph glyph-name="igrave.sc" unicode="&#xf7ec;" horiz-adv-x="264" 
d="M88 0v520h88v-520h-88zM98 600l-144 164h104l104 -164h-64z" />
    <glyph glyph-name="iacute.sc" unicode="&#xf7ed;" horiz-adv-x="264" 
d="M88 0v520h88v-520h-88zM98 600l104 164h104l-144 -164h-64z" />
    <glyph glyph-name="icircumflex.sc" unicode="&#xf7ee;" horiz-adv-x="264" 
d="M88 0v520h88v-520h-88zM-38 600l128 164h80l128 -164h-84l-84 112l-84 -112h-84z" />
    <glyph glyph-name="idieresis.sc" unicode="&#xf7ef;" horiz-adv-x="264" 
d="M88 0v520h88v-520h-88zM186 636v92h88v-92h-88zM-14 636v92h88v-92h-88z" />
    <glyph glyph-name="eth.sc" unicode="&#xf7f0;" horiz-adv-x="600" 
d="M4 228v64h84v228h192q129 0 202.5 -71.5t73.5 -188.5q0 -116 -73 -188t-203 -72h-192v228h-84zM280 444h-104v-152h108v-64h-108v-152h104q94 0 139 52.5t45 131.5t-45 131.5t-139 52.5z" />
    <glyph glyph-name="ntilde.sc" unicode="&#xf7f1;" horiz-adv-x="628" 
d="M88 0v520h80l284 -376h3l-3 376h88v-520h-80l-284 376h-4l4 -376h-88zM150 628q2 47 27 77.5t69 30.5q32 0 79 -24t61 -24q36 0 44 48h48q-2 -47 -27 -77.5t-69 -30.5q-32 0 -79 24t-61 24q-36 0 -44 -48h-48z" />
    <glyph glyph-name="ograve.sc" unicode="&#xf7f2;" horiz-adv-x="632" 
d="M44 260q0 117 77.5 194.5t194.5 77.5t194.5 -77.5t77.5 -194.5t-77.5 -194.5t-194.5 -77.5t-194.5 77.5t-77.5 194.5zM136 260q0 -84 49.5 -138t130.5 -54t130.5 54t49.5 138t-49.5 138t-130.5 54t-130.5 -54t-49.5 -138zM284 600l-144 164h104l104 -164h-64z" />
    <glyph glyph-name="oacute.sc" unicode="&#xf7f3;" horiz-adv-x="632" 
d="M44 260q0 117 77.5 194.5t194.5 77.5t194.5 -77.5t77.5 -194.5t-77.5 -194.5t-194.5 -77.5t-194.5 77.5t-77.5 194.5zM136 260q0 -84 49.5 -138t130.5 -54t130.5 54t49.5 138t-49.5 138t-130.5 54t-130.5 -54t-49.5 -138zM284 600l104 164h104l-144 -164h-64z" />
    <glyph glyph-name="ocircumflex.sc" unicode="&#xf7f4;" horiz-adv-x="632" 
d="M44 260q0 117 77.5 194.5t194.5 77.5t194.5 -77.5t77.5 -194.5t-77.5 -194.5t-194.5 -77.5t-194.5 77.5t-77.5 194.5zM136 260q0 -84 49.5 -138t130.5 -54t130.5 54t49.5 138t-49.5 138t-130.5 54t-130.5 -54t-49.5 -138zM148 600l128 164h80l128 -164h-84l-84 112
l-84 -112h-84z" />
    <glyph glyph-name="otilde.sc" unicode="&#xf7f5;" horiz-adv-x="632" 
d="M44 260q0 117 77.5 194.5t194.5 77.5t194.5 -77.5t77.5 -194.5t-77.5 -194.5t-194.5 -77.5t-194.5 77.5t-77.5 194.5zM136 260q0 -84 49.5 -138t130.5 -54t130.5 54t49.5 138t-49.5 138t-130.5 54t-130.5 -54t-49.5 -138zM152 628q2 47 27 77.5t69 30.5q32 0 79 -24
t61 -24q36 0 44 48h48q-2 -47 -27 -77.5t-69 -30.5q-32 0 -79 24t-61 24q-36 0 -44 -48h-48z" />
    <glyph glyph-name="odieresis.sc" unicode="&#xf7f6;" horiz-adv-x="632" 
d="M44 260q0 117 77.5 194.5t194.5 77.5t194.5 -77.5t77.5 -194.5t-77.5 -194.5t-194.5 -77.5t-194.5 77.5t-77.5 194.5zM136 260q0 -84 49.5 -138t130.5 -54t130.5 54t49.5 138t-49.5 138t-130.5 54t-130.5 -54t-49.5 -138zM372 636v92h88v-92h-88zM172 636v92h88v-92h-88z
" />
    <glyph glyph-name="oslash.sc" unicode="&#xf7f8;" horiz-adv-x="632" 
d="M60 -12l62 76q-78 78 -78 196q0 117 77.5 194.5t194.5 77.5q84 0 152 -44l36 44h72l-65 -79q77 -77 77 -193q0 -117 -77.5 -194.5t-194.5 -77.5q-85 0 -150 42l-34 -42h-72zM136 260q0 -77 41 -129l239 293q-44 28 -100 28q-81 0 -130.5 -54t-49.5 -138zM496 260
q0 75 -40 126l-238 -292q41 -26 98 -26q81 0 130.5 54t49.5 138z" />
    <glyph glyph-name="ugrave.sc" unicode="&#xf7f9;" horiz-adv-x="596" 
d="M72 208v312h88v-312q0 -67 34 -103.5t102 -36.5q69 0 104.5 36.5t35.5 103.5v312h88v-312q0 -114 -61.5 -167t-166.5 -53q-103 0 -163.5 53t-60.5 167zM266 600l-144 164h104l104 -164h-64z" />
    <glyph glyph-name="uacute.sc" unicode="&#xf7fa;" horiz-adv-x="596" 
d="M72 208v312h88v-312q0 -67 34 -103.5t102 -36.5q69 0 104.5 36.5t35.5 103.5v312h88v-312q0 -114 -61.5 -167t-166.5 -53q-103 0 -163.5 53t-60.5 167zM266 600l104 164h104l-144 -164h-64z" />
    <glyph glyph-name="ucircumflex.sc" unicode="&#xf7fb;" horiz-adv-x="596" 
d="M72 208v312h88v-312q0 -67 34 -103.5t102 -36.5q69 0 104.5 36.5t35.5 103.5v312h88v-312q0 -114 -61.5 -167t-166.5 -53q-103 0 -163.5 53t-60.5 167zM130 600l128 164h80l128 -164h-84l-84 112l-84 -112h-84z" />
    <glyph glyph-name="udieresis.sc" unicode="&#xf7fc;" horiz-adv-x="596" 
d="M72 208v312h88v-312q0 -67 34 -103.5t102 -36.5q69 0 104.5 36.5t35.5 103.5v312h88v-312q0 -114 -61.5 -167t-166.5 -53q-103 0 -163.5 53t-60.5 167zM354 636v92h88v-92h-88zM154 636v92h88v-92h-88z" />
    <glyph glyph-name="yacute.sc" unicode="&#xf7fd;" horiz-adv-x="504" 
d="M206 0v202l-202 318h104l145 -234h2l149 234h96l-206 -315v-205h-88zM220 600l104 164h104l-144 -164h-64z" />
    <glyph glyph-name="thorn.sc" unicode="&#xf7fe;" horiz-adv-x="548" 
d="M88 0v520h88v-80h140q90 0 139 -47.5t49 -124.5t-49 -124.5t-139 -47.5h-140v-96h-88zM316 364h-140v-192h140q49 0 74.5 26t25.5 70t-25.5 70t-74.5 26z" />
    <glyph glyph-name="ydieresis.sc" unicode="&#xf7ff;" horiz-adv-x="504" 
d="M206 0v202l-202 318h104l145 -234h2l149 234h96l-206 -315v-205h-88zM308 636v92h88v-92h-88zM108 636v92h88v-92h-88z" />
    <glyph glyph-name="at.sc" horiz-adv-x="840" 
d="M240 96q0 47 33 78t99 38l72 8q31 4 41.5 9.5t10.5 18.5q0 33 -20.5 52.5t-59.5 19.5q-34 0 -55.5 -18t-24.5 -50h-76q5 64 49.5 96t106.5 32q76 0 118 -35t42 -101v-120q0 -80 64 -80q37 0 62.5 40t25.5 120q0 124 -85 196t-219 72q-141 0 -226.5 -84t-85.5 -212
t82.5 -210t217.5 -82q112 0 168 52h84q-91 -112 -252 -112t-262.5 101t-101.5 251q0 151 104 253.5t272 102.5q161 0 264.5 -91t103.5 -237q0 -107 -46.5 -159.5t-117.5 -52.5q-90 0 -117 59q-38 -63 -139 -63q-62 0 -97 30t-35 78zM496 148v35q-10 -12 -40 -15l-68 -8
q-64 -7 -64 -56q0 -25 18 -40.5t50 -15.5q43 0 73.5 26t30.5 74z" />
    <glyph glyph-name="fi.sc" horiz-adv-x="768" 
d="M88 0v520h376v-76h-288v-168h228v-74h-228v-202h-88zM592 0v520h88v-520h-88z" />
    <glyph glyph-name="fl.sc" horiz-adv-x="968" 
d="M88 0v520h376v-76h-288v-168h228v-74h-228v-202h-88zM592 0v520h88v-440h268v-80h-356z" />
    <glyph glyph-name="t_t" horiz-adv-x="628" 
d="M388 144v272h-212v-268q0 -38 14.5 -55t45.5 -17h48v-76h-52q-144 0 -144 144v272h-88v72h88v148h88v-148h212v148h88v-148h128v-72h-128v-268q0 -72 64 -72h64v-76h-72q-144 0 -144 144z" />
    <glyph glyph-name="t_f" horiz-adv-x="604" 
d="M392 0v416h-212v-268q0 -41 9.5 -56.5t38.5 -15.5h60v-76h-64q-70 0 -101 35t-31 109v272h-88v72h88v148h88v-148h212v80q0 164 164 164h60v-76h-52q-46 0 -65 -22.5t-19 -69.5v-76h120v-72h-120v-416h-88z" />
    <glyph glyph-name="caronquoteleft" horiz-adv-x="560" 
d="M236 568v78l37 102h40l-26 -92h37v-88h-88z" />
    <glyph glyph-name="caronquoteright" horiz-adv-x="560" 
d="M247 568l26 92h-37v88h88v-78l-37 -102h-40z" />
    <glyph glyph-name="slashedzero" 
d="M284 -12q-83 0 -138 48.5t-78.5 126t-23.5 181.5t23.5 181.5t78.5 126t138 48.5t138 -48.5t78.5 -126t23.5 -181.5t-23.5 -181.5t-78.5 -126t-138 -48.5zM136 344q0 -115 27 -184l202 428q-32 32 -81 32q-148 0 -148 -276zM284 68q148 0 148 276q0 116 -28 184l-202 -429
q34 -31 82 -31z" />
    <glyph glyph-name="zero.sc" horiz-adv-x="504" 
d="M252 -12q-105 0 -156.5 75t-51.5 197t51.5 197t156.5 75t156.5 -75t51.5 -197t-51.5 -197t-156.5 -75zM252 60q58 0 87 52t29 148q0 200 -116 200t-116 -200q0 -96 29 -148t87 -52z" />
    <glyph glyph-name="one.sc" horiz-adv-x="504" 
d="M104 336l-36 64l188 120h64v-448h136v-72h-368v72h144v343z" />
    <glyph glyph-name="two.sc" horiz-adv-x="504" 
d="M56 0q3 88 34.5 139t101.5 93l68 40q51 30 71.5 51t20.5 57q0 33 -25.5 56.5t-74.5 23.5q-100 0 -108 -96h-80q4 87 57 127.5t131 40.5q83 0 133.5 -39.5t50.5 -108.5q0 -41 -18.5 -73t-39.5 -48.5t-62 -42.5l-68 -40q-54 -34 -71.5 -57t-20.5 -51h288v-72h-388z" />
    <glyph glyph-name="three.sc" horiz-adv-x="504" 
d="M52 152h84q0 -48 32 -72t84 -24q53 0 84.5 22.5t31.5 69.5q0 41 -31.5 64.5t-80.5 23.5h-44v68h44q41 0 68.5 22t27.5 58q0 37 -27 58.5t-73 21.5q-42 0 -71 -22t-29 -62h-76q0 69 49 110.5t127 41.5q84 0 132 -41t48 -107q0 -38 -21.5 -68.5t-58.5 -41.5v-4
q46 -14 75 -48.5t29 -81.5q0 -72 -57.5 -112t-146.5 -40q-93 0 -146.5 40.5t-53.5 123.5z" />
    <glyph glyph-name="four.sc" horiz-adv-x="504" 
d="M28 116v60l280 344h72v-332h84v-72h-84v-116h-88v116h-264zM122 188h170v211z" />
    <glyph glyph-name="five.sc" horiz-adv-x="504" 
d="M52 136h88q6 -33 34 -54.5t78 -21.5q49 0 80.5 28t31.5 76q0 45 -31 72.5t-77 27.5q-36 0 -58.5 -13t-45.5 -39l-84 8l16 300h336v-76h-256l-8 -148h4q42 40 108 40q78 0 131 -46t53 -126q0 -81 -59 -128.5t-141 -47.5q-89 0 -141 40t-59 108z" />
    <glyph glyph-name="six.sc" horiz-adv-x="504" 
d="M268 460q-119 0 -128 -184q17 27 54 43.5t78 16.5q82 0 133 -45.5t51 -126.5q0 -82 -56.5 -129t-139.5 -47q-97 0 -154.5 62t-57.5 198q0 147 61.5 215.5t158.5 68.5q83 0 127.5 -39t52.5 -105h-88q-14 72 -92 72zM260 260q-48 0 -78 -27t-30 -73q0 -43 30.5 -69.5
t77.5 -26.5q49 0 78.5 27t29.5 73q0 43 -30 69.5t-78 26.5z" />
    <glyph glyph-name="seven.sc" horiz-adv-x="504" 
d="M120 0l240 440h-312v80h412v-56l-244 -464h-96z" />
    <glyph glyph-name="eight.sc" horiz-adv-x="504" 
d="M72 384q0 66 48.5 107t131.5 41t131.5 -41t48.5 -107q0 -38 -22 -68.5t-58 -41.5v-4q46 -14 75 -48.5t29 -81.5q0 -73 -56 -112.5t-148 -39.5t-148 39.5t-56 112.5q0 47 29 81.5t75 48.5v4q-36 11 -58 41.5t-22 68.5zM136 144q0 -41 32.5 -64.5t83.5 -23.5t83.5 23.5
t32.5 64.5q0 42 -33 67t-83 25t-83 -25t-33 -67zM152 384q0 -38 28.5 -59t71.5 -21t71.5 21t28.5 59q0 36 -28.5 58t-71.5 22t-71.5 -22t-28.5 -58z" />
    <glyph glyph-name="nine.sc" horiz-adv-x="504" 
d="M244 60q113 0 119 183q-17 -27 -53.5 -43t-77.5 -16q-82 0 -133 45.5t-51 126.5q0 82 56.5 129t139.5 47q97 0 154.5 -62t57.5 -198q0 -148 -58.5 -216t-153.5 -68q-84 0 -132 39.5t-56 104.5h88q6 -30 31 -51t69 -21zM244 260q49 0 78.5 26t29.5 74q0 45 -30 70.5
t-78 25.5t-76 -27t-28 -73q0 -43 28 -69.5t76 -26.5z" />
    <glyph glyph-name="slashedzero.sc" horiz-adv-x="504" 
d="M252 -12q-105 0 -156.5 75t-51.5 197t51.5 197t156.5 75t156.5 -75t51.5 -197t-51.5 -197t-156.5 -75zM136 260q0 -84 21 -133l149 317q-24 16 -54 16q-116 0 -116 -200zM252 60q58 0 87 52t29 148q0 84 -21 133l-150 -317q23 -16 55 -16z" />
    <glyph glyph-name="currency.sc" horiz-adv-x="504" 
d="M100 64l-44 44l58 59q-30 46 -30 93q0 49 32 95l-60 61l44 44l60 -62q40 26 92 26q51 0 91 -26l61 62l44 -44l-60 -61q32 -46 32 -95q0 -46 -31 -93l59 -59l-44 -44l-58 59q-39 -27 -94 -27t-94 27zM252 160q41 0 68.5 27.5t27.5 72.5t-27.5 72.5t-68.5 27.5t-68.5 -27.5
t-27.5 -72.5t27.5 -72.5t68.5 -27.5z" />
    <glyph glyph-name="dollar.sc" horiz-adv-x="504" 
d="M44 148h88q0 -39 34 -65.5t82 -26.5q52 0 82 21t30 59q0 33 -23 50t-73 30l-72 20q-132 36 -132 144q0 59 40 99t108 50v87h80v-87q62 -10 101 -47.5t43 -93.5h-84q-6 35 -33 55.5t-67 20.5q-43 0 -71.5 -18.5t-28.5 -53.5q0 -31 21.5 -48.5t70.5 -31.5l72 -20
q68 -19 102 -53.5t34 -94.5q0 -64 -43 -105t-117 -49v-90h-80v91q-74 9 -118 50.5t-46 106.5z" />
    <glyph glyph-name="cent.sc" horiz-adv-x="504" 
d="M224 -12v79q-78 12 -121 66t-43 131q0 76 44.5 128.5t123.5 64.5v75h80v-75q62 -10 100.5 -48t43.5 -89h-88q-5 28 -30.5 48t-65.5 20q-58 0 -87 -34.5t-29 -89.5t29.5 -91.5t82.5 -36.5q42 0 68 22t32 50h84q-5 -51 -44.5 -90.5t-99.5 -50.5v-79h-80z" />
    <glyph glyph-name="Euro.sc" horiz-adv-x="504" 
d="M11 185l14 48h55v27q0 22 1 33h-54l15 48h45q16 88 67.5 139.5t141.5 51.5q79 0 124 -41t56 -111h-80q-6 36 -31.5 58t-64.5 22q-96 0 -121 -119h163l-15 -48h-154q-1 -11 -1 -33v-27h152l-15 -48h-131q22 -125 122 -125q70 0 92 68h80q-29 -140 -176 -140
q-91 0 -143.5 53t-66.5 144h-75z" />
    <glyph glyph-name="yen.sc" horiz-adv-x="504" 
d="M88 180v48h118l-186 292h104l133 -216h2l133 216h92l-183 -292h119v-48h-120v-52h120v-48h-120v-80h-88v80h-124v48h124v52h-124z" />
    <glyph glyph-name="sterling.sc" horiz-adv-x="504" 
d="M68 242v54h69q-25 58 -25 92q0 67 43 105.5t117 38.5q70 0 108.5 -35.5t43.5 -100.5h-80q-9 68 -72 68q-32 0 -52 -19t-20 -53q0 -36 27 -96h129v-54h-107q11 -30 11 -62q0 -37 -12 -73q26 -18 37 -25t31 -16t36 -9q26 0 36 16.5t12 50.5h72q-3 -65 -29.5 -100.5
t-86.5 -35.5q-24 0 -50.5 11.5t-41 22.5l-41.5 33q-43 -63 -107 -63q-45 0 -70.5 21.5t-25.5 58.5q0 41 28.5 64.5t71.5 23.5q29 0 60 -13v17q0 33 -18 78h-94zM116 40q44 0 58 53q-31 19 -54 19t-33.5 -10.5t-10.5 -25.5t10.5 -25.5t29.5 -10.5z" />
    <glyph glyph-name="florin.sc" horiz-adv-x="504" 
d="M88 212v56h105l15 132q15 132 140 132q61 0 95 -30.5t25 -89.5l-5 -32h-75l4 28q4 28 -7.5 44t-36.5 16q-44 0 -52 -68l-15 -132h123v-56h-130l-26 -232q-15 -132 -140 -132q-61 0 -95 30.5t-25 89.5l5 32h75l-4 -28q-4 -28 7.5 -44t36.5 -16q44 0 52 68l26 232h-98z" />
    <glyph glyph-name="zero.TOSF" 
d="M44 244q0 114 67.5 185t172.5 71q110 0 175 -70.5t65 -185.5q0 -114 -67.5 -185t-172.5 -71q-110 0 -175 70.5t-65 185.5zM136 244q0 -81 41 -130.5t107 -49.5t107 49.5t41 130.5q0 83 -40.5 131.5t-107.5 48.5q-66 0 -107 -49.5t-41 -130.5z" />
    <glyph glyph-name="one.TOSF" 
d="M116 280l-40 64l204 144h68v-412h172v-76h-448v76h188v306z" />
    <glyph glyph-name="two.TOSF" 
d="M60 0q0 98 45 150.5t127 81.5l68 24q67 24 84 39q24 20 24 53q0 32 -29.5 56t-94.5 24q-134 0 -144 -116h-80q1 51 21.5 89t54 58.5t70.5 30.5t78 10q97 0 154.5 -39.5t57.5 -108.5q0 -26 -5.5 -46.5t-19.5 -36.5t-24.5 -26t-35 -21t-35.5 -15.5t-40 -14.5l-68 -24
q-45 -16 -74.5 -40t-29.5 -52h336v-76h-440z" />
    <glyph glyph-name="three.TOSF" 
d="M44 8h84q0 -71 40.5 -107.5t107.5 -36.5q66 0 107 34t41 93q0 57 -42.5 92t-105.5 35h-52v76h52q52 0 88 33.5t36 85.5t-35.5 81.5t-88.5 29.5q-54 0 -89 -31.5t-35 -92.5h-80q0 91 56 145.5t148 54.5q94 0 151 -52t57 -134q0 -49 -30 -94t-70 -60v-4q55 -15 91.5 -62.5
t36.5 -109.5q0 -90 -67.5 -143t-168.5 -53q-107 0 -169.5 56t-62.5 164z" />
    <glyph glyph-name="four.TOSF" 
d="M32 0v64l332 424h72v-412h100v-76h-100v-200h-88v200h-316zM125 76h223v278z" />
    <glyph glyph-name="five.TOSF" 
d="M56 -16h88q7 -50 44.5 -85t103.5 -35q61 0 104.5 39.5t43.5 108.5q0 70 -41.5 111t-106.5 41q-73 0 -132 -68l-80 4l20 388h388v-80h-308l-12 -216h4q48 48 132 48q95 0 159.5 -59.5t64.5 -160.5q0 -111 -69.5 -171.5t-166.5 -60.5q-103 0 -165.5 53t-70.5 143z" />
    <glyph glyph-name="six.TOSF" 
d="M44 328q0 100 22 174.5t59.5 116t82 61.5t96.5 20q95 0 147 -49.5t61 -134.5h-88q-14 108 -120 108q-68 0 -116.5 -66.5t-51.5 -208.5q21 41 70.5 66t105.5 25q97 0 156.5 -61.5t59.5 -162.5q0 -105 -68.5 -166.5t-163.5 -61.5q-112 0 -182 81t-70 259zM300 364
q-65 0 -108.5 -42t-43.5 -107t41 -108t103 -43q64 0 106 40.5t42 111.5q0 65 -41 106.5t-99 41.5z" />
    <glyph glyph-name="seven.TOSF" 
d="M140 -200l288 608h-376v80h472v-64l-292 -624h-92z" />
    <glyph glyph-name="eight.TOSF" 
d="M44 184q0 62 36.5 109.5t91.5 62.5v4q-42 15 -71 59t-29 95q0 82 58 134t154 52t154 -52t58 -134q0 -51 -29 -95t-71 -59v-4q55 -15 91.5 -62.5t36.5 -109.5q0 -91 -65.5 -143.5t-174.5 -52.5t-174.5 52.5t-65.5 143.5zM132 191q0 -60 42 -93.5t110 -33.5t110 33.5
t42 93.5q0 57 -43.5 92t-108.5 35t-108.5 -35t-43.5 -92zM284 394q55 0 91.5 33t36.5 86q0 52 -36.5 83.5t-91.5 31.5t-91.5 -31.5t-36.5 -83.5q0 -53 36.5 -86t91.5 -33z" />
    <glyph glyph-name="nine.TOSF" 
d="M524 160q0 -196 -68 -284t-184 -88q-98 0 -150.5 49t-65.5 135h88q23 -108 128 -108q155 0 160 274q-21 -40 -70.5 -65t-105.5 -25q-97 0 -156.5 61.5t-59.5 162.5q0 105 68.5 166.5t163.5 61.5q112 0 182 -81t70 -259zM268 124q65 0 108.5 42.5t43.5 106.5t-41.5 107.5
t-102.5 43.5q-62 0 -105 -41t-43 -111q0 -65 41 -106.5t99 -41.5z" />
    <glyph glyph-name="slashedzero.TOSF" 
d="M44 244q0 114 67.5 185t172.5 71q110 0 175 -70.5t65 -185.5q0 -114 -67.5 -185t-172.5 -71q-110 0 -175 70.5t-65 185.5zM136 244q0 -66 28 -113l198 271q-35 22 -78 22q-66 0 -107 -49.5t-41 -130.5zM432 244q0 66 -28 113l-198 -271q35 -22 78 -22q66 0 107 49.5
t41 130.5z" />
    <glyph glyph-name="zero.PPF" horiz-adv-x="576" 
d="M288 -12q-123 0 -183.5 98t-60.5 258t60.5 258t183.5 98t183.5 -98t60.5 -258t-60.5 -258t-183.5 -98zM288 68q74 0 113 71.5t39 204.5t-39 204.5t-113 71.5q-152 0 -152 -276q0 -133 39 -204.5t113 -71.5z" />
    <glyph glyph-name="one.PPF" horiz-adv-x="344" 
d="M56 496l-40 68l180 124h68v-688h-88v579z" />
    <glyph glyph-name="two.PPF" horiz-adv-x="528" 
d="M40 0q4 110 40.5 174t119.5 122l68 48q71 50 89 71q31 36 31 89q0 49 -28.5 84.5t-91.5 35.5q-128 0 -140 -140h-80q6 114 67.5 165t152.5 51q96 0 152 -50.5t56 -141.5q0 -33 -9.5 -62t-19 -47t-34.5 -41.5t-35.5 -31.5t-42.5 -30l-11 -8l-68 -48q-37 -26 -61 -49.5
t-34.5 -44.5t-14.5 -35.5t-6 -34.5h344v-76h-444z" />
    <glyph glyph-name="three.PPF" horiz-adv-x="544" 
d="M36 208h84q0 -71 40.5 -107.5t107.5 -36.5q66 0 107 34t41 93q0 57 -42.5 92t-105.5 35h-52v76h52q52 0 88 33.5t36 85.5t-35.5 81.5t-88.5 29.5q-54 0 -89 -31.5t-35 -92.5h-80q0 91 56 145.5t148 54.5q94 0 151 -52t57 -134q0 -49 -30 -94t-70 -60v-4
q55 -15 91.5 -61.5t36.5 -106.5q0 -92 -67 -146t-169 -54q-107 0 -169.5 56t-62.5 164z" />
    <glyph glyph-name="four.PPF" horiz-adv-x="548" 
d="M20 172v64l336 452h68v-440h96v-76h-96v-172h-88v172h-316zM115 248h221v293z" />
    <glyph glyph-name="five.PPF" horiz-adv-x="524" 
d="M32 184h88q7 -51 42 -85.5t98 -34.5q58 0 99 39.5t41 108.5q0 71 -39.5 111.5t-96.5 40.5q-71 0 -128 -68l-80 4l20 388h372v-80h-292l-12 -216h4q48 48 128 48q90 0 151 -58.5t61 -161.5q0 -111 -67 -171.5t-161 -60.5q-100 0 -160 53t-68 143z" />
    <glyph glyph-name="six.PPF" horiz-adv-x="556" 
d="M44 324q0 195 68.5 285.5t179.5 90.5q95 0 147 -49.5t61 -134.5h-88q-14 108 -120 108q-69 0 -111 -65t-45 -210q20 42 64.5 66.5t99.5 24.5q97 0 156.5 -61.5t59.5 -162.5q0 -106 -67 -167t-161 -61q-112 0 -178 79t-66 257zM290 364q-64 0 -103 -42t-39 -107t38.5 -108
t99.5 -43q63 0 102.5 40t39.5 112q0 65 -40 106.5t-98 41.5z" />
    <glyph glyph-name="seven.PPF" horiz-adv-x="460" 
d="M64 0l288 608h-332v80h428v-64l-292 -624h-92z" />
    <glyph glyph-name="eight.PPF" horiz-adv-x="560" 
d="M40 184q0 62 36.5 109.5t91.5 62.5v4q-42 15 -71 59t-29 95q0 82 58 134t154 52t154 -52t58 -134q0 -51 -29 -95t-71 -59v-4q55 -15 91.5 -62.5t36.5 -109.5q0 -91 -65.5 -143.5t-174.5 -52.5t-174.5 52.5t-65.5 143.5zM128 191q0 -60 42 -93.5t110 -33.5t110 33.5
t42 93.5q0 57 -43.5 92t-108.5 35t-108.5 -35t-43.5 -92zM280 394q55 0 91.5 33t36.5 86q0 52 -36.5 83.5t-91.5 31.5t-91.5 -31.5t-36.5 -83.5q0 -53 36.5 -86t91.5 -33z" />
    <glyph glyph-name="nine.PPF" horiz-adv-x="556" 
d="M504 368q0 -380 -248 -380q-94 0 -149.5 50.5t-58.5 133.5h88q5 -48 35.5 -78t84.5 -30q73 0 113 64t43 210q-20 -41 -64.5 -65.5t-99.5 -24.5q-97 0 -156.5 61.5t-59.5 162.5q0 106 67 167t161 61q244 0 244 -332zM258 324q64 0 103 41.5t39 107.5q0 65 -38.5 108
t-99.5 43q-63 0 -102.5 -40t-39.5 -112q0 -65 40 -106.5t98 -41.5z" />
    <glyph glyph-name="slashedzero.PPF" horiz-adv-x="576" 
d="M288 -12q-123 0 -183.5 98t-60.5 258t60.5 258t183.5 98t183.5 -98t60.5 -258t-60.5 -258t-183.5 -98zM136 344q0 -118 30 -187l203 432q-34 31 -81 31q-152 0 -152 -276zM288 68q74 0 113 71.5t39 204.5q0 117 -30 186l-204 -432q33 -30 82 -30z" />
    <glyph glyph-name="currency.PPF" horiz-adv-x="480" 
d="M88 148l-44 44l58 59q-30 46 -30 93q0 49 32 95l-60 61l44 44l60 -62q40 26 92 26q51 0 91 -26l61 62l44 -44l-60 -61q32 -46 32 -95q0 -46 -31 -93l59 -59l-44 -44l-58 59q-39 -27 -94 -27t-94 27zM240 244q41 0 68.5 27.5t27.5 72.5t-27.5 72.5t-68.5 27.5t-68.5 -27.5
t-27.5 -72.5t27.5 -72.5t68.5 -27.5z" />
    <glyph glyph-name="dollar.PPF" horiz-adv-x="524" 
d="M28 192h88q4 -61 42 -94.5t98 -33.5q64 0 100 31.5t36 88.5q0 46 -30 72t-86 44l-88 28q-148 47 -148 184q0 73 48 122.5t124 61.5v108h88v-108q69 -12 116 -60t52 -120h-88q-8 55 -42 81.5t-82 26.5q-53 0 -88.5 -26t-35.5 -78q0 -48 26.5 -73t85.5 -43l88 -28
q78 -25 115 -70.5t37 -117.5q0 -81 -50.5 -133.5t-133.5 -63.5v-111h-88v111q-83 11 -132 64t-52 137z" />
    <glyph glyph-name="cent.PPF" horiz-adv-x="516" 
d="M228 -12v107q-89 14 -138.5 81t-49.5 172q0 103 53 171t139 82v99h88v-100q70 -12 112.5 -58.5t51.5 -113.5h-88q-8 45 -39 72.5t-85 27.5q-61 0 -100.5 -50t-39.5 -130t39.5 -130t100.5 -50q54 0 85 27.5t39 72.5h88q-9 -69 -52.5 -115t-115.5 -58v-107h-88z" />
    <glyph glyph-name="Euro.PPF" horiz-adv-x="600" 
d="M32 396l16 56h58q22 113 87 180.5t167 67.5q187 0 224 -180h-85q-34 108 -135 108q-61 0 -105 -46.5t-61 -129.5h202l-16 -56h-194q-2 -17 -2 -52q0 -27 1 -40h191l-16 -56h-169q15 -89 58.5 -138.5t106.5 -49.5q96 0 132 88h86q-20 -77 -76.5 -118.5t-145.5 -41.5
q-108 0 -172 70t-81 190h-91l16 56h69q-1 13 -1 40q0 35 2 52h-66z" />
    <glyph glyph-name="yen.PPF" horiz-adv-x="536" 
d="M100 688l170 -296h4l170 296h92l-224 -381v-3h152v-56h-152v-76h152v-56h-152v-116h-88v116h-152v56h152v76h-152v56h152v6l-224 378h100z" />
    <glyph glyph-name="sterling.PPF" horiz-adv-x="548" 
d="M48 326v62h87q-27 85 -27 136q0 80 50.5 128t133.5 48q81 0 127.5 -45.5t52.5 -130.5h-88q-5 54 -28.5 79t-67.5 25q-39 0 -65.5 -26t-26.5 -70q0 -51 33 -144h159v-62h-138q14 -52 14 -90q0 -54 -14 -105q4 -3 16 -11l16.5 -11l15 -10t16 -10l15 -8t16.5 -7t15.5 -5
t16 -4t15.5 -1q64 0 68 100h76q-13 -176 -148 -176q-28 0 -60 13.5t-51 26.5t-53 39q-45 -79 -128 -79q-48 0 -76 26t-28 66q0 51 32.5 79.5t83.5 28.5q31 0 70 -16q2 22 2 32q0 48 -24 122h-108zM98 40q46 0 68 68q-38 24 -66 24q-20 0 -34 -13t-14 -33q0 -21 12 -33.5
t34 -12.5z" />
    <glyph glyph-name="florin.PPF" horiz-adv-x="484" 
d="M48 292v64h126l19 180q9 82 51.5 123t109.5 41q145 0 131 -148l-4 -44h-79l3 44q5 76 -55 76q-59 0 -69 -92l-19 -180h154v-64h-161l-33 -320q-9 -82 -51.5 -123t-109.5 -41q-145 0 -131 148l4 44h79l-3 -44q-5 -76 55 -76q59 0 69 92l33 320h-119z" />
    <glyph glyph-name="zero.scppf" horiz-adv-x="520" 
d="M260 -12q-106 0 -159 75.5t-53 196.5t53 196.5t159 75.5t159 -75.5t53 -196.5t-53 -196.5t-159 -75.5zM260 60q58 0 89 52.5t31 147.5q0 96 -30.5 148t-89.5 52t-89.5 -52t-30.5 -148q0 -95 31 -147.5t89 -52.5z" />
    <glyph glyph-name="one.scppf" horiz-adv-x="320" 
d="M44 352l-36 64l160 104h64v-520h-88v415z" />
    <glyph glyph-name="two.scppf" horiz-adv-x="464" 
d="M40 0q3 88 34.5 139t101.5 93l68 40q51 30 71.5 51t20.5 57q0 33 -25.5 56.5t-74.5 23.5q-100 0 -108 -96h-80q4 87 57 127.5t131 40.5q83 0 133.5 -39.5t50.5 -108.5q0 -41 -18.5 -73t-39.5 -48.5t-62 -42.5l-68 -40q-54 -34 -71.5 -57t-20.5 -51h288v-72h-388z" />
    <glyph glyph-name="three.scppf" horiz-adv-x="464" 
d="M28 152h84q0 -48 32 -72t84 -24q53 0 84.5 22.5t31.5 69.5q0 41 -31.5 64.5t-80.5 23.5h-44v68h44q41 0 68.5 22t27.5 58q0 37 -27 58.5t-73 21.5q-42 0 -71 -22t-29 -62h-76q0 69 49 110.5t127 41.5q84 0 132 -41t48 -107q0 -38 -21.5 -68.5t-58.5 -41.5v-4
q46 -14 75 -48.5t29 -81.5q0 -72 -57.5 -112t-146.5 -40q-93 0 -146.5 40.5t-53.5 123.5z" />
    <glyph glyph-name="four.scppf" horiz-adv-x="472" 
d="M20 116v60l276 344h72v-332h80v-72h-80v-116h-88v116h-260zM113 188h167v210z" />
    <glyph glyph-name="five.scppf" horiz-adv-x="468" 
d="M44 136h88q6 -32 33 -54t75 -22q46 0 77 28t31 76q0 45 -30.5 72.5t-73.5 27.5q-61 0 -100 -52l-84 8l16 300h328v-76h-248l-8 -148h4q42 40 104 40q78 0 129 -46t51 -126q0 -81 -57 -128.5t-139 -47.5q-89 0 -139 39.5t-57 108.5z" />
    <glyph glyph-name="six.scppf" horiz-adv-x="496" 
d="M268 460q-119 0 -128 -184q17 27 54 43.5t78 16.5q82 0 133 -45.5t51 -126.5q0 -82 -56.5 -129t-139.5 -47q-97 0 -154.5 62t-57.5 198q0 147 61.5 215.5t158.5 68.5q83 0 127.5 -39t52.5 -105h-88q-14 72 -92 72zM260 260q-48 0 -78 -27t-30 -73q0 -43 30.5 -69.5
t77.5 -26.5q49 0 78.5 27t29.5 73q0 43 -30 69.5t-78 26.5z" />
    <glyph glyph-name="seven.scppf" horiz-adv-x="420" 
d="M64 0l236 440h-272v80h372v-56l-244 -464h-92z" />
    <glyph glyph-name="eight.scppf" horiz-adv-x="480" 
d="M36 140q0 47 29 81.5t75 48.5v4q-36 11 -58 41.5t-22 68.5q0 66 48.5 107t131.5 41t131.5 -41t48.5 -107q0 -38 -22 -68.5t-58 -41.5v-4q46 -14 75 -48.5t29 -81.5q0 -73 -56 -112.5t-148 -39.5t-148 39.5t-56 112.5zM124 144q0 -41 32.5 -64.5t83.5 -23.5t83.5 23.5
t32.5 64.5q0 42 -33 67t-83 25t-83 -25t-33 -67zM140 384q0 -38 28.5 -59t71.5 -21t71.5 21t28.5 59q0 36 -28.5 58t-71.5 22t-71.5 -22t-28.5 -58z" />
    <glyph glyph-name="nine.scppf" horiz-adv-x="500" 
d="M240 60q113 0 119 183q-17 -27 -53.5 -43t-77.5 -16q-82 0 -133 45.5t-51 126.5q0 82 56.5 129t139.5 47q97 0 154.5 -62t57.5 -198q0 -148 -58.5 -216t-153.5 -68q-84 0 -132 39.5t-56 104.5h88q6 -30 31 -51t69 -21zM240 260q48 0 78 27.5t30 72.5q0 43 -30.5 69.5
t-77.5 26.5q-49 0 -78.5 -27t-29.5 -73q0 -43 30 -69.5t78 -26.5z" />
    <glyph glyph-name="slashedzero.scppf" horiz-adv-x="520" 
d="M260 -12q-106 0 -159 75.5t-53 196.5t53 196.5t159 75.5t159 -75.5t53 -196.5t-53 -196.5t-159 -75.5zM140 260q0 -86 24 -135l151 320q-24 15 -55 15q-59 0 -89.5 -52t-30.5 -148zM260 60q58 0 89 52.5t31 147.5q0 85 -24 136l-151 -321q24 -15 55 -15z" />
    <glyph glyph-name="currency.scppf" horiz-adv-x="472" 
d="M84 64l-44 44l58 59q-30 46 -30 93q0 49 32 95l-60 61l44 44l60 -62q40 26 92 26q51 0 91 -26l61 62l44 -44l-60 -61q32 -46 32 -95q0 -46 -31 -93l59 -59l-44 -44l-58 59q-39 -27 -94 -27t-94 27zM236 160q41 0 68.5 27.5t27.5 72.5t-27.5 72.5t-68.5 27.5t-68.5 -27.5
t-27.5 -72.5t27.5 -72.5t68.5 -27.5z" />
    <glyph glyph-name="dollar.scppf" horiz-adv-x="468" 
d="M40 148h84q3 -40 34 -66t78 -26q49 0 78.5 21t29.5 59q0 36 -21.5 53.5t-70.5 30.5l-72 20q-57 15 -92.5 46t-35.5 94q0 58 39 98.5t105 50.5v87h80v-88q59 -10 97.5 -47.5t42.5 -92.5h-84q-6 35 -32.5 55.5t-63.5 20.5q-43 0 -69.5 -18.5t-26.5 -53.5q0 -32 20 -49
t68 -31l72 -20q68 -18 100 -53t32 -95q0 -64 -42 -104.5t-114 -48.5v-91h-80v91q-69 10 -111.5 51.5t-44.5 105.5z" />
    <glyph glyph-name="cent.scppf" horiz-adv-x="456" 
d="M200 -12v79q-78 12 -121 66t-43 131q0 76 44.5 128.5t123.5 64.5v75h80v-75q62 -10 100.5 -48t43.5 -89h-88q-5 28 -30.5 48t-65.5 20q-58 0 -87 -34.5t-29 -89.5t29.5 -91.5t82.5 -36.5q42 0 68 22t32 50h84q-5 -51 -44.5 -90.5t-99.5 -50.5v-79h-80z" />
    <glyph glyph-name="Euro.scppf" horiz-adv-x="516" 
d="M11 185l14 48h55v27q0 22 1 33h-54l15 48h45q17 88 73 139.5t148 51.5q83 0 132 -41.5t60 -110.5h-80q-6 36 -34.5 58t-73.5 22q-105 0 -132 -119h162l-15 -48h-154q-1 -11 -1 -33q0 -19 1 -27h151l-15 -48h-131q25 -125 134 -125q82 0 104 68h80q-13 -65 -61 -102.5
t-127 -37.5q-94 0 -149.5 53.5t-72.5 143.5h-75z" />
    <glyph glyph-name="yen.scppf" horiz-adv-x="440" 
d="M92 520l133 -216h2l133 216h92l-183 -292h119v-48h-120v-52h120v-48h-120v-80h-88v80h-124v48h124v52h-124v48h118l-186 292h104z" />
    <glyph glyph-name="sterling.scppf" horiz-adv-x="480" 
d="M64 242v54h69q-25 58 -25 92q0 67 43 105.5t117 38.5q70 0 108.5 -35.5t43.5 -100.5h-80q-9 68 -72 68q-32 0 -52 -19t-20 -53q0 -36 27 -96h129v-54h-107q11 -30 11 -62q0 -37 -12 -73q26 -18 37 -25t31 -16t36 -9q26 0 36 16.5t12 50.5h72q-3 -65 -29.5 -100.5
t-86.5 -35.5q-24 0 -50.5 11.5t-41 22.5l-41.5 33q-43 -63 -107 -63q-45 0 -70.5 21.5t-25.5 58.5q0 41 28.5 64.5t71.5 23.5q29 0 60 -13v17q0 33 -18 78h-94zM112 40q44 0 58 53q-31 19 -54 19t-33.5 -10.5t-10.5 -25.5t10.5 -25.5t29.5 -10.5z" />
    <glyph glyph-name="florin.scppf" horiz-adv-x="432" 
d="M52 212v56h105l15 132q15 132 140 132q60 0 93 -30t26 -90l-4 -32h-75l4 28q4 28 -7.5 44t-36.5 16q-44 0 -52 -68l-15 -132h123v-56h-130l-26 -232q-15 -132 -140 -132q-60 0 -93 30t-26 90l4 32h75l-4 -28q-4 -28 7.5 -44t36.5 -16q44 0 52 68l26 232h-98z" />
    <glyph glyph-name="slashedzero.oldstyle" horiz-adv-x="584" 
d="M40 244q0 113 71.5 184.5t180.5 71.5q114 0 183 -71t69 -185q0 -113 -71.5 -184.5t-180.5 -71.5q-114 0 -183 71t-69 185zM132 244q0 -70 36 -119l203 279q-35 20 -79 20q-70 0 -115 -50t-45 -130zM452 244q0 71 -35 119l-204 -279q35 -20 79 -20q70 0 115 50t45 130z
" />
    <glyph glyph-name="plus.sc" horiz-adv-x="504" 
d="M60 224v76h152v156h80v-156h152v-76h-152v-156h-80v156h-152z" />
    <glyph glyph-name="minus.sc" horiz-adv-x="504" 
d="M60 224v76h384v-76h-384z" />
    <glyph glyph-name="multiply.sc" horiz-adv-x="504" 
d="M124 80l-52 52l126 130l-126 130l52 52l126 -129l126 129l52 -52l-127 -130l127 -130l-52 -52l-126 129z" />
    <glyph glyph-name="divide.sc" horiz-adv-x="504" 
d="M208 372v92h88v-92h-88zM60 224v76h384v-76h-384zM208 56v92h88v-92h-88z" />
    <glyph glyph-name="equal.sc" horiz-adv-x="504" 
d="M60 308v76h384v-76h-384zM60 140v76h384v-76h-384z" />
    <glyph glyph-name="less.sc" horiz-adv-x="504" 
d="M432 148v-80l-360 160v72l360 160v-80l-271 -116z" />
    <glyph glyph-name="greater.sc" horiz-adv-x="504" 
d="M72 380v80l360 -160v-72l-360 -160v80l270 116z" />
    <glyph glyph-name="plusminus.sc" horiz-adv-x="504" 
d="M80 244v72h132v124h76v-124h132v-72h-132v-124h-76v124h-132zM80 0v72h340v-72h-340z" />
    <glyph glyph-name="lessequal.sc" horiz-adv-x="504" 
d="M420 368l-246 -88l246 -88v-76l-340 128v72l340 128v-76zM80 0v72h340v-72h-340z" />
    <glyph glyph-name="greaterequal.sc" horiz-adv-x="504" 
d="M84 368v76l340 -128v-72l-340 -128v76l246 88zM84 72h340v-72h-340v72z" />
    <glyph glyph-name="notequal.sc" horiz-adv-x="504" 
d="M60 308v76h226l58 100l56 -32l-40 -68h84v-76h-128l-54 -92h182v-76h-226l-58 -100l-56 32l39 68h-83v76h128l53 92h-181z" />
    <glyph glyph-name="logicalnot.sc" horiz-adv-x="504" 
d="M60 224v76h384v-232h-80v156h-304z" />
    <glyph glyph-name="asciitilde.sc" horiz-adv-x="504" 
d="M56 196q0 68 33 102t79 34q42 0 94 -28t74 -28q40 0 40 56h72q0 -68 -32.5 -100t-79.5 -32q-39 0 -92 28t-76 28q-40 0 -40 -60h-72z" />
    <glyph glyph-name="approxequal.sc" horiz-adv-x="504" 
d="M56 104q0 68 33 102t79 34q42 0 94 -28t74 -28q40 0 40 56h72q0 -68 -32.5 -100t-79.5 -32q-39 0 -92 28t-76 28q-40 0 -40 -60h-72zM56 280q0 68 33 102t79 34q42 0 94 -28t74 -28q40 0 40 56h72q0 -68 -32.5 -100t-79.5 -32q-39 0 -92 28t-76 28q-40 0 -40 -60h-72z
" />
    <glyph glyph-name="infinity.sc" horiz-adv-x="608" 
d="M164 124q-62 0 -101 37.5t-39 98.5t39 98.5t101 37.5q82 0 140 -85q58 85 140 85q62 0 101 -37.5t39 -98.5t-39 -98.5t-101 -37.5q-82 0 -140 84q-58 -84 -140 -84zM164 188q50 0 100 72q-50 72 -100 72q-31 0 -51.5 -20t-20.5 -52t20.5 -52t51.5 -20zM344 260
q50 -72 100 -72q31 0 51.5 20t20.5 52t-20.5 52t-51.5 20q-50 0 -100 -72z" />
    <glyph glyph-name="numbersign.sc" horiz-adv-x="504" 
d="M40 344v64h104l20 112h76l-20 -112h136l20 112h76l-20 -112h80v-64h-91l-28 -156h91v-64h-102l-22 -124h-76l22 124h-136l-22 -124h-76l22 124h-82v64h93l28 156h-93zM209 344l-28 -156h136l28 156h-136z" />
    <glyph glyph-name="percent.sc" horiz-adv-x="587" 
d="M133 254q-56 0 -84 36.5t-28 99.5t28 99.5t84 36.5q57 0 84.5 -36.5t27.5 -99.5t-27.5 -99.5t-84.5 -36.5zM133 303q50 0 50 87t-50 87t-50 -87t50 -87zM118 -9l295 538h56l-296 -538h-55zM454 -6q-56 0 -84 36.5t-28 99.5t28 99.5t84 36.5q57 0 84.5 -36.5t27.5 -99.5
t-27.5 -99.5t-84.5 -36.5zM454 43q50 0 50 87t-50 87t-50 -87t50 -87z" />
    <glyph glyph-name="perthousand.sc" horiz-adv-x="863" 
d="M133 254q-56 0 -84 36.5t-28 99.5t28 99.5t84 36.5q57 0 84.5 -36.5t27.5 -99.5t-27.5 -99.5t-84.5 -36.5zM133 303q50 0 50 87t-50 87t-50 -87t50 -87zM118 -9l295 538h56l-296 -538h-55zM454 -6q-56 0 -84 36.5t-28 99.5t28 99.5t84 36.5q57 0 84.5 -36.5t27.5 -99.5
t-27.5 -99.5t-84.5 -36.5zM454 43q50 0 50 87t-50 87t-50 -87t50 -87zM730 -6q-56 0 -84 36.5t-28 99.5t28 99.5t84 36.5q57 0 84.5 -36.5t27.5 -99.5t-27.5 -99.5t-84.5 -36.5zM730 43q50 0 50 87t-50 87t-50 -87t50 -87z" />
    <glyph glyph-name="hyphen.sc" horiz-adv-x="396" 
d="M60 224v80h276v-80h-276z" />
    <glyph glyph-name="endash.sc" horiz-adv-x="556" 
d="M60 224v80h436v-80h-436z" />
    <glyph glyph-name="emdash.sc" horiz-adv-x="840" 
d="M60 224v80h720v-80h-720z" />
    <glyph glyph-name="dagger.sc" horiz-adv-x="368" 
d="M44 328v64h104v128h72v-128h104v-64h-104v-328h-72v328h-104z" />
    <glyph glyph-name="daggerdbl.sc" horiz-adv-x="368" 
d="M44 336v64h104v120h72v-120h104v-64h-104v-156h104v-64h-104v-116h-72v116h-104v64h104v156h-104z" />
    <glyph glyph-name="parenleft.sc" horiz-adv-x="296" 
d="M280 -92h-76q-45 59 -80.5 156t-35.5 196q0 100 35.5 196.5t80.5 155.5h76q-44 -58 -78 -156t-34 -196t34.5 -196t77.5 -156z" />
    <glyph glyph-name="parenright.sc" horiz-adv-x="296" 
d="M16 -92q43 58 77.5 156t34.5 196t-34 196t-78 156h76q45 -59 80.5 -155.5t35.5 -196.5q0 -99 -35.5 -196t-80.5 -156h-76z" />
    <glyph glyph-name="bracketleft.sc" horiz-adv-x="296" 
d="M88 -92v704h192v-68h-116v-568h116v-68h-192z" />
    <glyph glyph-name="bracketright.sc" horiz-adv-x="296" 
d="M16 -24h116v568h-116v68h192v-704h-192v68z" />
    <glyph glyph-name="braceleft.sc" horiz-adv-x="304" 
d="M112 36v88q0 63 -20 87.5t-72 24.5v52q52 0 72 24.5t20 87.5v84q0 64 29.5 96t102.5 32h44v-64h-36q-39 0 -53.5 -14t-14.5 -50v-104q0 -92 -88 -116v-4q88 -24 88 -116v-108q0 -36 14.5 -50t53.5 -14h36v-64h-44q-73 0 -102.5 32t-29.5 96z" />
    <glyph glyph-name="braceright.sc" horiz-adv-x="304" 
d="M16 -28h36q39 0 53.5 14t14.5 50v108q0 92 88 116v4q-88 24 -88 116v104q0 36 -14.5 50t-53.5 14h-36v64h44q73 0 102.5 -32t29.5 -96v-84q0 -63 20 -87.5t72 -24.5v-52q-52 0 -72 -24.5t-20 -87.5v-88q0 -64 -29.5 -96t-102.5 -32h-44v64z" />
    <glyph glyph-name="slash.sc" horiz-adv-x="324" 
d="M8 -12l232 544h76l-232 -544h-76z" />
    <glyph glyph-name="backslash.sc" horiz-adv-x="324" 
d="M240 -12l-232 544h76l232 -544h-76z" />
    <glyph glyph-name="quoteleft.sc" horiz-adv-x="256" 
d="M76 268v100l40 152h48l-28 -144h44v-108h-104z" />
    <glyph glyph-name="quotedblleft.sc" horiz-adv-x="436" 
d="M76 268v100l40 152h48l-28 -144h44v-108h-104zM256 268v100l40 152h48l-28 -144h44v-108h-104z" />
    <glyph glyph-name="quoteright.sc" horiz-adv-x="256" 
d="M92 268l28 144h-44v108h104v-100l-40 -152h-48z" />
    <glyph glyph-name="quotedblright.sc" horiz-adv-x="436" 
d="M92 268l28 144h-44v108h104v-100l-40 -152h-48zM272 268l28 144h-44v108h104v-100l-40 -152h-48z" />
    <glyph glyph-name="guilsinglleft.sc" horiz-adv-x="285" 
d="M161 105l-109 159l109 158h72l-90 -158l90 -159h-72z" />
    <glyph glyph-name="guilsinglright.sc" horiz-adv-x="285" 
d="M52 105l90 159l-90 158h72l109 -158l-109 -159h-72z" />
    <glyph glyph-name="guillemotleft.sc" horiz-adv-x="443" 
d="M319 105l-108 159l108 158h72l-90 -158l90 -159h-72zM160 105l-108 159l108 158h72l-90 -158l90 -159h-72z" />
    <glyph glyph-name="guillemotright.sc" horiz-adv-x="443" 
d="M211 105l90 159l-90 158h72l108 -158l-108 -159h-72zM52 105l90 159l-90 158h72l108 -158l-108 -159h-72z" />
    <glyph glyph-name="quotesingle.sc" horiz-adv-x="216" 
d="M80 268l-16 168v84h88v-84l-16 -168h-56z" />
    <glyph glyph-name="quotedbl.sc" horiz-adv-x="392" 
d="M80 268l-16 168v84h88v-84l-16 -168h-56zM256 268l-16 168v84h88v-84l-16 -168h-56z" />
    <glyph glyph-name="asterisk.sc" horiz-adv-x="456" 
d="M192 528h72l-17 -134l122 58l22 -69l-131 -26l91 -97l-58 -42l-66 116l-64 -116l-58 42l90 98l-130 25l22 69l121 -57z" />
    <glyph glyph-name="degree.sc" horiz-adv-x="360" 
d="M180 260q-60 0 -100 38t-40 98t40 98t100 38t100 -38t40 -98t-40 -98t-100 -38zM180 468q-30 0 -49 -20t-19 -52t19 -52t49 -20t49 20t19 52t-19 52t-49 20z" />
    <glyph glyph-name="bullet.sc" horiz-adv-x="408" 
d="M204 132q-55 0 -93.5 38.5t-38.5 93.5t38.5 93.5t93.5 38.5t93.5 -38.5t38.5 -93.5t-38.5 -93.5t-93.5 -38.5z" />
    <glyph glyph-name="periodcentered.sc" horiz-adv-x="256" 
d="M72 208v112h112v-112h-112z" />
    <glyph glyph-name="paragraph.sc" horiz-adv-x="517" 
d="M348 0v520h81v-520h-81zM201 0v188q-75 8 -118 51.5t-43 114.5q0 76 51 121t140 45h51v-520h-81z" />
    <glyph glyph-name="section.sc" horiz-adv-x="429" 
d="M44 -52h76q3 -30 27.5 -45t60.5 -15q42 0 65 17.5t23 50.5q0 27 -17 41t-55 27l-72 24q-60 20 -86 48t-26 76q0 79 83 113q-71 36 -71 108q0 61 45 98.5t123 37.5q73 0 116.5 -30.5t47.5 -89.5h-76q-3 30 -27.5 45t-60.5 15q-42 0 -65 -17.5t-23 -50.5q0 -27 17 -41
t55 -27l72 -24q60 -20 86 -48t26 -76q0 -80 -83 -114q71 -35 71 -107q0 -61 -45 -98.5t-123 -37.5q-73 0 -116.5 30.5t-47.5 89.5zM236 245l-46 15q-35 -10 -54.5 -30.5t-19.5 -45.5q0 -30 17 -44t59 -28l45 -15q35 10 55 30.5t20 45.5q0 30 -17 44t-59 28z" />
    <glyph glyph-name="copyright.sc" horiz-adv-x="612" 
d="M40 264q0 115 74.5 191.5t189.5 76.5q114 0 191 -77t77 -191q0 -115 -76.5 -195.5t-191.5 -80.5q-114 0 -189 80t-75 196zM96 264q0 -93 59 -158.5t149 -65.5q88 0 150 66t62 158q0 91 -60.5 153.5t-151.5 62.5t-149.5 -62t-58.5 -154zM176 264q0 58 35 97t97 39
q47 0 78 -25.5t38 -66.5h-60q-13 40 -56 40q-33 0 -52.5 -23.5t-19.5 -60.5t19.5 -60.5t52.5 -23.5q43 0 56 40h60q-7 -41 -38 -66.5t-78 -25.5q-62 0 -97 39t-35 97z" />
    <glyph glyph-name="registered.sc" horiz-adv-x="612" 
d="M40 264q0 115 74.5 191.5t189.5 76.5q114 0 191 -77t77 -191q0 -115 -76.5 -195.5t-191.5 -80.5q-114 0 -189 80t-75 196zM96 264q0 -93 59 -158.5t149 -65.5q88 0 150 66t62 158q0 91 -60.5 153.5t-151.5 62.5t-149.5 -62t-58.5 -154zM196 136v256h124q49 0 74.5 -22
t25.5 -62q0 -26 -15.5 -48t-41.5 -32l61 -92h-64l-56 84h-44v-84h-64zM312 342h-52v-72h52q44 0 44 38q0 34 -44 34z" />
    <glyph glyph-name="trademark.sc" horiz-adv-x="624" 
d="M276 260v260h88l66 -176h2l68 176h84v-260h-60l3 180h-3l-72 -180h-48l-68 180h-4l4 -180h-60zM4 468v52h236v-52h-84v-208h-64v208h-88z" />
    <glyph glyph-name="ordfeminine.sc" horiz-adv-x="292" 
d="M114 254q-41 0 -64 20t-23 54q0 67 87 79l49 6q21 3 27.5 7t6.5 15q0 20 -13 33.5t-37 13.5q-48 0 -51 -45h-57q3 45 33 67.5t75 22.5q52 0 81 -24t29 -70v-173h-58v31h-2q-25 -37 -83 -37zM197 364v24q-5 -9 -26 -12l-42 -6q-41 -5 -41 -37q0 -37 43 -37q28 0 47 17
t19 51z" />
    <glyph glyph-name="ordmasculine.sc" horiz-adv-x="312" 
d="M156 254q-61 0 -97 37t-36 99t36.5 99.5t96.5 37.5q61 0 97.5 -37.5t36.5 -99.5t-37 -99t-97 -37zM156 302q32 0 51.5 24.5t19.5 63.5q0 40 -19.5 64t-51.5 24t-51.5 -24t-19.5 -64q0 -39 19.5 -63.5t51.5 -24.5z" />
    <glyph glyph-name="bullet.cap" horiz-adv-x="488" 
d="M244 176q-73 0 -122.5 49.5t-49.5 122.5t49.5 122.5t122.5 49.5t122.5 -49.5t49.5 -122.5t-49.5 -122.5t-122.5 -49.5z" />
    <glyph glyph-name="a.denominator" horiz-adv-x="388" 
d="M36 90q0 89 115 105l65 8q28 4 36 9.5t8 19.5q0 27 -16 44t-48 17q-65 0 -69 -59h-75q4 60 44 89t100 29q69 0 106.5 -31t37.5 -92v-229h-77v41h-3q-29 -49 -109 -49q-54 0 -84.5 27t-30.5 71zM260 139v30q-9 -13 -34 -16l-56 -7q-54 -7 -54 -50q0 -23 15 -35.5t42 -12.5
q38 0 62.5 23.5t24.5 67.5z" />
    <glyph glyph-name="b.denominator" horiz-adv-x="429" 
d="M52 0v516h80v-110q0 -67 -4 -116h3q30 63 117 63q64 0 106.5 -47.5t42.5 -130.5t-45.5 -133t-110.5 -50q-80 0 -110 62h-3v-54h-76zM132 172q0 -53 26 -84.5t66 -31.5q39 0 64.5 33t25.5 86t-25 83t-65 30t-65.5 -30t-26.5 -81v-5z" />
    <glyph glyph-name="c.denominator" horiz-adv-x="390" 
d="M32 172q0 78 48 129.5t127 51.5q69 0 110 -36t45 -91h-79q-4 26 -23.5 44t-52.5 18q-43 0 -67.5 -33.5t-24.5 -82.5q0 -50 23.5 -83t64.5 -33q35 0 55 18t25 44h79q-5 -55 -47.5 -90.5t-111.5 -35.5q-80 0 -125.5 50.5t-45.5 129.5z" />
    <glyph glyph-name="d.denominator" horiz-adv-x="428" 
d="M32 169q0 83 46 133.5t110 50.5q80 0 110 -63h3q-4 49 -4 111v115h80v-516h-76v54h-3q-30 -62 -116 -62q-64 0 -107 47t-43 130zM115 169q0 -53 25 -83t66 -30q38 0 64 29.5t27 80.5v6q0 53 -25.5 84.5t-65.5 31.5t-65.5 -32.5t-25.5 -86.5z" />
    </font>
</defs>
</svg>
