<?xml version="1.0" standalone="no"?>
<!DOCTYPE svg PUBLIC "-//W3C//DTD SVG 1.1//EN" "http://www.w3.org/Graphics/SVG/1.1/DTD/svg11.dtd" >
<svg xmlns="http://www.w3.org/2000/svg" xmlns:xlink="http://www.w3.org/1999/xlink" version="1.1">
<metadata></metadata>
<defs>
<font id="balooregular" horiz-adv-x="1200" >
<font-face units-per-em="2048" ascent="1638" descent="-410" />
<missing-glyph horiz-adv-x="409" />
<glyph unicode="&#xfb01;" horiz-adv-x="1452" d="M111 995q0 104 35.5 179t97 123.5t144.5 71t177 22.5q152 0 223.5 -40t71.5 -137q0 -41 -17.5 -73.5t-37.5 -48.5q-39 10 -81 17t-97 7q-88 0 -137.5 -29.5t-49.5 -103.5v-65h336q12 -23 23.5 -57t11.5 -75q0 -72 -31.5 -103.5t-85.5 -31.5h-235v-649q-20 -6 -64.5 -12 t-91.5 -6q-45 0 -81 6t-60.5 24.5t-37.5 50t-13 82.5v848zM973 1272q0 78 52 131t138 53t138.5 -53t52.5 -131t-52.5 -131.5t-138.5 -53.5t-138 53.5t-52 131.5zM1337 2q-23 -4 -66.5 -11t-88.5 -7t-81 6t-60.5 24.5t-38 50t-13.5 82.5v834q23 4 67 11t89 7t81 -6 t60.5 -24.5t37.5 -50t13 -82.5v-834z" />
<glyph unicode="&#xfb02;" horiz-adv-x="1454" d="M111 995q0 104 35.5 179t97 123.5t144.5 71t177 22.5q152 0 223.5 -40t71.5 -137q0 -41 -17.5 -73.5t-37.5 -48.5q-39 10 -81 17t-97 7q-88 0 -137.5 -29.5t-49.5 -103.5v-65h336q12 -23 23.5 -57t11.5 -75q0 -72 -31.5 -103.5t-85.5 -31.5h-235v-649q-20 -6 -64.5 -12 t-91.5 -6q-45 0 -81 6t-60.5 24.5t-37.5 50t-13 82.5v848zM1341 2q-23 -4 -66.5 -11t-88.5 -7t-81 6t-60.5 24.5t-38 50t-13.5 82.5v1188q23 4 67 11.5t89 7.5t81 -6.5t60.5 -24.5t37.5 -50t13 -83v-1188z" />
<glyph horiz-adv-x="0" />
<glyph horiz-adv-x="682" />
<glyph horiz-adv-x="0" />
<glyph horiz-adv-x="0" />
<glyph unicode="&#xd;" horiz-adv-x="456" />
<glyph unicode=" "  horiz-adv-x="409" />
<glyph unicode="&#x09;" horiz-adv-x="409" />
<glyph unicode="&#xa0;" horiz-adv-x="409" />
<glyph unicode="!" horiz-adv-x="610" d="M485 1188q0 -47 -2 -136t-8 -192.5t-16 -207t-25 -179.5q-8 -6 -24.5 -12t-35 -10.5t-37 -6.5t-32.5 -2q-59 0 -99 18.5t-50 71.5q-10 47 -17.5 143.5t-13.5 209t-9 223.5t-3 188q41 23 93 36.5t103 13.5q84 0 130 -39t46 -119zM109 156q0 84 52 138t144 54t144.5 -54 t52.5 -138t-52.5 -138.5t-144.5 -54.5t-144 54.5t-52 138.5z" />
<glyph unicode="&#x22;" horiz-adv-x="839" d="M324 827q-23 -12 -53.5 -16t-65.5 -4q-51 0 -87 19.5t-40 70.5l-27 408q61 49 164 49q72 0 114 -27t42 -96q0 -29 -4.5 -80t-11.5 -109.5t-15 -116t-16 -98.5zM735 827q-23 -12 -53.5 -16t-65.5 -4q-51 0 -86.5 19.5t-40.5 70.5l-26 408q61 49 164 49q72 0 113.5 -27 t41.5 -96q0 -29 -4 -80t-11 -109.5t-15.5 -116t-16.5 -98.5z" />
<glyph unicode="#" horiz-adv-x="1462" d="M991 2q-29 -4 -52.5 -5t-45.5 -1q-86 0 -127 32.5t-41 106.5q0 47 12 107l4 22h-184l-57 -262q-29 -4 -52.5 -5t-46.5 -1q-86 0 -127 32.5t-41 106.5q0 47 13 107l4 22h-154q-10 23 -22.5 56.5t-12.5 68.5q0 72 34 103.5t83 31.5h129l45 207h-200q-10 23 -22.5 56.5 t-12.5 68.5q0 72 33.5 103.5t82.5 31.5h177l59 264q29 4 53.5 4.5t46.5 0.5q86 0 128 -32t42 -106q0 -23 -4 -51.5t-10 -56.5l-6 -23h182l60 264q29 4 53 4.5t47 0.5q86 0 128 -32t42 -106q0 -23 -4 -51.5t-10 -56.5l-7 -23h154q14 -20 25.5 -55t11.5 -72q0 -72 -34 -102.5 t-81 -30.5h-133l-45 -207h201q14 -20 25.5 -55t11.5 -72q0 -72 -34 -102.5t-81 -30.5h-182zM616 524h183l45 207h-182z" />
<glyph unicode="$" horiz-adv-x="1157" d="M494 494q-90 31 -164 62.5t-127 76.5t-83 107.5t-30 152.5q0 139 86 234.5t246 129.5v166q18 4 57 10.5t80 6.5q80 0 125 -28t45 -118v-26q127 -16 204 -65.5t77 -135.5q0 -53 -24.5 -91t-59.5 -65q-45 29 -121 50.5t-166 21.5q-92 0 -135 -25.5t-43 -64.5 q0 -31 26.5 -50.5t79.5 -35.5l109 -35q193 -61 296 -156.5t103 -259.5q0 -139 -88 -236t-258 -132v-164q-18 -4 -57 -10.5t-80 -6.5q-80 0 -125 28t-45 118v20q-74 8 -134.5 26.5t-104.5 47.5t-68.5 68t-24.5 88q0 59 35 101t76 65q57 -45 140 -78t181 -33q100 0 141.5 30.5 t41.5 71.5t-33 62.5t-92 42.5z" />
<glyph unicode="%" horiz-adv-x="1636" d="M1102 1264q70 -10 124 -38t58 -75q0 -33 -16.5 -67.5t-42.5 -71.5l-709 -1026q-66 10 -110 37.5t-48 74.5q0 33 5.5 65t31.5 73zM719 938q0 -154 -92 -240t-238 -86q-147 0 -238.5 86t-91.5 240q0 152 91.5 238t238.5 86q145 0 237.5 -86t92.5 -238zM307 938 q0 -61 23.5 -91t58.5 -30t58.5 30t23.5 91q0 59 -23.5 88t-58.5 29t-58.5 -29t-23.5 -88zM1577 309q0 -154 -92 -239.5t-238 -85.5q-147 0 -238 86t-91 239q0 152 91 238t238 86q145 0 237.5 -86t92.5 -238zM1165 309q0 -61 23.5 -91t58.5 -30t58.5 30t23.5 91 q0 59 -23.5 88t-58.5 29t-58.5 -29t-23.5 -88z" />
<glyph unicode="&#x26;" horiz-adv-x="1378" d="M956 774q39 16 73 23.5t69 7.5q49 0 79.5 -14.5t48 -40t23.5 -60.5t6 -76q0 -166 -84 -315l158 -152q-4 -78 -53 -127t-117 -49q-82 0 -160 78l-38 37q-76 -55 -173.5 -87t-216.5 -32q-121 0 -213 32t-155.5 87t-96 130t-32.5 163q0 76 22.5 135t59.5 104.5t82 77 t92 52.5q-41 49 -58.5 104t-17.5 104q0 63 26.5 118.5t76 96.5t120 63.5t160.5 22.5q129 0 182 -46t53 -117q0 -35 -13 -68t-40 -59q-23 10 -52.5 16t-61.5 6q-53 0 -88 -16.5t-35 -59.5q0 -31 26.5 -62.5t65.5 -70.5l262 -254q10 45 15 106.5t5 141.5zM401 401 q0 -72 48.5 -120t142.5 -48q41 0 86 11.5t86 38.5l-262 264q-49 -23 -75 -62t-26 -84z" />
<glyph unicode="'" horiz-adv-x="448" d="M344 836q-23 -12 -55.5 -20.5t-73.5 -8.5q-55 0 -94 23.5t-43 74.5l-27 391q29 23 74 40.5t100 17.5q78 0 122 -31t44 -100q0 -29 -4 -78t-11 -104.5t-15.5 -109.5t-16.5 -95z" />
<glyph unicode="(" horiz-adv-x="624" d="M86 545q0 215 38 376.5t97 272.5q39 72 95.5 123t140.5 51q55 0 98 -30.5t66 -65.5q-49 -74 -87 -153t-64 -167t-39 -188t-13 -219t13 -219.5t39 -188.5t63.5 -167t87.5 -152q-23 -35 -66 -66t-98 -31q-84 0 -140.5 51.5t-95.5 123.5q-59 111 -97 272.5t-38 376.5z" />
<glyph unicode=")" horiz-adv-x="624" d="M539 545q0 -215 -38 -377t-98 -272q-39 -72 -95 -123.5t-140 -51.5q-55 0 -98 31t-66 66q49 74 87 152.5t63.5 166.5t39 188.5t13.5 219.5t-13.5 219t-39 188t-63.5 167t-87 153q23 35 66 65.5t98 30.5q84 0 140.5 -51t94.5 -123q59 -111 97.5 -272.5t38.5 -376.5z" />
<glyph unicode="*" horiz-adv-x="718" d="M629 813q-14 -45 -47 -73.5t-80 -28.5q-49 0 -74 27.5t-47 66.5l-16 29l-78 -117q-25 -6 -47 -6q-68 0 -103 26.5t-35 73.5q0 25 11.5 47.5t33.5 50.5l31 39l-125 35q-12 37 -12 76q0 51 29.5 79.5t83.5 28.5q14 0 31.5 -4t35.5 -10l31 -10v147q16 10 45 24.5t65 14.5 q47 0 76 -24.5t29 -73.5q0 -16 -1 -41t-3 -51l121 51q35 -16 59.5 -47t24.5 -74q0 -49 -26 -67.5t-71 -36.5l-36 -17z" />
<glyph unicode="+" horiz-adv-x="1116" d="M719 102q-16 -8 -60.5 -13t-85.5 -5q-84 0 -127 27.5t-43 117.5v226h-309q-14 23 -23.5 59.5t-9.5 73.5q0 74 33 107.5t88 33.5h221v344q20 6 62.5 13.5t83.5 7.5q82 0 126 -29t44 -121v-215h303q10 -25 21.5 -60.5t11.5 -74.5q0 -72 -33 -105.5t-86 -33.5h-217v-353z " />
<glyph unicode="," horiz-adv-x="497" d="M305 -150q-35 -45 -75 -65.5t-97 -20.5q-90 0 -153 52q45 127 75.5 261t50.5 242q35 18 84.5 32t98.5 14q63 0 111.5 -29t48.5 -103q0 -43 -12.5 -95t-33 -104t-46 -101.5t-52.5 -82.5z" />
<glyph unicode="-" horiz-adv-x="724" d="M100 381q-14 23 -26.5 59.5t-12.5 77.5q0 76 35 110t90 34h439q12 -23 25.5 -60t13.5 -78q0 -76 -35 -109.5t-90 -33.5h-439z" />
<glyph unicode="." horiz-adv-x="487" d="M45 166q0 86 53.5 143.5t145.5 57.5t145 -57.5t53 -143.5t-53 -143.5t-145 -57.5t-145.5 57.5t-53.5 143.5z" />
<glyph unicode="/" horiz-adv-x="702" d="M289 -217q-29 -4 -55.5 -5t-49.5 -1q-86 0 -132 36.5t-46 118.5q0 55 16.5 111.5t28.5 99.5l361 1301q31 4 57.5 5t48.5 1q82 0 130 -35t48 -112q0 -59 -16 -112.5t-31 -107.5z" />
<glyph unicode="0" horiz-adv-x="1241" d="M819 623q0 180 -52 278t-149 98q-96 0 -146 -98t-50 -278t50 -279.5t146 -99.5t148.5 99.5t52.5 279.5zM1169 623q0 -158 -41 -281t-113.5 -206t-174 -126t-219.5 -43q-121 0 -222.5 43t-174 126t-112.5 206t-40 281t40 279.5t112.5 204.5t174 126t222.5 43 q119 0 220 -43t173.5 -126t113.5 -204.5t41 -279.5z" />
<glyph unicode="1" horiz-adv-x="804" d="M317 913l-204 -63q-31 20 -62 57t-31 103q0 123 150 172l229 78h76q88 0 139.5 -51.5t51.5 -139.5v-1067q-23 -4 -67 -11t-89 -7t-81 6t-60.5 24.5t-38 50t-13.5 82.5v766z" />
<glyph unicode="2" horiz-adv-x="1069" d="M494 1276q117 0 207 -29.5t153.5 -81t96 -121t32.5 -149.5q0 -215 -244 -410l-268 -215h492q12 -23 23 -57.5t11 -75.5q0 -74 -32.5 -105.5t-85.5 -31.5h-711q-45 31 -70.5 79t-25.5 114q0 70 28.5 117.5t63.5 76.5l282 242q53 45 88 80.5t56.5 64.5t31 53.5t9.5 46.5 q0 57 -50.5 90t-123.5 33q-82 0 -146.5 -25.5t-107.5 -53.5q-35 25 -57.5 61.5t-22.5 85.5q0 106 100.5 158.5t270.5 52.5z" />
<glyph unicode="3" horiz-adv-x="1060" d="M477 1276q236 0 358.5 -97.5t122.5 -260.5q0 -98 -52 -167t-124 -104q43 -16 80 -40.5t65.5 -61.5t45 -86t16.5 -115q0 -88 -38 -157.5t-105.5 -119t-160.5 -75t-204 -25.5q-213 0 -321.5 59.5t-108.5 151.5q0 55 26.5 95t65.5 63q41 -29 110 -60.5t179 -31.5 q104 0 154.5 36.5t50.5 96.5q0 59 -40 90t-138 31h-193q-14 23 -24.5 55.5t-10.5 77.5q0 47 9.5 80.5t25.5 56.5h193q147 0 147 113q0 53 -47 85.5t-141 32.5q-84 0 -147.5 -19t-104.5 -48q-35 25 -57.5 60.5t-22.5 84.5q0 102 106.5 150.5t284.5 48.5z" />
<glyph unicode="4" horiz-adv-x="1241" d="M586 1231q39 12 89 20.5t91 8.5q47 0 91 -9.5t79 -31t55.5 -58.5t20.5 -92v-545h182q12 -23 24.5 -59.5t12.5 -77.5q0 -78 -35 -110.5t-88 -32.5h-96v-242q-23 -4 -68 -11t-86 -7q-45 0 -80 4t-58.5 19.5t-35.5 44t-12 77.5v115h-514q-47 25 -81 73t-34 117q0 39 10 86 t35 82zM690 909h-6l-272 -385h278v385z" />
<glyph unicode="5" horiz-adv-x="1069" d="M512 -33q-94 0 -171 14.5t-132 43t-86 70.5t-31 98q0 57 33 96t74 61q57 -43 122.5 -74.5t165.5 -31.5q96 0 137.5 43t41.5 104q0 59 -36 98t-124 39q-55 0 -92 -12t-84 -35q-100 4 -158.5 54.5t-58.5 154.5v15.5t2 37.5l24 312q6 88 55.5 139t137.5 51h590 q12 -23 24 -59.5t12 -77.5q0 -78 -34.5 -110.5t-87.5 -32.5h-394l-14 -193q39 10 79 18.5t101 8.5q106 0 184 -32t128.5 -87t74 -129t23.5 -158t-28.5 -161.5t-90 -136t-157 -93.5t-230.5 -35z" />
<glyph unicode="6" horiz-adv-x="1142" d="M989 1094q0 -43 -19.5 -83t-45.5 -61q-55 25 -115.5 38t-112.5 13q-123 0 -189.5 -64.5t-88.5 -184.5q41 29 108.5 52t139.5 23q188 0 299.5 -108.5t111.5 -310.5q0 -88 -30.5 -168t-92 -140.5t-152.5 -96.5t-212 -36q-242 0 -380 162t-138 461q0 170 42 299t118.5 215 t183 129t235.5 43q164 0 251 -45t87 -137zM588 561q-39 0 -83 -16.5t-71 -44.5v-51q0 -111 46 -158t112 -47q68 0 101.5 45t33.5 117t-35.5 113.5t-103.5 41.5z" />
<glyph unicode="7" horiz-adv-x="987" d="M877 1245q35 -23 62.5 -62.5t27.5 -99.5q0 -33 -6.5 -66.5t-20.5 -66.5l-426 -964q-29 -2 -54.5 -2h-47.5q-92 0 -149.5 34.5t-57.5 120.5q0 43 20.5 93.5t55.5 119.5l299 613h-502q-12 23 -24.5 59.5t-12.5 77.5q0 78 35 110.5t88 32.5h713z" />
<glyph unicode="8" horiz-adv-x="1146" d="M102 909q0 82 35 149.5t96.5 117t147.5 76t188 26.5t188.5 -24.5t148 -69.5t96 -110.5t34.5 -147.5q0 -90 -36.5 -158t-102.5 -113q78 -53 127 -125.5t49 -195.5q0 -82 -34.5 -149.5t-100.5 -117t-158 -76t-207 -26.5t-207 26.5t-156.5 76t-100 117t-35.5 149.5 q0 111 48 184.5t114 114.5q-55 45 -94.5 107.5t-39.5 168.5zM424 365q0 -63 42 -100.5t107 -37.5q66 0 108 38t42 100q0 59 -36 99t-97 62q-90 -20 -128 -62t-38 -99zM694 897q0 55 -32.5 88t-92.5 33q-59 0 -92 -33t-33 -86t34 -86t79 -53q72 16 104.5 53t32.5 84z" />
<glyph unicode="9" horiz-adv-x="1142" d="M434 242q131 0 210 67.5t79 186.5q-23 -18 -83 -43t-155 -25q-94 0 -170.5 26.5t-132 79t-86 128t-30.5 176.5q0 88 30.5 166.5t92 139t152.5 96.5t212 36q242 0 380 -162t138 -461q0 -170 -43 -299t-120 -215t-183.5 -129t-235.5 -43q-164 0 -256 45t-92 138 q0 43 19.5 82.5t46.5 60.5q55 -25 115.5 -38t111.5 -13zM565 690q39 0 79 16.5t67 45.5v24q-2 117 -41 170t-115 53q-68 0 -105.5 -42t-37.5 -113q0 -70 42.5 -112t110.5 -42z" />
<glyph unicode=":" horiz-adv-x="528" d="M66 809q0 86 53 143.5t145 57.5t145.5 -57.5t53.5 -143.5t-53.5 -143.5t-145.5 -57.5t-145 57.5t-53 143.5zM66 166q0 86 53 143.5t145 57.5t145.5 -57.5t53.5 -143.5t-53.5 -143.5t-145.5 -57.5t-145 57.5t-53 143.5z" />
<glyph unicode=";" horiz-adv-x="544" d="M332 -150q-35 -45 -75 -65.5t-97 -20.5q-90 0 -154 52q45 127 76 261t51 242q35 18 84 32t98 14q63 0 111.5 -29t48.5 -103q0 -43 -12 -95t-32.5 -104t-46 -101.5t-52.5 -82.5zM78 809q0 86 53 143.5t145 57.5t145.5 -57.5t53.5 -143.5t-53 -143.5t-146 -57.5 q-92 0 -145 57.5t-53 143.5z" />
<glyph unicode="&#x3c;" horiz-adv-x="964" d="M895 250q4 -12 5 -28.5t1 -31.5q0 -37 -8 -69.5t-26.5 -57t-48.5 -40t-75 -15.5q-43 0 -85 18.5t-103 53.5l-440 254q-53 70 -54 184q0 86 25 133t72 74l563 328q100 -27 136 -73t36 -99q0 -72 -36 -112t-105 -75l-361 -182z" />
<glyph unicode="=" horiz-adv-x="1001" d="M98 672q-14 23 -23 59.5t-9 73.5q0 74 32.5 107.5t87.5 33.5h717q10 -25 21.5 -60.5t11.5 -74.5q0 -72 -33 -105.5t-86 -33.5h-719zM98 264q-14 23 -23 59.5t-9 73.5q0 74 32.5 108t87.5 34h717q10 -25 21.5 -61t11.5 -75q0 -72 -33 -105.5t-86 -33.5h-719z" />
<glyph unicode="&#x3e;" horiz-adv-x="964" d="M70 811q-4 12 -5.5 28.5t-1.5 30.5q0 37 8.5 70t27 57.5t48 40t74.5 15.5q43 0 85 -18.5t104 -53.5l440 -254q53 -70 53 -184q0 -86 -24.5 -133.5t-71.5 -73.5l-563 -328q-100 27 -136 73t-36 99q0 72 35.5 112t105.5 75l360 182z" />
<glyph unicode="?" horiz-adv-x="1019" d="M211 158q0 84 52 138t145 54q92 0 144 -54t52 -138t-52 -138.5t-144 -54.5t-144.5 54.5t-52.5 138.5zM279 426q-35 18 -66 66.5t-31 113.5q0 63 34 95t99 49l160 38q102 27 103 99q0 39 -38 67.5t-130 28.5q-84 0 -158 -21.5t-119 -50.5q-35 27 -59.5 65t-24.5 91t31 93 t85 65.5t129 38t165 12.5q242 0 365.5 -107.5t123.5 -281.5q0 -328 -463 -420z" />
<glyph unicode="@" horiz-adv-x="2189" d="M1053 0q-88 0 -164 25.5t-131.5 77t-87 127t-31.5 173.5q0 123 41 216.5t111.5 157t164 96t199.5 32.5q98 0 186.5 -24.5t153.5 -71.5q80 -55 80 -137v-18.5t-2 -22.5l-43 -369q8 -4 24.5 -6t26.5 -2q92 0 145.5 87t53.5 226q0 117 -47 214.5t-130 167t-199 108.5 t-253 39q-160 0 -293 -51.5t-228 -142.5t-147.5 -215t-52.5 -269q0 -141 46 -254t128 -193t193.5 -122t244.5 -42q92 0 150.5 8.5t103.5 14.5q14 -23 25.5 -55.5t11.5 -61.5q0 -43 -14 -75.5t-50 -55t-97.5 -35t-153.5 -12.5q-158 0 -320.5 49t-296 154.5t-217.5 273.5 t-84 406q0 217 81 392t222.5 296t333 186.5t412.5 65.5q211 0 387 -56.5t303 -159t197.5 -250t70.5 -327.5q0 -274 -137 -424.5t-389 -150.5q-61 0 -136 17.5t-134 53.5q-43 -25 -107.5 -43t-150.5 -18zM1247 612q-12 8 -34.5 14.5t-59.5 6.5q-33 0 -63.5 -13.5t-54 -41 t-38 -70.5t-14.5 -102q0 -68 33 -106t98 -38q37 0 59.5 9.5t43.5 21.5z" />
<glyph unicode="A" horiz-adv-x="1284" d="M397 1204q35 20 105.5 39t142.5 19q102 0 181 -30t102 -93q37 -106 80 -247.5t86 -292t84 -297t71 -259.5q-25 -29 -74 -46t-116 -17q-49 0 -83 8t-55.5 24.5t-35 43t-23.5 61.5l-37 141h-370q-16 -61 -32.5 -126.5t-33.5 -127.5q-29 -10 -60.5 -17t-76.5 -7 q-104 0 -154.5 35.5t-50.5 99.5q0 29 8 57.5t19 67.5q14 55 39.5 137t56.5 177t65.5 195.5t65.5 189.5t56.5 158.5t39.5 106.5zM643 940q-29 -86 -64.5 -191.5t-64.5 -213.5h254q-29 111 -58.5 216t-54.5 189h-12z" />
<glyph unicode="B" horiz-adv-x="1267" d="M481 256q29 -8 74 -11t86 -3q82 0 136 33.5t54 105.5q0 68 -45 96.5t-137 28.5h-168v-250zM481 756h150q88 0 128 32.5t40 96.5q0 55 -46 88t-139 33q-31 0 -70.5 -2.5t-62.5 -6.5v-241zM614 -33q-35 0 -82 2t-97 8.5t-99 15.5t-90 25q-113 43 -113 150v956 q0 43 23.5 66.5t64.5 38.5q70 25 174.5 36t214.5 11q262 0 403.5 -88t141.5 -273q0 -92 -53 -158.5t-144 -97.5q102 -29 171 -104.5t69 -189.5q0 -203 -150.5 -300.5t-433.5 -97.5z" />
<glyph unicode="C" horiz-adv-x="1169" d="M766 991q-158 0 -242 -96t-84 -272q0 -178 93.5 -274.5t250.5 -96.5q84 0 142.5 22.5t111.5 51.5q35 -29 54.5 -69t19.5 -93q0 -84 -93 -142.5t-284 -58.5q-137 0 -258 39t-211 120t-142 205t-52 296q0 160 50 281.5t137 205.5t204 127t250 43q188 0 291.5 -61.5 t103.5 -157.5q0 -53 -26.5 -92t-61.5 -62q-53 35 -113.5 59.5t-140.5 24.5z" />
<glyph unicode="D" horiz-adv-x="1363" d="M489 266q23 -4 56 -7t61 -3q70 0 128.5 20.5t100.5 63.5t65.5 111.5t23.5 164.5q0 184 -86 277.5t-230 93.5q-29 0 -58.5 -2t-60.5 -6v-713zM604 -33q-35 0 -80 2t-93 8.5t-96 15.5t-89 25q-113 43 -113 150v956q0 43 23.5 66.5t64.5 38.5q88 29 186.5 38t176.5 9 q160 0 290 -39t223 -120t144 -203.5t51 -290.5q0 -164 -49 -286t-140 -205t-218 -124t-281 -41z" />
<glyph unicode="E" horiz-adv-x="1122" d="M133 1051q0 88 51.5 139t139.5 51h675q14 -23 25.5 -59.5t11.5 -77.5q0 -78 -33.5 -110.5t-89.5 -32.5h-432v-191h461q14 -23 25.5 -58.5t11.5 -76.5q0 -78 -33 -110.5t-88 -32.5h-377v-216h527q14 -23 25 -59.5t11 -77.5q0 -78 -33.5 -111.5t-88.5 -33.5h-598 q-88 0 -139.5 51t-51.5 139v867z" />
<glyph unicode="F" horiz-adv-x="1087" d="M1006 1241q14 -23 25 -60.5t11 -78.5q0 -80 -33.5 -114t-90.5 -34h-431v-231h449q16 -23 27.5 -59.5t11.5 -77.5q0 -78 -34 -112t-91 -34h-358v-432q-23 -6 -71 -12t-95 -6t-83 7t-60.5 25.5t-37 51t-12.5 86.5v891q0 88 51.5 139t139.5 51h682z" />
<glyph unicode="G" horiz-adv-x="1359" d="M1257 203q0 -63 -22.5 -94t-71.5 -60q-29 -16 -71.5 -31.5t-94 -26.5t-107.5 -17.5t-112 -6.5q-147 0 -276 40t-224.5 121t-150.5 202t-55 280q0 168 60.5 293t159.5 208t227 124t263 41q195 0 308.5 -62.5t113.5 -162.5q0 -53 -26.5 -92t-61.5 -62q-51 31 -128 60.5 t-173 29.5q-172 0 -273.5 -98t-101.5 -273q0 -94 28 -162.5t75 -112.5t108.5 -65.5t130.5 -21.5q45 0 80 8t53 19v192h-219q-12 23 -23 59.5t-11 77.5q0 74 33.5 107t86.5 33h346q61 0 95 -34t34 -95v-418z" />
<glyph unicode="H" horiz-adv-x="1376" d="M1243 8q-23 -6 -71 -12t-95 -6t-83 7t-60.5 25.5t-36.5 51t-12 86.5v319h-393v-471q-23 -6 -71 -12t-95 -6t-83 7t-60.5 25.5t-37 51t-12.5 86.5v1081q23 4 72 11.5t94 7.5q47 0 83 -7.5t60.5 -26t37 -51t12.5 -85.5v-328h393v479q23 4 72 11.5t94 7.5q47 0 82.5 -7.5 t60.5 -26t37 -51t12 -85.5v-1082z" />
<glyph unicode="I" horiz-adv-x="624" d="M492 8q-23 -6 -71 -12t-95 -6t-83 7t-60.5 25.5t-37 51t-12.5 86.5v1081q23 4 72 11.5t94 7.5q47 0 83 -7.5t60.5 -26t37 -51t12.5 -85.5v-1082z" />
<glyph unicode="J" horiz-adv-x="843" d="M358 1241q23 4 72 11.5t94 7.5q47 0 83 -7.5t60.5 -26t37 -51t12.5 -85.5v-758q0 -182 -104.5 -273.5t-307.5 -91.5q-106 0 -172 33q-47 23 -68.5 61.5t-21.5 88.5q0 41 11.5 71.5t27.5 48.5q39 -8 66.5 -11t60.5 -3q80 0 114.5 40t34.5 118v827z" />
<glyph unicode="K" horiz-adv-x="1259" d="M494 461v-453q-23 -6 -72 -12t-96 -6t-83 7t-60.5 25.5t-37 51t-12.5 86.5v1081q23 4 72 11.5t94 7.5q47 0 83 -7.5t60.5 -26t37 -51t12.5 -85.5v-326l426 489q139 0 199.5 -52t60.5 -124q0 -53 -27 -100t-86 -107l-256 -256q51 -57 107.5 -118.5t110.5 -120 t104.5 -111.5t87.5 -92q0 -45 -16.5 -80t-44.5 -59.5t-62.5 -36.5t-73.5 -12q-84 0 -137.5 42t-102.5 99z" />
<glyph unicode="L" horiz-adv-x="1050" d="M324 -6q-88 0 -139.5 51t-51.5 139v1059q23 4 72 11.5t94 7.5q47 0 83 -7.5t60.5 -26t37 -51t12.5 -85.5v-809h469q14 -23 26 -61t12 -79q0 -82 -34.5 -115.5t-92.5 -33.5h-548z" />
<glyph unicode="M" horiz-adv-x="1632" d="M991 305q-27 -23 -68.5 -36t-97.5 -13q-74 0 -122 18.5t-62 63.5q-57 180 -94 291.5t-58 195.5h-10q-6 -121 -9 -220t-4 -193.5t-4 -190.5t-9 -213q-27 -10 -70 -17t-86 -7q-90 0 -140.5 28.5t-50.5 104.5l60 1044q16 27 71.5 57.5t155.5 30.5q109 0 170.5 -33.5 t89.5 -109.5q18 -49 40 -112.5t43.5 -131t42 -134t36.5 -120.5h10q49 172 98.5 333t90.5 269q31 16 79 27.5t107 11.5q100 0 163.5 -29.5t74.5 -84.5q8 -41 17 -126t19.5 -191.5t20.5 -225.5t19.5 -228.5t15.5 -200.5t8 -140q-35 -20 -73 -29.5t-97 -9.5q-78 0 -131 26.5 t-57 104.5q-12 223 -15.5 401t-9.5 299h-10q-20 -80 -59.5 -201t-94.5 -309z" />
<glyph unicode="N" horiz-adv-x="1390" d="M1257 43q-29 -29 -83 -44t-130 -15t-143 22.5t-110 108.5l-203 413q-31 63 -55.5 120t-53.5 130l-12 -2q8 -111 9 -225.5t1 -224.5v-318q-23 -6 -69 -12t-91 -6t-79.5 6t-57 24.5t-35 50t-12.5 83.5v1024q29 41 88.5 61.5t126.5 20.5q76 0 144.5 -24t109.5 -108l205 -413 q31 -63 55.5 -119.5t52.5 -130.5l11 2q-8 111 -10.5 221.5t-2.5 220.5v332q23 6 69 12.5t91 6.5q90 0 137 -32t47 -132v-1053z" />
<glyph unicode="O" horiz-adv-x="1439" d="M72 623q0 160 50 282.5t137 205.5t205 126t255 43t255 -43t206 -126t138 -206t50 -282q0 -160 -49 -284t-136 -207t-206 -126t-258 -43t-258 44t-205 128t-135 207t-49 281zM440 623q0 -186 76 -278.5t203 -92.5q129 0 204.5 92t75.5 279q0 184 -74.5 276t-203.5 92 q-127 0 -204 -91t-77 -277z" />
<glyph unicode="P" horiz-adv-x="1189" d="M598 666q86 0 132 39.5t46 121.5q0 78 -48 120t-140 42q-33 0 -54.5 -1t-44.5 -5v-317h109zM492 8q-23 -6 -71 -12t-95 -6t-83 7t-60.5 25.5t-37 51t-12.5 86.5v964q0 43 23.5 66.5t64.5 38.5q70 25 159 36t179 11q283 0 432.5 -121t149.5 -328q0 -100 -32 -181 t-94.5 -139t-157.5 -90t-220 -32h-145v-377z" />
<glyph unicode="Q" horiz-adv-x="1443" d="M72 623q0 160 50 282.5t137 205.5t205 126t255 43t255 -43t206 -126t138 -206t50 -282q0 -201 -73.5 -341.5t-200.5 -220.5q31 -14 72.5 -30.5t87.5 -32.5t95.5 -31.5t92.5 -27.5q2 -12 2 -21.5v-17.5q0 -117 -60.5 -170.5t-158.5 -53.5q-94 0 -194.5 52.5t-205.5 150.5 l-90 84h-16q-139 0 -258 44t-205 128t-135 207t-49 281zM440 623q0 -186 76 -278.5t203 -92.5q129 0 204.5 92t75.5 279q0 184 -74.5 276t-203.5 92q-127 0 -204 -91t-77 -277z" />
<glyph unicode="R" horiz-adv-x="1247" d="M489 401v-393q-23 -6 -70.5 -12t-94.5 -6t-83 7t-59.5 25.5t-36 51t-12.5 86.5v964q0 43 23.5 66.5t64.5 38.5q70 25 162 36t197 11q283 0 426 -119t143 -321q0 -127 -65.5 -217.5t-155.5 -139.5q74 -100 145.5 -188t112.5 -160q-20 -72 -74.5 -109.5t-122.5 -37.5 q-45 0 -77.5 10t-57.5 28.5t-45.5 45t-38.5 57.5l-172 276h-109zM618 674q78 0 123 40t45 117q0 78 -50 118t-158 40q-31 0 -49.5 -2t-41.5 -6v-307h131z" />
<glyph unicode="S" horiz-adv-x="1128" d="M485 494q-90 31 -163.5 62.5t-127 76.5t-83 107.5t-29.5 152.5q0 174 134 278.5t376 104.5q88 0 163.5 -12.5t130 -38t85 -65.5t30.5 -93t-24.5 -91t-58.5 -65q-45 29 -121 50.5t-166 21.5q-92 0 -135 -25.5t-43 -64.5q0 -31 26.5 -50.5t79.5 -35.5l109 -35 q193 -61 296 -156.5t103 -259.5q0 -174 -137 -281.5t-404 -107.5q-94 0 -175 15.5t-141 45t-94 73.5t-34 102q0 59 35 101t76 65q57 -45 140 -78t181 -33q100 0 141 30.5t41 71.5t-32.5 62.5t-92.5 42.5z" />
<glyph unicode="T" horiz-adv-x="1138" d="M76 954q-14 23 -26.5 62t-12.5 82q0 80 36 114.5t93 34.5h893q14 -23 26.5 -61.5t12.5 -81.5q0 -80 -36 -115t-93 -35h-228v-946q-23 -6 -70.5 -12t-95.5 -6q-47 0 -82.5 7t-60 25.5t-37 51t-12.5 86.5v794h-307z" />
<glyph unicode="U" horiz-adv-x="1359" d="M1233 459q0 -111 -38 -202t-109.5 -155.5t-174 -99.5t-231.5 -35t-231.5 35t-174 99.5t-109.5 155.5t-38 202v782q23 4 72 11.5t94 7.5q47 0 83 -7.5t60.5 -26t36.5 -51t12 -85.5v-625q0 -98 54.5 -153.5t140.5 -55.5q88 0 141 55.5t53 153.5v776q23 4 72 11.5t94 7.5 q47 0 83 -7.5t60.5 -26t37 -51t12.5 -85.5v-631z" />
<glyph unicode="V" horiz-adv-x="1298" d="M877 41q-29 -25 -89.5 -43t-132.5 -18q-86 0 -147.5 25.5t-83.5 70.5q-23 47 -55.5 121.5t-68.5 167t-74 196t-72.5 210t-65.5 208.5t-53 192q29 29 83 52.5t115 23.5q76 0 124.5 -31.5t70.5 -117.5q55 -201 111.5 -384.5t117.5 -381.5h13q55 193 113.5 420t111.5 452 q37 18 79 30.5t95 12.5q76 0 129 -33.5t53 -111.5q0 -45 -21.5 -131t-55 -193.5t-75.5 -224.5t-84 -220.5t-78.5 -182t-59.5 -109.5z" />
<glyph unicode="W" horiz-adv-x="1767" d="M707 938q23 10 70.5 23.5t96.5 13.5q86 0 143.5 -25.5t69.5 -75.5q23 -84 42.5 -156.5t38 -139t36 -132t33.5 -137.5h10q18 125 32.5 239t27 223.5t24.5 217t25 217.5q76 43 162 43q76 0 131 -32.5t55 -110.5q0 -45 -9 -128t-24.5 -185.5t-36 -215t-43 -215t-46 -185.5 t-44.5 -128q-31 -29 -100.5 -47t-143.5 -18q-96 0 -162.5 25.5t-80.5 72.5q-27 82 -57.5 194.5t-65.5 247.5q-29 -133 -59.5 -260t-55.5 -215q-31 -29 -92 -47t-135 -18q-92 0 -167 25.5t-97 72.5q-18 37 -40 109.5t-44.5 166t-46 202t-43 217t-36 212t-24.5 189.5 q29 27 80 49t111 22q78 0 128 -33.5t62 -113.5q33 -209 54.5 -348.5t35 -228.5t19.5 -138t12 -78h10q18 82 34.5 151.5t34 140.5t36.5 152t39 185z" />
<glyph unicode="X" horiz-adv-x="1230" d="M47 1090q10 29 28.5 57.5t46.5 52t64.5 38.5t81.5 15q59 0 104.5 -29.5t92.5 -101.5l160 -243l235 348q16 8 46 15t59 7q94 0 147 -45t53 -110q0 -57 -29.5 -102.5t-80.5 -108.5l-211 -258l334 -478q-16 -76 -70.5 -119.5t-146.5 -43.5q-59 0 -102.5 29.5t-88.5 101.5 l-166 262l-258 -389q-16 -2 -30.5 -3t-28.5 -1q-117 0 -172.5 47t-55.5 116q0 59 26 103.5t73 103.5l215 277z" />
<glyph unicode="Y" horiz-adv-x="1175" d="M784 8q-23 -6 -69.5 -12t-91.5 -6q-94 0 -141.5 31.5t-47.5 134.5v276q-51 76 -110.5 168t-116.5 188.5t-106.5 189.5t-80.5 171q27 37 73 67.5t114 30.5q80 0 130 -32.5t95 -122.5l170 -342h12q29 63 50.5 115.5t42 104.5t43 108.5t51.5 129.5q37 18 82 28.5t86 10.5 q72 0 122 -38t50 -113q0 -25 -10.5 -60t-47 -105.5t-107.5 -191.5t-192 -315v-416z" />
<glyph unicode="Z" horiz-adv-x="1146" d="M631 954h-504q-14 23 -26.5 62t-12.5 82q0 80 36 114.5t93 34.5h764q90 -74 90 -196q0 -51 -23.5 -101.5t-60.5 -95.5l-465 -561h525q14 -23 26 -61.5t12 -81.5q0 -80 -35.5 -115t-93.5 -35h-806q-35 29 -57.5 78t-22.5 112q0 51 26.5 104.5t63.5 98.5z" />
<glyph unicode="[" horiz-adv-x="620" d="M94 1202q0 72 42 114t114 42h328q10 -23 21 -54.5t11 -70.5q0 -72 -31.5 -102.5t-80.5 -30.5h-80v-1110h160q10 -23 21 -54.5t11 -70.5q0 -72 -31.5 -102.5t-80.5 -30.5h-248q-72 0 -114 42t-42 113v1315z" />
<glyph unicode="\" horiz-adv-x="737" d="M737 -147q-29 -31 -80 -53.5t-98 -22.5q-55 0 -96 23.5t-57 86.5l-406 1487q29 31 80 53.5t98 22.5q55 0 96 -23.5t58 -87.5z" />
<glyph unicode="]" horiz-adv-x="649" d="M43 -268q-10 23 -21.5 54.5t-11.5 70.5q0 72 32 102.5t81 30.5h80v1110h-160q-10 23 -21.5 54.5t-11.5 70.5q0 72 32 102.5t81 30.5h248q72 0 113.5 -42t41.5 -114v-1315q0 -72 -42 -113.5t-113 -41.5h-328z" />
<glyph unicode="^" horiz-adv-x="999" d="M313 1356q25 20 74 34.5t111 14.5q70 0 119 -20.5t71 -57.5q25 -33 58.5 -103.5t68.5 -155.5t65.5 -172t47.5 -153q-25 -25 -68 -46t-92 -21q-63 0 -99 26.5t-63 98.5l-114 321h-9q-35 -94 -66.5 -202.5t-54.5 -208.5q-31 -18 -70.5 -26.5t-74.5 -8.5q-61 0 -103 27.5 t-42 93.5q0 37 24.5 109.5t61.5 155.5t78.5 162t76.5 132z" />
<glyph unicode="_" horiz-adv-x="1165" d="M98 -385q-12 20 -24.5 56t-12.5 77q0 76 35 108.5t88 32.5h881q10 -20 24.5 -56t14.5 -77q0 -76 -35 -108.5t-90 -32.5h-881z" />
<glyph unicode="`" horiz-adv-x="618" d="M37 1317q-4 20 -4 41q0 78 39 125t106 47q51 0 86 -20.5t78 -57.5l231 -195q-4 -78 -44 -125t-91 -47q-33 0 -65.5 13.5t-65.5 36.5z" />
<glyph unicode="a" horiz-adv-x="1114" d="M532 221q35 0 77 7.5t63 19.5v164l-148 -13q-57 -4 -94 -24.5t-37 -61.5t31.5 -66.5t107.5 -25.5zM516 1026q111 0 202 -22.5t155.5 -68.5t99.5 -116.5t35 -167.5v-458q0 -53 -30 -87t-71 -59q-133 -80 -375 -80q-109 0 -195.5 20.5t-149 61.5t-96.5 104.5t-34 147.5 q0 141 84 217t260 94l269 29v14q0 59 -52.5 85t-150.5 26q-78 0 -151.5 -16.5t-133.5 -40.5q-27 18 -45 56t-18 79q0 53 25.5 85t78.5 54q59 23 140 33t153 10z" />
<glyph unicode="b" horiz-adv-x="1208" d="M111 1333q20 6 65 13.5t92 7.5q45 0 81 -6.5t60.5 -24.5t37 -50t12.5 -83v-201q51 20 97 28.5t101 8.5q98 0 186.5 -35t156 -101.5t106.5 -164.5t39 -227q0 -133 -40 -232.5t-111.5 -165t-175 -99.5t-228.5 -34q-135 0 -229.5 32t-159.5 79q-90 63 -90 164v1091zM590 242 q94 0 146 64.5t52 191.5q0 129 -53 192.5t-143 63.5q-41 0 -70.5 -8.5t-64.5 -24.5v-447q23 -14 54.5 -23t78.5 -9z" />
<glyph unicode="c" horiz-adv-x="1001" d="M668 752q-51 0 -97.5 -16.5t-80 -48.5t-54 -79t-20.5 -110q0 -127 72.5 -190.5t177.5 -63.5q61 0 106 14t80 31q41 -29 61.5 -62.5t20.5 -81.5q0 -84 -80 -130t-221 -46q-129 0 -233.5 38t-179.5 106.5t-116 165t-41 213.5q0 135 44.5 236t120 167t175 98.5t209.5 32.5 q147 0 227.5 -53t80.5 -137q0 -39 -18.5 -73t-43.5 -58q-35 16 -84 31.5t-106 15.5z" />
<glyph unicode="d" d="M63 498q0 135 41 234t114 165t170 97.5t210 31.5q41 0 80 -7t63 -18v332q20 6 65.5 13.5t92.5 7.5q45 0 81 -6.5t60.5 -24.5t37 -50t12.5 -83v-971q0 -96 -91 -153q-59 -39 -153 -69t-217 -30q-133 0 -238.5 37t-178.5 106.5t-111 167t-38 220.5zM645 754 q-111 0 -170 -63.5t-59 -192.5q0 -127 55 -191.5t160 -64.5q37 0 66.5 11t45.5 26v450q-41 25 -98 25z" />
<glyph unicode="e" horiz-adv-x="1124" d="M633 -33q-121 0 -224.5 34t-180 101.5t-121 170t-44.5 239.5q0 135 44.5 232.5t116 160t163.5 92t188 29.5q109 0 198 -32.5t153.5 -90t100.5 -137.5t36 -174q0 -70 -39 -106.5t-109 -47.5l-505 -76q23 -68 92 -101.5t160 -33.5q84 0 158.5 21.5t121.5 50.5 q33 -20 55.5 -57t22.5 -78q0 -92 -86 -137q-66 -35 -147.5 -47.5t-153.5 -12.5zM575 772q-49 0 -84.5 -16.5t-58 -42t-34 -57t-13.5 -64.5l350 57q-6 41 -45 82t-115 41z" />
<glyph unicode="f" horiz-adv-x="880" d="M111 995q0 104 35.5 179t97 123.5t144.5 71t177 22.5q152 0 223.5 -40t71.5 -137q0 -41 -17.5 -73.5t-37.5 -48.5q-39 10 -81 17t-97 7q-88 0 -137.5 -29.5t-49.5 -103.5v-65h336q12 -23 23.5 -57t11.5 -75q0 -72 -31.5 -103.5t-85.5 -31.5h-235v-649q-20 -6 -64.5 -12 t-91.5 -6q-45 0 -81 6t-60.5 24.5t-37.5 50t-13 82.5v848z" />
<glyph unicode="g" horiz-adv-x="1161" d="M592 1026q117 0 212 -29.5t161 -76.5q41 -29 64.5 -64t23.5 -90v-717q0 -109 -41 -187.5t-112 -131t-166 -77t-204 -24.5q-186 0 -292.5 50.5t-106.5 162.5q0 47 19.5 83t44.5 55q59 -33 133.5 -55.5t154.5 -22.5q111 0 176.5 36.5t65.5 118.5v33q-84 -37 -205 -37 q-92 0 -175 28t-145.5 86t-100.5 150.5t-38 219.5q0 125 40 217t111 152.5t168 90t212 29.5zM719 729q-14 8 -42 16.5t-69 8.5q-100 0 -150 -56.5t-50 -160.5q0 -119 50 -171.5t128 -52.5q84 0 133 39v377z" />
<glyph unicode="h" horiz-adv-x="1198" d="M1090 2q-20 -6 -64.5 -12t-91.5 -6q-45 0 -81 6t-60.5 24.5t-38 50t-13.5 82.5v455q0 84 -42 118t-103 34q-41 0 -78 -10.5t-59 -24.5v-717q-20 -6 -64.5 -12t-91.5 -6q-45 0 -81 6t-60.5 24.5t-37.5 50t-13 82.5v1188q23 4 66.5 11.5t88.5 7.5t81 -6.5t60.5 -24.5 t38 -50t13.5 -83v-201q27 10 81 23.5t119 13.5q203 0 317 -101.5t114 -301.5v-621z" />
<glyph unicode="i" horiz-adv-x="577" d="M98 1272q0 78 52.5 131t138.5 53t138 -53t52 -131t-52 -131.5t-138 -53.5t-138.5 53.5t-52.5 131.5zM463 2q-23 -4 -67 -11t-89 -7t-81 6t-60.5 24.5t-37.5 50t-13 82.5v834q23 4 66.5 11t88.5 7t81 -6t60.5 -24.5t38 -50t13.5 -82.5v-834z" />
<glyph unicode="j" horiz-adv-x="587" d="M109 1272q0 78 52 131t138 53t138 -53t52 -131t-52 -131.5t-138 -53.5t-138 53.5t-52 131.5zM39 -139q45 29 65.5 79t20.5 111v930q23 4 67 11t89 7t80.5 -6t60 -24.5t38 -50t13.5 -82.5v-818q0 -86 -20.5 -155.5t-58.5 -119.5t-92 -77.5t-122 -27.5q-90 0 -141 54 t-53 136z" />
<glyph unicode="k" horiz-adv-x="1136" d="M1079 180q-10 -96 -56 -147t-134 -51q-66 0 -117 31.5t-110 107.5l-203 254v-373q-23 -4 -67 -11t-89 -7t-81 6t-60.5 24.5t-37.5 50t-13 82.5v1186q23 6 66.5 13.5t88.5 7.5t81 -6.5t60.5 -24.5t38 -50t13.5 -83v-541l352 361q106 0 171 -47.5t65 -118.5 q0 -31 -10.5 -56.5t-32 -52t-55.5 -56.5t-79 -69l-118 -102z" />
<glyph unicode="l" horiz-adv-x="573" d="M461 2q-23 -4 -67 -11t-89 -7t-81 6t-60.5 24.5t-37.5 50t-13 82.5v1188q23 4 66.5 11.5t88.5 7.5t81 -6.5t60.5 -24.5t38 -50t13.5 -83v-1188z" />
<glyph unicode="m" horiz-adv-x="1732" d="M584 1026q84 0 164.5 -23.5t140.5 -70.5q61 41 138 67.5t185 26.5q78 0 153 -20.5t133 -64.5t93 -116.5t35 -177.5v-645q-20 -6 -64 -12t-92 -6q-45 0 -80.5 6t-60 24.5t-38 50t-13.5 82.5v490q0 61 -35 89t-94 28q-29 0 -61.5 -13.5t-49.5 -27.5q2 -8 2 -15.5v-13.5 v-682q-23 -6 -66.5 -12t-88.5 -6t-81 6t-60.5 24.5t-38 50t-13.5 82.5v490q0 61 -38 89t-91 28q-37 0 -63.5 -11.5t-44.5 -21.5v-719q-20 -6 -64.5 -12t-91.5 -6q-45 0 -81 6t-60.5 24.5t-38 50t-13.5 82.5v619q0 55 24 88t65 61q70 49 173 80t216 31z" />
<glyph unicode="n" horiz-adv-x="1193" d="M737 631q0 63 -35.5 93t-97.5 30q-41 0 -81 -10.5t-68 -30.5v-711q-20 -6 -64.5 -12t-91.5 -6q-45 0 -81 6t-60.5 24.5t-38 50t-13.5 82.5v615q0 55 24 90t65 63q70 49 175 80t234 31q231 0 356 -101.5t125 -281.5v-641q-20 -6 -64 -12t-91 -6q-45 0 -81 6t-60.5 24.5 t-38 50t-13.5 82.5v484z" />
<glyph unicode="o" d="M1137 498q0 -127 -39 -226.5t-109.5 -167t-169 -102.5t-219.5 -35t-219 37t-169 105.5t-110 167t-39 221.5q0 121 39 219t110 166.5t169 105.5t219 37t219.5 -38t169 -106.5t109.5 -166.5t39 -217zM420 498q0 -125 48 -191.5t134 -66.5t132 67.5t46 190.5t-47 189.5 t-133 66.5t-133 -66.5t-47 -189.5z" />
<glyph unicode="p" horiz-adv-x="1198" d="M563 1026q123 0 228.5 -31.5t181.5 -97.5t119 -165t43 -236q0 -131 -37 -229.5t-104.5 -165t-163 -99.5t-212.5 -33q-88 0 -163 27v-340q-20 -6 -65.5 -13.5t-92.5 -7.5q-45 0 -81 6.5t-60.5 25t-37 50t-12.5 82.5v983q0 55 24 90t65 64q63 41 157 65.5t211 24.5z M567 244q211 0 211 252q0 131 -52 194.5t-151 63.5q-39 0 -69.5 -9.5t-52.5 -21.5v-451q25 -12 53 -20t61 -8z" />
<glyph unicode="q" horiz-adv-x="1202" d="M578 -33q-109 0 -203 32t-164 97.5t-109 163.5t-39 232q0 129 41 228t116 167.5t180.5 103.5t234.5 35q115 0 215 -30.5t154 -67.5q41 -29 64.5 -66t23.5 -92v-1114q-20 -6 -65.5 -13.5t-92.5 -7.5q-45 0 -81 6.5t-60.5 25t-37 50t-12.5 82.5v195q-35 -14 -77.5 -20.5 t-87.5 -6.5zM745 733q-18 8 -42.5 14.5t-57.5 6.5q-111 0 -170 -64.5t-59 -193.5q0 -135 57 -194.5t162 -59.5q70 0 110 28v463z" />
<glyph unicode="r" horiz-adv-x="841" d="M455 2q-20 -6 -64.5 -12t-91.5 -6q-45 0 -81 6t-60.5 24.5t-38 50t-13.5 82.5v615q0 47 17.5 81t50.5 60q33 27 81 48.5t103.5 38t114.5 25.5t119 9q98 0 155.5 -38t57.5 -124q0 -29 -8.5 -56.5t-20.5 -49.5q-43 0 -88 -4t-88 -12.5t-81 -17.5t-64 -22v-698z" />
<glyph unicode="s" horiz-adv-x="1007" d="M946 297q0 -156 -116.5 -244t-344.5 -88q-86 0 -159.5 12.5t-126 38t-82 64.5t-29.5 92q0 49 20.5 83t49.5 56q59 -33 136 -58.5t177 -25.5q63 0 97 18.5t34 49.5q0 29 -24.5 45t-81.5 27l-62 12q-178 35 -265 109.5t-87 213.5q0 76 32.5 137.5t92 102.5t142.5 63.5 t183 22.5q76 0 142.5 -11t116 -33.5t78 -58.5t28.5 -85q0 -47 -17.5 -81t-43.5 -57q-16 10 -49 21.5t-72 21t-79 15.5t-73 6q-68 0 -104.5 -15.5t-36.5 -48.5q0 -23 20.5 -37t77.5 -26l64 -14q197 -45 279.5 -124t82.5 -204z" />
<glyph unicode="t" horiz-adv-x="819" d="M455 342q0 -53 33.5 -75.5t95.5 -22.5q31 0 63.5 5t57.5 13q18 -23 31.5 -50.5t13.5 -66.5q0 -78 -58.5 -127t-206.5 -49q-180 0 -277 82t-97 266v877q23 6 64.5 13t88.5 7q90 0 140.5 -31.5t50.5 -133.5v-131h268q12 -23 23.5 -57t11.5 -75q0 -72 -32 -103.5t-85 -31.5 h-186v-309z" />
<glyph unicode="u" horiz-adv-x="1191" d="M106 981q20 6 64.5 12t91.5 6q45 0 81 -6t60.5 -24.5t38 -50t13.5 -82.5v-441q0 -84 41 -119.5t118 -35.5q47 0 77 8t46 16v717q20 6 64.5 12t91.5 6q45 0 81 -6t60.5 -24.5t37.5 -50t13 -82.5v-623q0 -102 -86 -154q-72 -45 -171 -68.5t-216 -23.5q-111 0 -204 24.5 t-160.5 76t-104.5 132.5t-37 195v586z" />
<glyph unicode="v" horiz-adv-x="1116" d="M772 27q-29 -23 -84 -37.5t-125 -14.5q-80 0 -138 20.5t-81 65.5q-18 35 -44 97.5t-54.5 139.5t-59 165t-58.5 174t-50.5 166t-36.5 141q29 29 77 50.5t105 21.5q72 0 118 -30t69 -112l79 -313q23 -92 43.5 -167t30.5 -115h10q39 152 82 336t78 362q35 18 79 28.5 t85 10.5q72 0 121 -31t49 -106q0 -33 -15.5 -95.5t-39 -141.5t-55 -167t-64.5 -172t-64.5 -156.5t-56.5 -119.5z" />
<glyph unicode="w" horiz-adv-x="1619" d="M674 31q-29 -25 -78 -40.5t-117 -15.5q-84 0 -145.5 24t-81.5 67q-23 49 -52.5 155.5t-58 233.5t-54.5 258t-40 231q29 29 77 50.5t105 21.5q72 0 118 -32t56 -110q20 -156 35 -257t24 -165.5t14 -98.5t9 -54h9q6 33 21 95.5t35.5 142t43 173t45.5 185.5q41 23 81 35 t99 12q72 0 123 -22.5t66 -69.5q25 -90 47 -175t40.5 -158t33 -129t20.5 -89h10q23 158 44.5 328t39.5 346q37 23 78 33t82 10q72 0 119 -31t47 -106q0 -33 -10.5 -98.5t-26.5 -147.5t-37.5 -172t-43 -174t-41 -151.5t-34.5 -104.5q-29 -25 -88 -40.5t-127 -15.5 q-172 0 -203 86q-12 37 -30.5 93.5t-39 124t-39 140.5t-30.5 140q-14 -72 -34.5 -148.5t-42 -149.5t-40 -133t-28.5 -97z" />
<glyph unicode="x" horiz-adv-x="1071" d="M51 834q16 78 64.5 127t120.5 49q68 0 104.5 -33t81.5 -92l131 -172l219 297q113 0 178.5 -40t65.5 -108q0 -27 -7.5 -48t-21.5 -43.5t-36.5 -51.5t-53.5 -68l-135 -151l268 -355q-10 -78 -61 -123t-123 -45q-78 2 -124 45.5t-89 104.5l-111 158l-209 -301q-10 0 -22 -1 t-21 -1q-104 0 -158.5 43t-54.5 106q0 49 23.5 87t81.5 104l164 190z" />
<glyph unicode="y" horiz-adv-x="1128" d="M262 254q-23 51 -48.5 114.5t-53 145.5t-57 187.5t-62.5 242.5q29 29 77 50.5t105 21.5q72 0 119 -30t70 -112l161 -563h9q25 70 48 152t45.5 169t42 174t34.5 171q74 39 161 39q72 0 119 -31t47 -106q0 -55 -14 -128t-37.5 -155t-55.5 -169t-67 -171t-71.5 -158.5 t-71.5 -134.5q-57 -100 -106.5 -163.5t-94.5 -99.5t-90 -49t-94 -13q-86 0 -139.5 51t-63.5 133q66 51 131.5 113.5t118.5 127.5q-35 10 -75 48.5t-87 142.5z" />
<glyph unicode="z" horiz-adv-x="985" d="M141 0q-33 29 -52 67.5t-19 88.5q0 41 19.5 80.5t47.5 74.5l352 414h-376q-12 23 -23.5 57.5t-11.5 75.5q0 72 31.5 103.5t85.5 31.5h645q33 -29 52 -67.5t19 -87.5q0 -41 -19.5 -81t-47.5 -75l-344 -414h401q12 -23 23.5 -57.5t11.5 -75.5q0 -72 -32 -103.5t-85 -31.5 h-678z" />
<glyph unicode="{" horiz-adv-x="669" d="M408 545q111 -53 110 -226v-229q0 -70 23.5 -99.5t68.5 -41.5q4 -16 4 -29.5v-25.5q0 -96 -45 -134.5t-116 -38.5q-113 0 -184.5 72t-71.5 217v215q0 90 -32 137.5t-102 65.5q-6 25 -10 54.5t-4 62.5t4 62.5t10 54.5q70 18 102 65t32 137v215q0 145 71.5 217t184.5 72 q72 0 116.5 -38t44.5 -134v-25.5t-4 -29.5q-45 -12 -68.5 -42t-23.5 -100v-229q1 -174 -110 -225z" />
<glyph unicode="|" horiz-adv-x="575" d="M442 -274q-20 -4 -59 -9.5t-78 -5.5q-82 0 -127 26.5t-45 117.5v1529q20 4 59 9.5t78 5.5q82 0 127 -28t45 -118v-1527z" />
<glyph unicode="}" horiz-adv-x="669" d="M256 545q-111 51 -111 225v229q0 70 -23.5 99.5t-68.5 42.5q-4 16 -4 29.5v25.5q0 96 45 134t117 38q113 0 184.5 -71.5t71.5 -217.5v-215q0 -90 31.5 -137t101.5 -65q6 -25 10 -54.5t4 -62.5t-4 -62.5t-10 -54.5q-70 -18 -101.5 -65.5t-31.5 -137.5v-215 q0 -145 -71.5 -217t-184.5 -72q-72 0 -117 38t-45 135v25t4 30q45 12 68.5 41.5t23.5 99.5v229q0 173 111 226z" />
<glyph unicode="~" horiz-adv-x="1030" d="M666 641q49 0 76.5 26.5t45.5 57.5q43 0 81 -14.5t67 -39t45 -60.5t16 -79q0 -53 -20.5 -93t-54 -65.5t-78.5 -37.5t-94 -12q-63 0 -144 18q-61 14 -101 24.5t-65.5 15.5t-42 7t-30.5 2q-51 0 -79 -29.5t-44 -52.5q-41 0 -79 14.5t-66.5 39t-45 60.5t-16.5 79 q0 55 22.5 94t58.5 64.5t79 38t86 12.5q51 0 100 -11.5t96 -23.5t93.5 -23.5t93.5 -11.5z" />
<glyph unicode="&#xa1;" horiz-adv-x="610" d="M125 -285q0 47 2 136.5t8 192.5t16.5 206.5t24.5 179.5q8 6 24.5 12.5t35 10.5t37 6t32.5 2q59 0 99 -18.5t51 -71.5q8 -47 16 -143.5t14.5 -209t9.5 -223t3 -188.5q-41 -23 -93.5 -36t-103.5 -13q-84 0 -130 38.5t-46 118.5zM502 748q0 -84 -52.5 -138.5t-144.5 -54.5 t-144 54.5t-52 138.5t52 138t144 54t144.5 -54t52.5 -138z" />
<glyph unicode="&#xa2;" horiz-adv-x="1007" d="M664 752q-51 0 -97.5 -16.5t-80 -48.5t-54 -79t-20.5 -110q0 -127 72.5 -190.5t177.5 -63.5q61 0 106 14t80 31q41 -29 61.5 -62.5t20.5 -81.5q0 -74 -63.5 -118.5t-178.5 -55.5v-147q-18 -4 -57 -10.5t-80 -6.5q-80 0 -125 28t-45 118v59q-152 57 -237 181t-85 299 q0 199 90.5 320.5t231.5 174.5v189q18 4 57 10t80 6q80 0 125 -27.5t45 -117.5v-27q111 -14 169 -63.5t58 -120.5q0 -39 -18 -73t-43 -58q-35 16 -84 31.5t-106 15.5z" />
<glyph unicode="&#xa3;" horiz-adv-x="1032" d="M213 760q-6 39 -6 78q0 115 38 197.5t102.5 136t150.5 79t182 25.5q139 0 212 -47t73 -139q0 -41 -18.5 -79t-41.5 -55q-35 18 -73.5 29.5t-94.5 11.5q-88 0 -138 -38.5t-50 -133.5v-32.5t4 -32.5h268q10 -23 22.5 -56.5t12.5 -72.5q0 -78 -31.5 -108.5t-85.5 -30.5h-164 v-27q0 -113 -61 -195h453q12 -23 23 -57.5t11 -75.5q0 -74 -32.5 -105.5t-85.5 -31.5h-678q-53 0 -93 42t-40 120v15t2 16q82 37 123 98t41 178v23h-43q-53 0 -85 30.5t-32 108.5q0 39 12 72.5t23 56.5h100z" />
<glyph unicode="&#xa4;" horiz-adv-x="1157" d="M1010 598q0 -78 -21.5 -141.5t-60.5 -114.5l116 -137q-23 -53 -56.5 -78t-72.5 -25q-37 0 -66.5 29t-57.5 64l-23 26q-90 -37 -197 -37q-100 0 -186 35l-104 -135q-63 12 -103.5 40t-40.5 71q0 31 16.5 61.5t45.5 65.5l18 20q-41 51 -62.5 114.5t-21.5 141.5 q0 76 21.5 139.5t62.5 114.5l-104 127q23 53 56.5 77.5t72.5 24.5q37 0 66.5 -28.5t58.5 -63.5l12 -16q86 37 192 37q55 0 106.5 -11.5t96.5 -31.5l94 123q63 -12 103.5 -40t40.5 -71q0 -29 -17.5 -59.5t-44.5 -67.5l-14 -18q35 -47 54.5 -106.5t19.5 -129.5zM424 598 q0 -90 40 -138t109 -48q70 0 109 49t39 137t-40 136t-110 48t-108.5 -48t-38.5 -136z" />
<glyph unicode="&#xa5;" horiz-adv-x="1222" d="M152 520q-10 16 -19.5 45t-9.5 60q0 61 26.5 85.5t67.5 24.5h70q-66 111 -125.5 219.5t-93.5 196.5q25 37 69.5 66.5t108.5 29.5q78 0 127 -30.5t92 -118.5l162 -328h12q27 61 48.5 111.5t41 99.5t39.5 104.5t49 124.5q35 16 79 26.5t85 10.5q66 0 115 -36.5t49 -108.5 q0 -18 -5 -42t-23.5 -64t-52.5 -102.5t-91 -158.5h127q10 -18 19 -44.5t9 -61.5q0 -59 -26.5 -84t-67.5 -25h-882zM152 209q-10 16 -19.5 45t-9.5 59q0 61 26.5 86t67.5 25h883q10 -18 19 -45t9 -62q0 -59 -26.5 -83.5t-67.5 -24.5h-235v-201q-23 -6 -70 -12t-92 -6 q-94 0 -141 31.5t-47 134.5v53h-297z" />
<glyph unicode="&#xa6;" horiz-adv-x="600" d="M442 676q-20 -4 -59 -9t-78 -5q-82 0 -127 26.5t-45 116.5v579q20 4 59 9.5t78 5.5q82 0 127 -28t45 -118v-577zM442 -272q-20 -4 -59 -9.5t-78 -5.5q-82 0 -127 27t-45 117v579q20 4 59 9.5t78 5.5q82 0 127 -28t45 -118v-577z" />
<glyph unicode="&#xa7;" horiz-adv-x="1118" d="M1016 227q0 -150 -127 -236.5t-375 -86.5q-86 0 -159.5 12t-126 38t-82 64.5t-29.5 92.5q0 49 20.5 82.5t48.5 56.5q59 -33 136 -58.5t178 -25.5q98 0 135 18.5t37 48.5q0 29 -23.5 41.5t-83.5 22.5l-121 18q-180 27 -261 104t-81 206q0 55 21.5 104t60.5 86 q-39 29 -60.5 79t-21.5 118q0 74 33 131t92.5 97t142.5 61.5t183 21.5q74 0 140.5 -11.5t116.5 -34t79 -58t29 -84.5q0 -47 -17.5 -81t-44.5 -57q-16 10 -49 21.5t-72 21t-79 15.5t-72 6q-68 0 -105 -15.5t-37 -48.5q0 -23 19.5 -33t79.5 -20l112 -16q186 -29 274.5 -109 t88.5 -205q0 -55 -22.5 -107t-55.5 -85q35 -35 56.5 -87.5t21.5 -107.5zM426 635q0 -23 20.5 -48.5t77.5 -35.5l144 -29q10 12 17 29.5t7 40.5q0 29 -24.5 53.5t-83.5 34.5l-133 25q-25 -25 -25 -70z" />
<glyph unicode="&#xa8;" horiz-adv-x="765" d="M-29 1305q0 72 51.5 124t127.5 52q86 0 135 -52.5t49 -123.5q0 -72 -49 -124.5t-135 -52.5q-37 0 -70 14.5t-57.5 38t-38 55.5t-13.5 69zM430 1305q0 72 48 124t134 52q39 0 72 -14.5t57.5 -39t38 -56.5t13.5 -66q0 -72 -51.5 -124.5t-129.5 -52.5q-86 0 -134 52.5 t-48 124.5z" />
<glyph unicode="&#xa9;" horiz-adv-x="1460" d="M72 631q0 133 47 249.5t133 202.5t207 135.5t268 49.5t268 -49.5t209 -135.5t136.5 -202.5t48.5 -249.5q0 -135 -48.5 -251t-136.5 -201t-209 -134t-268 -49t-268 49t-207 134t-133 201t-47 251zM727 1083q-102 0 -182 -33.5t-137.5 -94t-87 -143.5t-29.5 -181t29.5 -180 t87 -141.5t137.5 -92.5t182 -33t183 33t137.5 92.5t86 141t29.5 180.5q0 98 -29.5 181t-86 143.5t-137.5 94t-183 33.5zM807 764q-55 0 -94 -33t-39 -92q0 -63 37 -98t94 -35q39 0 66.5 10t48.5 21q47 -41 47 -103q0 -47 -57.5 -82t-149.5 -35q-68 0 -126.5 21.5 t-101.5 62.5t-67.5 101.5t-24.5 138.5q0 80 30 138.5t77 97t105.5 58t115.5 19.5q86 0 137 -33.5t51 -84.5q0 -59 -41 -101q-18 10 -45.5 19.5t-62.5 9.5z" />
<glyph unicode="&#xaa;" horiz-adv-x="727" d="M338 821q23 0 50.5 4t39.5 13v106l-96 -8q-39 -4 -62.5 -16.5t-23.5 -40.5q0 -27 20.5 -42.5t71.5 -15.5zM326 1343q145 0 232 -59t87 -184v-299q0 -35 -19.5 -55.5t-45.5 -36.5q-43 -29 -103.5 -41.5t-138.5 -12.5q-141 0 -225 53.5t-84 161.5q0 180 223 205l174 19v8 q0 72 -131 72q-51 0 -100.5 -9.5t-83.5 -25.5q-16 10 -29.5 33.5t-13.5 52.5q0 35 16 55t51 35q41 16 92.5 22t98.5 6z" />
<glyph unicode="&#xab;" horiz-adv-x="1175" d="M1110 193q0 -59 -39 -106.5t-121 -47.5q-45 0 -80.5 23.5t-70.5 60.5l-199 201q-12 20 -21.5 54t-9.5 66q0 66 16.5 106t41.5 62l301 291q78 -23 117.5 -64.5t39.5 -90.5q0 -23 -3 -42.5t-13 -39t-28.5 -41t-49.5 -47.5l-135 -125zM600 193q0 -59 -39 -106.5t-121 -47.5 q-45 0 -80.5 23.5t-70.5 60.5l-199 201q-12 20 -21.5 54t-9.5 66q0 66 16.5 106t41.5 62l301 291q78 -23 117.5 -64.5t39.5 -90.5q0 -23 -3 -42.5t-13 -39t-28.5 -41t-49.5 -47.5l-135 -125z" />
<glyph unicode="&#xac;" horiz-adv-x="985" d="M778 729q72 0 113 -41t41 -113v-350q-20 -6 -64.5 -11t-85.5 -5q-43 0 -75.5 6t-54 22.5t-33 47t-11.5 77.5v93h-518q-12 23 -24.5 58.5t-12.5 76.5q0 74 34 106.5t87 32.5h604z" />
<glyph unicode="&#xad;" horiz-adv-x="724" d="M100 381q-14 23 -26.5 59.5t-12.5 77.5q0 76 35 110t90 34h439q12 -23 25.5 -60t13.5 -78q0 -76 -35 -109.5t-90 -33.5h-439z" />
<glyph unicode="&#xae;" horiz-adv-x="1267" d="M76 762q0 113 40 211t113.5 171t176 114.5t227.5 41.5q123 0 225.5 -41.5t177 -114.5t115.5 -171.5t41 -210.5q0 -113 -41 -211t-115.5 -170t-177 -114t-225.5 -42q-125 0 -227.5 42t-176 114t-113.5 170t-40 211zM260 762q0 -84 25.5 -152.5t75 -119t118 -78 t154.5 -27.5t154.5 27.5t115.5 78t72.5 119t25.5 152.5q0 82 -25.5 152.5t-72.5 121.5t-115.5 80t-154.5 29t-154.5 -29t-118 -80t-75 -121.5t-25.5 -152.5zM594 688v-156q-12 -2 -31.5 -4t-46.5 -2q-35 0 -54.5 12.5t-19.5 53.5v383q0 27 33 39q29 10 66 14t77 4 q113 0 169.5 -46t56.5 -128q0 -53 -25.5 -87t-62.5 -52q29 -41 57.5 -76t44.5 -63q-8 -29 -31.5 -43.5t-50.5 -14.5q-37 0 -57.5 17.5t-38.5 46.5l-66 102h-20zM625 799q31 0 49 13t18 46q0 57 -69 57q-10 0 -17.5 -1t-11.5 -1v-114h31z" />
<glyph unicode="&#xaf;" horiz-adv-x="657" d="M61 1155q-10 23 -21 56.5t-11 70.5q0 76 30.5 105.5t81.5 29.5h543q16 -23 24.5 -56.5t8.5 -70.5q0 -76 -30 -105.5t-81 -29.5h-545z" />
<glyph unicode="&#xb0;" horiz-adv-x="739" d="M365 743q-158 0 -245 86t-87 218q0 135 90 220t250 85q154 0 244 -85t90 -220q0 -66 -25 -121.5t-70 -96.5t-108 -63.5t-139 -22.5zM367 938q43 0 70.5 28.5t27.5 80.5q0 49 -24.5 78.5t-67.5 29.5q-41 0 -70 -27.5t-29 -80.5q0 -51 25 -80t68 -29z" />
<glyph unicode="&#xb1;" horiz-adv-x="1017" d="M106 -6q-14 23 -23 59.5t-9 73.5q0 74 32.5 107.5t88.5 33.5h737q10 -25 21.5 -60.5t11.5 -74.5q0 -72 -33 -105.5t-86 -33.5h-740zM670 352q-16 -8 -60.5 -13t-85.5 -5q-84 0 -127 27.5t-43 117.5v185h-268q-14 23 -23.5 59.5t-9.5 73.5q0 74 33 107.5t88 33.5h180v303 q20 6 62.5 13.5t83.5 7.5q82 0 126 -29t44 -121v-174h262q10 -25 21.5 -60.5t11.5 -74.5q0 -72 -33 -105.5t-86 -33.5h-176v-312z" />
<glyph unicode="&#xb2;" horiz-adv-x="573" d="M262 1272q123 0 189.5 -58.5t66.5 -150.5q0 -63 -42 -121.5t-103 -112.5l-78 -67h213q6 -14 13 -35.5t7 -44.5q0 -45 -19.5 -63.5t-51.5 -18.5h-363q-23 16 -36 40t-13 56q0 35 8 58.5t21 40.5l147 135q31 27 49.5 46t28.5 33.5t13 26t3 21.5q0 27 -19.5 40t-51.5 13 q-45 0 -79 -13.5t-56 -27.5q-16 14 -28.5 37.5t-12.5 54.5q0 55 52 83t142 28z" />
<glyph unicode="&#xb3;" horiz-adv-x="585" d="M256 1014q68 0 68 45q0 53 -88 53q-41 0 -74 -11t-60 -26q-49 33 -49 90q0 55 58.5 82t156.5 27q123 0 190.5 -52.5t67.5 -142.5q0 -43 -25.5 -78.5t-60.5 -56.5q41 -16 71 -56t30 -104q0 -92 -76 -146t-197 -54q-115 0 -174 33.5t-59 84.5q0 29 15.5 54.5t39.5 36.5 q33 -18 69 -30.5t85 -12.5q94 0 94 55q0 53 -78 53h-106q-8 12 -14.5 31.5t-6.5 44.5q0 29 5 47t16 33h102z" />
<glyph unicode="&#xb4;" horiz-adv-x="610" d="M379 1524q106 0 154.5 -41t48.5 -99q0 -53 -29 -88.5t-94 -70.5l-264 -140q-61 6 -104.5 49.5t-43.5 92.5q0 25 12.5 49t40.5 45z" />
<glyph unicode="&#xb5;" horiz-adv-x="1196" d="M109 981q20 6 64 12t91 6q45 0 81 -6t60.5 -24.5t38 -50t13.5 -82.5v-451q0 -41 13 -69.5t35.5 -45t51.5 -23.5t61 -7q39 0 69 7t52 17v717q20 6 64.5 12t91.5 6q45 0 81 -6t60.5 -24.5t37.5 -50t13 -82.5v-625q0 -51 -21.5 -88t-59.5 -66q-47 -35 -128 -62.5t-214 -27.5 q-57 0 -110.5 10.5t-96.5 26.5v-348q-20 -6 -65.5 -13.5t-92.5 -7.5q-45 0 -81 6.5t-60.5 25t-36.5 50t-12 82.5v1182z" />
<glyph unicode="&#xb6;" horiz-adv-x="1126" d="M821 1243q45 0 81 -6t60.5 -24.5t38 -50.5t13.5 -83v-1220q-23 -4 -67 -11.5t-89 -7.5t-81 6.5t-60.5 24.5t-37.5 50t-13 83v946h-142v-497q0 -27 -30.5 -44.5t-98.5 -17.5q-66 0 -131 24.5t-116.5 75t-83 127t-31.5 183.5q0 111 39 193.5t105.5 138t154.5 83t186 27.5 h303z" />
<glyph unicode="&#xb7;" horiz-adv-x="479" d="M41 616q0 86 53 143.5t146 57.5q92 0 145 -57.5t53 -143.5t-53 -143t-145 -57t-145.5 57t-53.5 143z" />
<glyph unicode="&#xb8;" horiz-adv-x="399" d="M227 78q76 -37 123 -110.5t47 -145.5q0 -104 -65.5 -173t-181.5 -69q-84 0 -137.5 42t-53.5 120q0 35 8 61q66 4 102.5 32t36.5 75q0 20 -10 50t-28 50z" />
<glyph unicode="&#xb9;" horiz-adv-x="454" d="M369 600q-12 -2 -38 -5t-52 -3q-53 0 -82 16.5t-29 75.5v358l-84 -24q-23 14 -46.5 40.5t-23.5 69.5q0 63 66 91l147 53h33q49 0 79 -31t30 -78v-563z" />
<glyph unicode="&#xba;" horiz-adv-x="811" d="M748 1001q0 -166 -95.5 -255t-253.5 -89t-253 91.5t-95 252.5q0 158 95.5 250t252.5 92q78 0 142.5 -24.5t110.5 -68.5t71 -107.5t25 -141.5zM283 1001q0 -82 31.5 -124.5t86.5 -42.5q53 0 84 44t31 123q0 78 -30.5 122t-86.5 44q-55 0 -85.5 -43t-30.5 -123z" />
<glyph unicode="&#xbb;" horiz-adv-x="1175" d="M59 750q0 59 39 106t121 47q45 0 81 -23.5t71 -60.5l198 -205q12 -20 21.5 -54t9.5 -66q0 -66 -16.5 -106t-40.5 -62l-301 -287q-78 23 -118 64.5t-40 91.5q0 45 17.5 79.5t76.5 90.5l135 124zM569 750q0 59 39 106t121 47q45 0 81 -23.5t71 -60.5l198 -205 q12 -20 21.5 -54t9.5 -66q0 -66 -16.5 -106t-40.5 -62l-301 -287q-78 23 -118 64.5t-40 91.5q0 45 17.5 79.5t76.5 90.5l135 124z" />
<glyph unicode="&#xbc;" horiz-adv-x="1290" d="M369 600q-12 -2 -38 -5t-52 -3q-53 0 -82 16.5t-29 75.5v358l-84 -24q-23 14 -46.5 40.5t-23.5 69.5q0 63 66 91l147 53h33q49 0 79 -31t30 -78v-563zM911 1264q63 -10 103.5 -36t44.5 -69q0 -31 -15.5 -61.5t-39.5 -67.5l-719 -1044q-63 10 -103.5 35.5t-44.5 68.5 q0 31 15.5 61.5t40.5 67.5zM1174 285h88q6 -12 12 -34t6 -46q0 -43 -19.5 -61.5t-48.5 -18.5h-38v-125q-12 -4 -37 -6t-50 -2q-49 0 -76.5 16.5t-27.5 71.5v45h-264q-27 12 -44.5 37.5t-17.5 64.5q0 29 8.5 50.5t20.5 44.5l246 325q20 4 47 9.5t57 5.5q49 0 93.5 -22 t44.5 -81v-274zM989 465l-121 -180h121v180z" />
<glyph unicode="&#xbd;" horiz-adv-x="1302" d="M369 600q-12 -2 -38 -5t-52 -3q-53 0 -82 16.5t-29 75.5v358l-84 -24q-23 14 -46.5 40.5t-23.5 69.5q0 63 66 91l147 53h33q49 0 79 -31t30 -78v-563zM911 1264q63 -10 103.5 -36t44.5 -69q0 -31 -15.5 -61.5t-39.5 -67.5l-719 -1044q-63 10 -103.5 35.5t-44.5 68.5 q0 31 15.5 61.5t40.5 67.5zM991 676q123 0 189.5 -58.5t66.5 -150.5q0 -63 -42 -121.5t-103 -112.5l-78 -67h213q6 -14 13 -35.5t7 -44.5q0 -45 -19 -63.5t-52 -18.5h-363q-23 16 -36 40t-13 56q0 35 8.5 58.5t20.5 40.5l147 135q31 27 49.5 46t28.5 33.5t13 26t3 21.5 q0 27 -19 40t-52 13q-45 0 -79 -13.5t-56 -27.5q-16 14 -28.5 38t-12.5 54q0 55 52 83t142 28z" />
<glyph unicode="&#xbe;" horiz-adv-x="1404" d="M256 1014q68 0 68 45q0 53 -88 53q-41 0 -74 -11t-60 -26q-49 33 -49 90q0 55 58.5 82t156.5 27q123 0 190.5 -52.5t67.5 -142.5q0 -43 -25.5 -78.5t-60.5 -56.5q41 -16 71 -56t30 -104q0 -92 -76 -146t-197 -54q-115 0 -174 33.5t-59 84.5q0 29 15.5 54.5t39.5 36.5 q33 -18 69 -30.5t85 -12.5q94 0 94 55q0 53 -78 53h-106q-8 12 -14.5 31.5t-6.5 44.5q0 29 5 47t16 33h102zM1024 1264q63 -10 103 -36t44 -69q0 -31 -15 -61.5t-40 -67.5l-719 -1044q-63 10 -103 35.5t-44 68.5q0 31 15.5 61.5t39.5 67.5zM1288 285h88q6 -12 12.5 -34 t6.5 -46q0 -43 -19.5 -61.5t-48.5 -18.5h-39v-125q-12 -4 -36.5 -6t-49.5 -2q-49 0 -76.5 16.5t-27.5 71.5v45h-264q-27 12 -44.5 37.5t-17.5 64.5q0 29 8 50.5t21 44.5l246 325q20 4 46.5 9.5t57.5 5.5q49 0 93 -22t44 -81v-274zM1104 465l-121 -180h121v180z" />
<glyph unicode="&#xbf;" horiz-adv-x="899" d="M698 748q0 -84 -52 -138.5t-144 -54.5t-144.5 54.5t-52.5 138.5t52.5 138t144.5 54t144 -54t52 -138zM631 479q35 -18 65.5 -66t30.5 -114q0 -63 -34 -95t-99 -48l-160 -39q-102 -27 -102 -99q0 -39 38 -67.5t130 -28.5q84 0 157.5 21.5t118.5 50.5q35 -27 59.5 -65 t24.5 -91t-30.5 -93t-85 -65.5t-130 -38t-163.5 -12.5q-242 0 -366 107.5t-124 281.5q0 328 463 420z" />
<glyph unicode="&#xc0;" horiz-adv-x="1284" d="M397 1204q35 20 105.5 39t142.5 19q102 0 181 -30t102 -93q37 -106 80 -247.5t86 -292t84 -297t71 -259.5q-25 -29 -74 -46t-116 -17q-49 0 -83 8t-55.5 24.5t-35 43t-23.5 61.5l-37 141h-370q-16 -61 -32.5 -126.5t-33.5 -127.5q-29 -10 -60.5 -17t-76.5 -7 q-104 0 -154.5 35.5t-50.5 99.5q0 29 8 57.5t19 67.5q14 55 39.5 137t56.5 177t65.5 195.5t65.5 189.5t56.5 158.5t39.5 106.5zM643 940q-29 -86 -64.5 -191.5t-64.5 -213.5h254q-29 111 -58.5 216t-54.5 189h-12zM375 1487q-10 23 -13.5 45t-3.5 41q0 66 40 106.5t110 40.5 q37 0 69.5 -13t73.5 -36l279 -143q2 -8 2 -16.5v-16.5q0 -72 -36 -115t-89 -43q-51 0 -117 27z" />
<glyph unicode="&#xc1;" horiz-adv-x="1284" d="M397 1204q35 20 105.5 39t142.5 19q102 0 181 -30t102 -93q37 -106 80 -247.5t86 -292t84 -297t71 -259.5q-25 -29 -74 -46t-116 -17q-49 0 -83 8t-55.5 24.5t-35 43t-23.5 61.5l-37 141h-370q-16 -61 -32.5 -126.5t-33.5 -127.5q-29 -10 -60.5 -17t-76.5 -7 q-104 0 -154.5 35.5t-50.5 99.5q0 29 8 57.5t19 67.5q14 55 39.5 137t56.5 177t65.5 195.5t65.5 189.5t56.5 158.5t39.5 106.5zM643 940q-29 -86 -64.5 -191.5t-64.5 -213.5h254q-29 111 -58.5 216t-54.5 189h-12zM760 1743q100 -8 143 -48t43 -93q0 -59 -33.5 -94 t-105.5 -64l-281 -111q-59 12 -95 49t-36 82q0 29 15.5 55.5t48.5 43.5z" />
<glyph unicode="&#xc2;" horiz-adv-x="1284" d="M397 1204q35 20 105.5 39t142.5 19q102 0 181 -30t102 -93q37 -106 80 -247.5t86 -292t84 -297t71 -259.5q-25 -29 -74 -46t-116 -17q-49 0 -83 8t-55.5 24.5t-35 43t-23.5 61.5l-37 141h-370q-16 -61 -32.5 -126.5t-33.5 -127.5q-29 -10 -60.5 -17t-76.5 -7 q-104 0 -154.5 35.5t-50.5 99.5q0 29 8 57.5t19 67.5q14 55 39.5 137t56.5 177t65.5 195.5t65.5 189.5t56.5 158.5t39.5 106.5zM643 940q-29 -86 -64.5 -191.5t-64.5 -213.5h254q-29 111 -58.5 216t-54.5 189h-12zM664 1503q-63 -47 -112.5 -80.5t-94.5 -66.5 q-61 0 -103.5 35.5t-42.5 89.5q0 41 19.5 71.5t75.5 69.5l73 53q51 35 95 54.5t85 19.5q55 0 94.5 -18.5t92.5 -65.5l166 -145q0 -70 -30 -114t-93 -44q-20 0 -37.5 4t-38 14.5t-45.5 30t-57 49.5z" />
<glyph unicode="&#xc3;" horiz-adv-x="1284" d="M397 1204q35 20 105.5 39t142.5 19q102 0 181 -30t102 -93q37 -106 80 -247.5t86 -292t84 -297t71 -259.5q-25 -29 -74 -46t-116 -17q-49 0 -83 8t-55.5 24.5t-35 43t-23.5 61.5l-37 141h-370q-16 -61 -32.5 -126.5t-33.5 -127.5q-29 -10 -60.5 -17t-76.5 -7 q-104 0 -154.5 35.5t-50.5 99.5q0 29 8 57.5t19 67.5q14 55 39.5 137t56.5 177t65.5 195.5t65.5 189.5t56.5 158.5t39.5 106.5zM643 940q-29 -86 -64.5 -191.5t-64.5 -213.5h254q-29 111 -58.5 216t-54.5 189h-12zM659 1690q37 -10 61.5 -16.5t41.5 -6.5q45 0 69.5 26.5 t34.5 45.5q72 0 120 -46t48 -118q0 -92 -57 -135t-143 -43q-29 0 -57.5 3t-63.5 13l-82 25q-29 8 -48.5 13t-37.5 5q-45 0 -68.5 -25.5t-36.5 -46.5q-72 0 -120 46.5t-48 117.5q0 45 17.5 79t46.5 56.5t64.5 32.5t72.5 10q27 0 64.5 -5.5t121.5 -30.5z" />
<glyph unicode="&#xc4;" horiz-adv-x="1284" d="M397 1204q35 20 105.5 39t142.5 19q102 0 181 -30t102 -93q37 -106 80 -247.5t86 -292t84 -297t71 -259.5q-25 -29 -74 -46t-116 -17q-49 0 -83 8t-55.5 24.5t-35 43t-23.5 61.5l-37 141h-370q-16 -61 -32.5 -126.5t-33.5 -127.5q-29 -10 -60.5 -17t-76.5 -7 q-104 0 -154.5 35.5t-50.5 99.5q0 29 8 57.5t19 67.5q14 55 39.5 137t56.5 177t65.5 195.5t65.5 189.5t56.5 158.5t39.5 106.5zM643 940q-29 -86 -64.5 -191.5t-64.5 -213.5h254q-29 111 -58.5 216t-54.5 189h-12zM240 1546q0 72 51 124t127 52q86 0 135 -52t49 -124 t-49 -124t-135 -52q-37 0 -70 14.5t-57.5 38t-37.5 55t-13 68.5zM698 1546q0 72 48.5 124t134.5 52q39 0 71.5 -14t57 -38.5t38 -56.5t13.5 -67q0 -72 -51.5 -124t-128.5 -52q-86 0 -134.5 52t-48.5 124z" />
<glyph unicode="&#xc5;" horiz-adv-x="1284" d="M397 1204q35 20 105.5 39t142.5 19q102 0 181 -30t102 -93q37 -106 80 -247.5t86 -292t84 -297t71 -259.5q-25 -29 -74 -46t-116 -17q-49 0 -83 8t-55.5 24.5t-35 43t-23.5 61.5l-37 141h-370q-16 -61 -32.5 -126.5t-33.5 -127.5q-29 -10 -60.5 -17t-76.5 -7 q-104 0 -154.5 35.5t-50.5 99.5q0 29 8 57.5t19 67.5q14 55 39.5 137t56.5 177t65.5 195.5t65.5 189.5t56.5 158.5t39.5 106.5zM643 940q-29 -86 -64.5 -191.5t-64.5 -213.5h254q-29 111 -58.5 216t-54.5 189h-12zM387 1544q0 96 74 159.5t196 63.5q129 0 205 -63.5 t76 -159.5t-76 -158.5t-205 -62.5q-123 0 -196.5 62.5t-73.5 158.5zM594 1544q0 -29 19.5 -46t45.5 -17q31 0 50.5 17.5t19.5 45.5q0 29 -19.5 46.5t-50.5 17.5q-27 0 -46 -17.5t-19 -46.5z" />
<glyph unicode="&#xc6;" horiz-adv-x="1792" d="M1669 1241q14 -23 25.5 -59.5t11.5 -77.5q0 -78 -34 -110.5t-89 -32.5h-432v-191h461q14 -23 25.5 -58.5t11.5 -76.5q0 -78 -33 -110.5t-88 -32.5h-377v-216h526q14 -23 25.5 -59.5t11.5 -77.5q0 -78 -33.5 -111.5t-89.5 -33.5h-598q-88 0 -139 51t-51 139v74h-314 l-116 -254q-29 -10 -60.5 -17t-76.5 -7q-94 0 -139.5 35.5t-45.5 99.5q0 29 7.5 58.5t23.5 66.5q25 57 64.5 139t84.5 175t93.5 190.5t92.5 184.5t81 155.5t59 105.5q31 23 88 42t129 19q47 0 101.5 -10t93.5 -29q45 29 104 29h596zM791 940l-177 -405h189v405h-12z" />
<glyph unicode="&#xc7;" horiz-adv-x="1169" d="M766 991q-158 0 -242 -96t-84 -272q0 -178 93.5 -274.5t250.5 -96.5q84 0 142.5 22.5t111.5 51.5q35 -29 54.5 -69t19.5 -93q0 -68 -57.5 -119t-180.5 -70q16 -29 24.5 -73.5t8.5 -79.5q0 -106 -65.5 -176t-186.5 -70q-86 0 -138 44t-52 122q0 23 3 36t7 25 q133 6 133 101q0 12 -3 31.5t-13 39.5q-111 16 -206 64.5t-164.5 128.5t-109.5 193.5t-40 261.5q0 160 50 281.5t137 205.5t204 127t250 43q188 0 291.5 -61.5t103.5 -157.5q0 -53 -26.5 -92t-61.5 -62q-53 35 -113.5 59.5t-140.5 24.5z" />
<glyph unicode="&#xc8;" horiz-adv-x="1107" d="M119 1051q0 88 51 139t139 51h676q14 -23 25.5 -59.5t11.5 -77.5q0 -78 -34 -110.5t-89 -32.5h-432v-191h461q14 -23 25.5 -58.5t11.5 -76.5q0 -78 -33 -110.5t-88 -32.5h-377v-216h526q14 -23 25.5 -59.5t11.5 -77.5q0 -78 -33.5 -111.5t-89.5 -33.5h-598q-88 0 -139 51 t-51 139v867zM254 1487q-10 23 -13 45t-3 41q0 66 39.5 106.5t109.5 40.5q37 0 69.5 -13t73.5 -36l279 -143q2 -8 2 -16.5v-16.5q0 -72 -36 -115t-89 -43q-51 0 -117 27z" />
<glyph unicode="&#xc9;" horiz-adv-x="1107" d="M119 1051q0 88 51 139t139 51h676q14 -23 25.5 -59.5t11.5 -77.5q0 -78 -34 -110.5t-89 -32.5h-432v-191h461q14 -23 25.5 -58.5t11.5 -76.5q0 -78 -33 -110.5t-88 -32.5h-377v-216h526q14 -23 25.5 -59.5t11.5 -77.5q0 -78 -33.5 -111.5t-89.5 -33.5h-598q-88 0 -139 51 t-51 139v867zM672 1743q100 -8 143 -48t43 -93q0 -59 -33.5 -94t-105.5 -64l-281 -111q-59 12 -95 49t-36 82q0 29 15.5 55.5t48.5 43.5z" />
<glyph unicode="&#xca;" horiz-adv-x="1107" d="M119 1051q0 88 51 139t139 51h676q14 -23 25.5 -59.5t11.5 -77.5q0 -78 -34 -110.5t-89 -32.5h-432v-191h461q14 -23 25.5 -58.5t11.5 -76.5q0 -78 -33 -110.5t-88 -32.5h-377v-216h526q14 -23 25.5 -59.5t11.5 -77.5q0 -78 -33.5 -111.5t-89.5 -33.5h-598q-88 0 -139 51 t-51 139v867zM557 1503q-63 -47 -112.5 -80.5t-94.5 -66.5q-61 0 -103 35.5t-42 89.5q0 41 19.5 71.5t74.5 69.5l74 53q51 35 95 54.5t85 19.5q55 0 94 -18.5t92 -65.5l166 -145q0 -70 -29.5 -114t-93.5 -44q-20 0 -37.5 4t-38 14.5t-45 30t-57.5 49.5z" />
<glyph unicode="&#xcb;" horiz-adv-x="1107" d="M119 1051q0 88 51 139t139 51h676q14 -23 25.5 -59.5t11.5 -77.5q0 -78 -34 -110.5t-89 -32.5h-432v-191h461q14 -23 25.5 -58.5t11.5 -76.5q0 -78 -33 -110.5t-88 -32.5h-377v-216h526q14 -23 25.5 -59.5t11.5 -77.5q0 -78 -33.5 -111.5t-89.5 -33.5h-598q-88 0 -139 51 t-51 139v867zM143 1550q0 72 51.5 124t127.5 52q86 0 135 -52t49 -124t-49 -124t-135 -52q-37 0 -70 14.5t-57.5 38t-38 55t-13.5 68.5zM602 1550q0 72 48 124t134 52q39 0 72 -14t57.5 -38.5t38 -56.5t13.5 -67q0 -72 -51.5 -124t-129.5 -52q-86 0 -134 52t-48 124z" />
<glyph unicode="&#xcc;" horiz-adv-x="624" d="M2 1487q-10 23 -13 45t-3 41q0 66 40 106.5t109 40.5q37 0 70 -13t74 -36l278 -143q2 -8 2 -16.5v-16.5q0 -72 -36 -115t-89 -43q-51 0 -117 27zM492 8q-23 -6 -71 -12t-95 -6t-83 7t-60.5 25.5t-37 51t-12.5 86.5v1081q23 4 72 11.5t94 7.5q47 0 83 -7.5t60.5 -26 t37 -51t12.5 -85.5v-1082z" />
<glyph unicode="&#xcd;" horiz-adv-x="624" d="M451 1743q100 -8 143 -48t43 -93q0 -59 -34 -94t-105 -64l-281 -111q-59 12 -95 49t-36 82q0 29 15.5 55.5t48.5 43.5zM492 8q-23 -6 -71 -12t-95 -6t-83 7t-60.5 25.5t-37 51t-12.5 86.5v1081q23 4 72 11.5t94 7.5q47 0 83 -7.5t60.5 -26t37 -51t12.5 -85.5v-1082z" />
<glyph unicode="&#xce;" horiz-adv-x="624" d="M313 1503q-63 -47 -112 -80.5t-95 -66.5q-61 0 -103 35.5t-42 89.5q0 41 19.5 71.5t74.5 69.5l74 53q51 35 95 54.5t85 19.5q55 0 94 -18.5t93 -65.5l166 -145q0 -70 -30 -114t-93 -44q-20 0 -38 4t-38.5 14.5t-45 30t-57.5 49.5zM492 8q-23 -6 -71 -12t-95 -6t-83 7 t-60.5 25.5t-37 51t-12.5 86.5v1081q23 4 72 11.5t94 7.5q47 0 83 -7.5t60.5 -26t37 -51t12.5 -85.5v-1082z" />
<glyph unicode="&#xcf;" horiz-adv-x="624" d="M-109 1546q0 72 51.5 124t127.5 52q86 0 135 -52t49 -124t-49 -124t-135 -52q-37 0 -70 14.5t-57.5 38t-38 55t-13.5 68.5zM350 1546q0 72 48 124t134 52q39 0 72 -14t57.5 -38.5t38 -56.5t13.5 -67q0 -72 -51.5 -124t-129.5 -52q-86 0 -134 52t-48 124zM492 8 q-23 -6 -71 -12t-95 -6t-83 7t-60.5 25.5t-37 51t-12.5 86.5v1081q23 4 72 11.5t94 7.5q47 0 83 -7.5t60.5 -26t37 -51t12.5 -85.5v-1082z" />
<glyph unicode="&#xd0;" horiz-adv-x="1433" d="M78 487q-14 23 -25.5 60t-11.5 78q0 78 35 110.5t88 32.5h39v356q0 43 23.5 66.5t64.5 38.5q88 29 186 38t176 9q160 0 290 -39t223.5 -120t144.5 -203.5t51 -290.5q0 -164 -49 -286t-140.5 -205t-218.5 -124t-280 -41q-35 0 -80 2t-93 8.5t-96.5 15.5t-89.5 25 q-113 43 -112 150v319h-125zM559 266q23 -4 55.5 -7t61.5 -3q70 0 128 20.5t100 63.5t65.5 111.5t23.5 164.5q0 184 -86 277.5t-229 93.5q-29 0 -58.5 -2t-60.5 -6v-211h195q14 -23 25.5 -59.5t11.5 -77.5q0 -78 -35 -111t-88 -33h-109v-221z" />
<glyph unicode="&#xd1;" horiz-adv-x="1361" d="M1243 43q-29 -29 -83 -44t-130 -15t-143.5 22.5t-110.5 108.5l-203 413q-31 63 -55 120t-53 130l-12 -2q8 -111 9 -225.5t1 -224.5v-318q-23 -6 -69 -12t-91 -6t-80 6t-57.5 24.5t-34.5 50t-12 83.5v1024q29 41 88 61.5t127 20.5q76 0 144.5 -24t109.5 -108l205 -413 q31 -63 55 -119.5t53 -130.5l10 2q-8 111 -10 221.5t-2 220.5v332q23 6 69 12.5t91 6.5q90 0 137 -32t47 -132v-1053zM692 1671q37 -10 61.5 -16t41.5 -6q45 0 69.5 26.5t34.5 44.5q72 0 120 -46t48 -118q0 -92 -57.5 -135t-143.5 -43q-29 0 -57.5 3t-63.5 14l-81 24 q-29 8 -48.5 13.5t-37.5 5.5q-45 0 -69 -26t-36 -46q-72 0 -120 46t-48 118q0 45 17.5 78.5t46 56.5t64.5 33t73 10q27 0 64.5 -6t121.5 -31z" />
<glyph unicode="&#xd2;" horiz-adv-x="1439" d="M72 623q0 160 50 282.5t137 205.5t205 126t255 43t255 -43t206 -126t138 -206t50 -282q0 -160 -49 -284t-136 -207t-206 -126t-258 -43t-258 44t-205 128t-135 207t-49 281zM440 623q0 -186 76 -278.5t203 -92.5q129 0 204.5 92t75.5 279q0 184 -74.5 276t-203.5 92 q-127 0 -204 -91t-77 -277zM436 1487q-10 23 -13 45t-3 41q0 66 40 106.5t109 40.5q37 0 70 -13t74 -36l278 -143q2 -8 2 -16.5v-16.5q0 -72 -35.5 -115t-89.5 -43q-51 0 -116 27z" />
<glyph unicode="&#xd3;" horiz-adv-x="1439" d="M72 623q0 160 50 282.5t137 205.5t205 126t255 43t255 -43t206 -126t138 -206t50 -282q0 -160 -49 -284t-136 -207t-206 -126t-258 -43t-258 44t-205 128t-135 207t-49 281zM440 623q0 -186 76 -278.5t203 -92.5q129 0 204.5 92t75.5 279q0 184 -74.5 276t-203.5 92 q-127 0 -204 -91t-77 -277zM831 1743q100 -8 143.5 -48t43.5 -93q0 -59 -34 -94t-105 -64l-281 -111q-59 12 -95 49t-36 82q0 29 15.5 55.5t47.5 43.5z" />
<glyph unicode="&#xd4;" horiz-adv-x="1439" d="M72 623q0 160 50 282.5t137 205.5t205 126t255 43t255 -43t206 -126t138 -206t50 -282q0 -160 -49 -284t-136 -207t-206 -126t-258 -43t-258 44t-205 128t-135 207t-49 281zM440 623q0 -186 76 -278.5t203 -92.5q129 0 204.5 92t75.5 279q0 184 -74.5 276t-203.5 92 q-127 0 -204 -91t-77 -277zM729 1503q-63 -47 -112.5 -80.5t-94.5 -66.5q-61 0 -103 35.5t-42 89.5q0 41 19.5 71.5t74.5 69.5l74 53q51 35 95 54.5t85 19.5q55 0 94 -18.5t92 -65.5l166 -145q0 -70 -29.5 -114t-93.5 -44q-20 0 -37.5 4t-38 14.5t-45 30t-57.5 49.5z" />
<glyph unicode="&#xd5;" horiz-adv-x="1439" d="M72 623q0 160 50 282.5t137 205.5t205 126t255 43t255 -43t206 -126t138 -206t50 -282q0 -160 -49 -284t-136 -207t-206 -126t-258 -43t-258 44t-205 128t-135 207t-49 281zM440 623q0 -186 76 -278.5t203 -92.5q129 0 204.5 92t75.5 279q0 184 -74.5 276t-203.5 92 q-127 0 -204 -91t-77 -277zM731 1690q37 -10 61.5 -16.5t41.5 -6.5q45 0 69.5 26.5t34.5 45.5q72 0 120 -46t48 -118q0 -92 -57.5 -135t-143.5 -43q-29 0 -57.5 3t-63.5 13l-82 25q-29 8 -48 13t-38 5q-45 0 -68.5 -25.5t-35.5 -46.5q-72 0 -120 46.5t-48 117.5 q0 45 17.5 79t46 56.5t64.5 32.5t73 10q27 0 64.5 -5.5t121.5 -30.5z" />
<glyph unicode="&#xd6;" horiz-adv-x="1439" d="M72 623q0 160 50 282.5t137 205.5t205 126t255 43t255 -43t206 -126t138 -206t50 -282q0 -160 -49 -284t-136 -207t-206 -126t-258 -43t-258 44t-205 128t-135 207t-49 281zM440 623q0 -186 76 -278.5t203 -92.5q129 0 204.5 92t75.5 279q0 184 -74.5 276t-203.5 92 q-127 0 -204 -91t-77 -277zM305 1546q0 72 51.5 124t126.5 52q86 0 135.5 -52t49.5 -124t-49.5 -124t-135.5 -52q-37 0 -69.5 14.5t-57 38t-38 55t-13.5 68.5zM764 1546q0 72 48 124t134 52q39 0 72 -14t57.5 -38.5t37.5 -56.5t13 -67q0 -72 -51 -124t-129 -52 q-86 0 -134 52t-48 124z" />
<glyph unicode="&#xd7;" horiz-adv-x="1032" d="M776 1034q63 -20 112.5 -69.5t49.5 -108.5q0 -25 -12.5 -50.5t-40.5 -53.5l-162 -168l252 -291q-23 -72 -70 -114t-114 -42q-23 0 -54.5 13.5t-54.5 42.5l-170 204l-254 -274q-41 6 -76 23.5t-60.5 41t-39.5 51t-14 54.5q0 43 53 98l190 205l-254 260q8 31 25.5 61.5 t42.5 54t53.5 38t59.5 14.5q55 0 94 -45l192 -209z" />
<glyph unicode="&#xd8;" horiz-adv-x="1439" d="M72 623q0 160 50 282.5t137 205.5t205 126t255 43q125 0 233 -37l86 143q82 0 133.5 -35.5t51.5 -82.5q0 -33 -17.5 -71t-40.5 -73q94 -86 148.5 -211t54.5 -290q0 -160 -49 -284t-136 -207t-206 -126t-258 -43q-129 0 -240 37l-84 -141q-86 0 -135 36.5t-49 88.5 q0 29 17.5 67.5t37.5 73.5q-92 86 -143 210t-51 288zM719 252q129 0 210 92t81 279q0 57 -8.5 104t-24.5 88l-336 -555q33 -8 78 -8zM430 623q0 -59 8 -107.5t25 -89.5l334 555q-41 10 -76 10q-127 0 -209 -92t-82 -276z" />
<glyph unicode="&#xd9;" horiz-adv-x="1359" d="M1233 459q0 -111 -38 -202t-109.5 -155.5t-174 -99.5t-231.5 -35t-231.5 35t-174 99.5t-109.5 155.5t-38 202v782q23 4 72 11.5t94 7.5q47 0 83 -7.5t60.5 -26t36.5 -51t12 -85.5v-625q0 -98 54.5 -153.5t140.5 -55.5q88 0 141 55.5t53 153.5v776q23 4 72 11.5t94 7.5 q47 0 83 -7.5t60.5 -26t37 -51t12.5 -85.5v-631zM371 1487q-10 23 -13.5 45t-3.5 41q0 66 40 106.5t110 40.5q37 0 69.5 -13t73.5 -36l279 -143q2 -8 2 -16.5v-16.5q0 -72 -36 -115t-89 -43q-51 0 -117 27z" />
<glyph unicode="&#xda;" horiz-adv-x="1359" d="M1233 459q0 -111 -38 -202t-109.5 -155.5t-174 -99.5t-231.5 -35t-231.5 35t-174 99.5t-109.5 155.5t-38 202v782q23 4 72 11.5t94 7.5q47 0 83 -7.5t60.5 -26t36.5 -51t12 -85.5v-625q0 -98 54.5 -153.5t140.5 -55.5q88 0 141 55.5t53 153.5v776q23 4 72 11.5t94 7.5 q47 0 83 -7.5t60.5 -26t37 -51t12.5 -85.5v-631zM797 1743q100 -8 143 -48t43 -93q0 -59 -34 -94t-105 -64l-281 -111q-59 12 -95 49t-36 82q0 29 15.5 55.5t48.5 43.5z" />
<glyph unicode="&#xdb;" horiz-adv-x="1359" d="M1233 459q0 -111 -38 -202t-109.5 -155.5t-174 -99.5t-231.5 -35t-231.5 35t-174 99.5t-109.5 155.5t-38 202v782q23 4 72 11.5t94 7.5q47 0 83 -7.5t60.5 -26t36.5 -51t12 -85.5v-625q0 -98 54.5 -153.5t140.5 -55.5q88 0 141 55.5t53 153.5v776q23 4 72 11.5t94 7.5 q47 0 83 -7.5t60.5 -26t37 -51t12.5 -85.5v-631zM690 1503q-63 -47 -112.5 -80.5t-94.5 -66.5q-61 0 -103 35.5t-42 89.5q0 41 19.5 71.5t74.5 69.5l74 53q51 35 95 54.5t85 19.5q55 0 94 -18.5t92 -65.5l166 -145q0 -70 -29.5 -114t-93.5 -44q-20 0 -37.5 4t-38 14.5 t-45 30t-57.5 49.5z" />
<glyph unicode="&#xdc;" horiz-adv-x="1359" d="M1233 459q0 -111 -38 -202t-109.5 -155.5t-174 -99.5t-231.5 -35t-231.5 35t-174 99.5t-109.5 155.5t-38 202v782q23 4 72 11.5t94 7.5q47 0 83 -7.5t60.5 -26t36.5 -51t12 -85.5v-625q0 -98 54.5 -153.5t140.5 -55.5q88 0 141 55.5t53 153.5v776q23 4 72 11.5t94 7.5 q47 0 83 -7.5t60.5 -26t37 -51t12.5 -85.5v-631zM264 1546q0 72 51.5 124t126.5 52q86 0 135.5 -52t49.5 -124t-49.5 -124t-135.5 -52q-37 0 -69.5 14.5t-57 38t-38 55t-13.5 68.5zM723 1546q0 72 48 124t134 52q39 0 72 -14t57.5 -38.5t37.5 -56.5t13 -67q0 -72 -51 -124 t-129 -52q-86 0 -134 52t-48 124z" />
<glyph unicode="&#xdd;" horiz-adv-x="1175" d="M784 8q-23 -6 -69.5 -12t-91.5 -6q-94 0 -141.5 31.5t-47.5 134.5v276q-51 76 -110.5 168t-116.5 188.5t-106.5 189.5t-80.5 171q27 37 73 67.5t114 30.5q80 0 130 -32.5t95 -122.5l170 -342h12q29 63 50.5 115.5t42 104.5t43 108.5t51.5 129.5q37 18 82 28.5t86 10.5 q72 0 122 -38t50 -113q0 -25 -10.5 -60t-47 -105.5t-107.5 -191.5t-192 -315v-416zM727 1743q100 -8 143 -48t43 -93q0 -59 -33.5 -94t-105.5 -64l-280 -111q-59 12 -95.5 49t-36.5 82q0 29 15.5 55.5t48.5 43.5z" />
<glyph unicode="&#xde;" horiz-adv-x="1222" d="M479 791v-324h109q86 0 132 40t46 122t-46 122t-132 40h-109zM481 1071h146q125 0 220 -31.5t157.5 -90t94 -139.5t31.5 -181t-31.5 -181t-94 -139.5t-157.5 -90.5t-220 -32h-146v-184q-23 -6 -71 -12t-95 -6t-82.5 7t-60.5 25.5t-37 51t-12 86.5v1103q23 6 71 12.5 t95 6.5t83 -7t60.5 -25.5t36.5 -51.5t12 -86v-35z" />
<glyph unicode="&#xdf;" horiz-adv-x="1277" d="M111 893q0 111 38.5 193.5t108.5 138t163 82t202 26.5q113 0 207 -29.5t162.5 -86t107.5 -137.5t39 -183q0 -51 -15.5 -85t-56.5 -50l-90 -37q-57 -23 -57 -70q0 -23 15 -38t40 -25q55 -25 100 -53.5t76 -65.5t48.5 -83t17.5 -105q0 -82 -32 -142.5t-86.5 -99.5 t-124 -58.5t-143.5 -19.5q-123 0 -197.5 39t-74.5 117q0 47 19.5 79.5t48.5 53.5q29 -16 63.5 -26.5t75.5 -10.5t67.5 15.5t26.5 43.5q0 29 -20.5 47.5t-61.5 41.5q-106 57 -160.5 122.5t-54.5 171.5q0 90 61.5 151.5t166.5 96.5q-6 68 -50.5 106t-113.5 38q-74 0 -121 -45 t-47 -134v-870q-20 -6 -64.5 -12t-91.5 -6q-45 0 -81 6t-60.5 24.5t-37.5 50t-13 82.5v746z" />
<glyph unicode="&#xe0;" horiz-adv-x="1114" d="M532 221q35 0 77 7.5t63 19.5v164l-148 -13q-57 -4 -94 -24.5t-37 -61.5t31.5 -66.5t107.5 -25.5zM516 1026q111 0 202 -22.5t155.5 -68.5t99.5 -116.5t35 -167.5v-458q0 -53 -30 -87t-71 -59q-133 -80 -375 -80q-109 0 -195.5 20.5t-149 61.5t-96.5 104.5t-34 147.5 q0 141 84 217t260 94l269 29v14q0 59 -52.5 85t-150.5 26q-78 0 -151.5 -16.5t-133.5 -40.5q-27 18 -45 56t-18 79q0 53 25.5 85t78.5 54q59 23 140 33t153 10zM272 1317q-4 20 -4 41q0 78 39 125t107 47q51 0 86 -20.5t78 -57.5l231 -195q-4 -78 -44 -125t-91 -47 q-33 0 -66 13.5t-65 36.5z" />
<glyph unicode="&#xe1;" horiz-adv-x="1114" d="M532 221q35 0 77 7.5t63 19.5v164l-148 -13q-57 -4 -94 -24.5t-37 -61.5t31.5 -66.5t107.5 -25.5zM516 1026q111 0 202 -22.5t155.5 -68.5t99.5 -116.5t35 -167.5v-458q0 -53 -30 -87t-71 -59q-133 -80 -375 -80q-109 0 -195.5 20.5t-149 61.5t-96.5 104.5t-34 147.5 q0 141 84 217t260 94l269 29v14q0 59 -52.5 85t-150.5 26q-78 0 -151.5 -16.5t-133.5 -40.5q-27 18 -45 56t-18 79q0 53 25.5 85t78.5 54q59 23 140 33t153 10zM590 1524q106 0 154.5 -41t48.5 -99q0 -53 -29 -88.5t-94 -70.5l-264 -140q-61 6 -104.5 49.5t-43.5 92.5 q0 25 12.5 49t40.5 45z" />
<glyph unicode="&#xe2;" horiz-adv-x="1114" d="M532 221q35 0 77 7.5t63 19.5v164l-148 -13q-57 -4 -94 -24.5t-37 -61.5t31.5 -66.5t107.5 -25.5zM516 1026q111 0 202 -22.5t155.5 -68.5t99.5 -116.5t35 -167.5v-458q0 -53 -30 -87t-71 -59q-133 -80 -375 -80q-109 0 -195.5 20.5t-149 61.5t-96.5 104.5t-34 147.5 q0 141 84 217t260 94l269 29v14q0 59 -52.5 85t-150.5 26q-78 0 -151.5 -16.5t-133.5 -40.5q-27 18 -45 56t-18 79q0 53 25.5 85t78.5 54q59 23 140 33t153 10zM553 1274q-70 -59 -108.5 -96t-77.5 -72q-80 0 -127 38t-47 97q0 41 22.5 74t75.5 71l100 72q49 35 89 50.5 t81 15.5q27 0 48.5 -3t44 -14.5t49 -33t67.5 -56.5l143 -127q2 -10 3.5 -18t1.5 -19q0 -63 -34 -103t-98 -40q-20 0 -36.5 3t-34 13.5t-40 30t-52.5 51.5z" />
<glyph unicode="&#xe3;" horiz-adv-x="1114" d="M532 221q35 0 77 7.5t63 19.5v164l-148 -13q-57 -4 -94 -24.5t-37 -61.5t31.5 -66.5t107.5 -25.5zM516 1026q111 0 202 -22.5t155.5 -68.5t99.5 -116.5t35 -167.5v-458q0 -53 -30 -87t-71 -59q-133 -80 -375 -80q-109 0 -195.5 20.5t-149 61.5t-96.5 104.5t-34 147.5 q0 141 84 217t260 94l269 29v14q0 59 -52.5 85t-150.5 26q-78 0 -151.5 -16.5t-133.5 -40.5q-27 18 -45 56t-18 79q0 53 25.5 85t78.5 54q59 23 140 33t153 10zM561 1427q37 -10 61.5 -16t41.5 -6q45 0 69.5 26.5t34.5 45.5q72 0 120 -46.5t48 -117.5q0 -92 -57.5 -135 t-143.5 -43q-29 0 -57.5 3t-63.5 13l-82 25q-29 8 -48 13t-38 5q-45 0 -68.5 -25.5t-35.5 -46.5q-72 0 -120 46t-48 118q0 45 17.5 79t46 56.5t64.5 32.5t73 10q27 0 64.5 -6t121.5 -31z" />
<glyph unicode="&#xe4;" horiz-adv-x="1114" d="M532 221q35 0 77 7.5t63 19.5v164l-148 -13q-57 -4 -94 -24.5t-37 -61.5t31.5 -66.5t107.5 -25.5zM516 1026q111 0 202 -22.5t155.5 -68.5t99.5 -116.5t35 -167.5v-458q0 -53 -30 -87t-71 -59q-133 -80 -375 -80q-109 0 -195.5 20.5t-149 61.5t-96.5 104.5t-34 147.5 q0 141 84 217t260 94l269 29v14q0 59 -52.5 85t-150.5 26q-78 0 -151.5 -16.5t-133.5 -40.5q-27 18 -45 56t-18 79q0 53 25.5 85t78.5 54q59 23 140 33t153 10zM154 1305q0 72 51 124t127 52q86 0 135 -52.5t49 -123.5q0 -72 -49 -124.5t-135 -52.5q-37 0 -70 14.5t-57.5 38 t-37.5 55.5t-13 69zM612 1305q0 72 48.5 124t134.5 52q39 0 71.5 -14.5t57 -39t38 -56.5t13.5 -66q0 -72 -51.5 -124.5t-128.5 -52.5q-86 0 -134.5 52.5t-48.5 124.5z" />
<glyph unicode="&#xe5;" horiz-adv-x="1114" d="M532 221q35 0 77 7.5t63 19.5v164l-148 -13q-57 -4 -94 -24.5t-37 -61.5t31.5 -66.5t107.5 -25.5zM516 1026q111 0 202 -22.5t155.5 -68.5t99.5 -116.5t35 -167.5v-458q0 -53 -30 -87t-71 -59q-133 -80 -375 -80q-109 0 -195.5 20.5t-149 61.5t-96.5 104.5t-34 147.5 q0 141 84 217t260 94l269 29v14q0 59 -52.5 85t-150.5 26q-78 0 -151.5 -16.5t-133.5 -40.5q-27 18 -45 56t-18 79q0 53 25.5 85t78.5 54q59 23 140 33t153 10zM279 1313q0 96 72.5 162.5t197.5 66.5q133 0 206.5 -66.5t73.5 -162.5t-73.5 -162t-206.5 -66q-125 0 -197.5 66 t-72.5 162zM485 1313q0 -33 19.5 -51.5t46.5 -18.5q31 0 50.5 18.5t19.5 51.5t-19.5 51t-50.5 18q-27 0 -46.5 -18t-19.5 -51z" />
<glyph unicode="&#xe6;" horiz-adv-x="1705" d="M1212 -33q-94 0 -178 24.5t-149 71.5q-78 -53 -172.5 -74.5t-188.5 -21.5q-104 0 -190 20.5t-147.5 61.5t-95.5 104.5t-34 147.5q0 141 84 215t260 96l234 29v14q0 59 -48 85t-130 26q-74 0 -144.5 -16.5t-130.5 -40.5q-27 18 -45 56t-18 79q0 53 25.5 85t78.5 54 q59 23 136 33t147 10q106 0 193 -26.5t147 -81.5q66 55 144.5 81.5t164.5 26.5q109 0 198 -32.5t153.5 -90t100 -137.5t35.5 -174q0 -70 -38.5 -106.5t-108.5 -47.5l-506 -76q23 -68 92.5 -101.5t159.5 -33.5q84 0 159 21.5t122 50.5q33 -20 55 -57t22 -78q0 -92 -86 -137 q-66 -35 -147.5 -47.5t-153.5 -12.5zM1155 772q-49 0 -85 -16.5t-58.5 -42t-33.5 -57t-13 -64.5l350 57q-6 41 -45 82t-115 41zM524 221q29 0 64 8.5t49 18.5v164l-113 -13q-57 -6 -94 -25.5t-37 -60.5t29.5 -66.5t101.5 -25.5z" />
<glyph unicode="&#xe7;" horiz-adv-x="1011" d="M473 -14q-94 20 -170 65t-129 110.5t-82 148.5t-29 182q0 135 44.5 236t120 167t175 98.5t209.5 32.5q147 0 227.5 -53t80.5 -137q0 -39 -18.5 -73t-43.5 -58q-35 16 -84 31.5t-106 15.5q-51 0 -97.5 -16.5t-80 -48.5t-54 -79t-20.5 -110q0 -127 72.5 -190.5t177.5 -63.5 q61 0 106 14t80 31q41 -29 61.5 -62.5t20.5 -81.5q0 -63 -48 -106t-136 -59q16 -29 24 -76t8 -82q0 -104 -65.5 -173t-181.5 -69q-84 0 -137.5 42t-53.5 120q0 35 8 61q66 4 103 32t37 75q0 20 -5.5 40t-13.5 36z" />
<glyph unicode="&#xe8;" horiz-adv-x="1126" d="M633 -33q-121 0 -224.5 34t-180 101.5t-121 170t-44.5 239.5q0 135 44.5 232.5t116 160t163.5 92t188 29.5q109 0 198 -32.5t153.5 -90t100.5 -137.5t36 -174q0 -70 -39 -106.5t-109 -47.5l-505 -76q23 -68 92 -101.5t160 -33.5q84 0 158.5 21.5t121.5 50.5 q33 -20 55.5 -57t22.5 -78q0 -92 -86 -137q-66 -35 -147.5 -47.5t-153.5 -12.5zM575 772q-49 0 -84.5 -16.5t-58 -42t-34 -57t-13.5 -64.5l350 57q-6 41 -45 82t-115 41zM276 1317q-4 20 -4 41q0 78 39 125t107 47q51 0 86 -20.5t78 -57.5l231 -195q-4 -78 -44 -125t-91 -47 q-33 0 -65.5 13.5t-65.5 36.5z" />
<glyph unicode="&#xe9;" horiz-adv-x="1126" d="M633 -33q-121 0 -224.5 34t-180 101.5t-121 170t-44.5 239.5q0 135 44.5 232.5t116 160t163.5 92t188 29.5q109 0 198 -32.5t153.5 -90t100.5 -137.5t36 -174q0 -70 -39 -106.5t-109 -47.5l-505 -76q23 -68 92 -101.5t160 -33.5q84 0 158.5 21.5t121.5 50.5 q33 -20 55.5 -57t22.5 -78q0 -92 -86 -137q-66 -35 -147.5 -47.5t-153.5 -12.5zM575 772q-49 0 -84.5 -16.5t-58 -42t-34 -57t-13.5 -64.5l350 57q-6 41 -45 82t-115 41zM612 1524q106 0 154.5 -41t48.5 -99q0 -53 -28.5 -88.5t-94.5 -70.5l-264 -140q-61 6 -104 49.5 t-43 92.5q0 25 12 49t41 45z" />
<glyph unicode="&#xea;" horiz-adv-x="1126" d="M633 -33q-121 0 -224.5 34t-180 101.5t-121 170t-44.5 239.5q0 135 44.5 232.5t116 160t163.5 92t188 29.5q109 0 198 -32.5t153.5 -90t100.5 -137.5t36 -174q0 -70 -39 -106.5t-109 -47.5l-505 -76q23 -68 92 -101.5t160 -33.5q84 0 158.5 21.5t121.5 50.5 q33 -20 55.5 -57t22.5 -78q0 -92 -86 -137q-66 -35 -147.5 -47.5t-153.5 -12.5zM575 772q-49 0 -84.5 -16.5t-58 -42t-34 -57t-13.5 -64.5l350 57q-6 41 -45 82t-115 41zM549 1274q-70 -59 -109 -96t-78 -72q-80 0 -127 38t-47 97q0 41 22.5 74t76.5 71l100 72 q49 35 89 50.5t81 15.5q27 0 48.5 -3t44 -14.5t49 -33t67.5 -56.5l143 -127q2 -10 3 -18t1 -19q0 -63 -33.5 -103t-97.5 -40q-20 0 -36.5 3t-34 13.5t-40 30t-53.5 51.5z" />
<glyph unicode="&#xeb;" horiz-adv-x="1126" d="M633 -33q-121 0 -224.5 34t-180 101.5t-121 170t-44.5 239.5q0 135 44.5 232.5t116 160t163.5 92t188 29.5q109 0 198 -32.5t153.5 -90t100.5 -137.5t36 -174q0 -70 -39 -106.5t-109 -47.5l-505 -76q23 -68 92 -101.5t160 -33.5q84 0 158.5 21.5t121.5 50.5 q33 -20 55.5 -57t22.5 -78q0 -92 -86 -137q-66 -35 -147.5 -47.5t-153.5 -12.5zM575 772q-49 0 -84.5 -16.5t-58 -42t-34 -57t-13.5 -64.5l350 57q-6 41 -45 82t-115 41zM147 1305q0 72 51.5 124t127.5 52q86 0 135 -52.5t49 -123.5q0 -72 -49 -124.5t-135 -52.5 q-37 0 -70 14.5t-57.5 38t-38 55.5t-13.5 69zM606 1305q0 72 48 124t134 52q39 0 72 -14.5t57.5 -39t38 -56.5t13.5 -66q0 -72 -51.5 -124.5t-129.5 -52.5q-86 0 -134 52.5t-48 124.5z" />
<glyph unicode="&#xec;" horiz-adv-x="577" d="M-45 1317q-4 20 -4 41q0 78 39 125t106 47q51 0 86 -20.5t78 -57.5l232 -195q-4 -78 -44 -125t-92 -47q-33 0 -65.5 13.5t-65.5 36.5zM463 2q-23 -4 -67 -11t-89 -7t-81 6t-60.5 24.5t-37.5 50t-13 82.5v834q23 4 66.5 11t88.5 7t81 -6t60.5 -24.5t38 -50t13.5 -82.5 v-834z" />
<glyph unicode="&#xed;" horiz-adv-x="577" d="M414 1524q106 0 154 -41t48 -99q0 -53 -28.5 -88.5t-93.5 -70.5l-265 -140q-61 6 -104 49.5t-43 92.5q0 25 12 49t41 45zM463 2q-23 -4 -67 -11t-89 -7t-81 6t-60.5 24.5t-37.5 50t-13 82.5v834q23 4 66.5 11t88.5 7t81 -6t60.5 -24.5t38 -50t13.5 -82.5v-834z" />
<glyph unicode="&#xee;" horiz-adv-x="577" d="M463 2q-23 -4 -67 -11t-89 -7t-81 6t-60.5 24.5t-37.5 50t-13 82.5v834q23 4 66.5 11t88.5 7t81 -6t60.5 -24.5t38 -50t13.5 -82.5v-834zM287 1274q-70 -59 -109 -96t-78 -72q-80 0 -127 38t-47 97q0 41 22.5 74t76.5 71l100 72q49 35 89 50.5t81 15.5q27 0 48.5 -3 t44 -14.5t49 -33t67.5 -56.5l143 -127q2 -10 3 -18t1 -19q0 -63 -33.5 -103t-97.5 -40q-20 0 -36.5 3t-34 13.5t-40 30t-53.5 51.5z" />
<glyph unicode="&#xef;" horiz-adv-x="577" d="M-125 1305q0 72 51 124t127 52q86 0 135.5 -52.5t49.5 -123.5q0 -72 -49.5 -124.5t-135.5 -52.5q-37 0 -69.5 14.5t-57 38t-38 55.5t-13.5 69zM334 1305q0 72 48 124t134 52q39 0 72 -14.5t57.5 -39t37.5 -56.5t13 -66q0 -72 -51 -124.5t-129 -52.5q-86 0 -134 52.5 t-48 124.5zM463 2q-23 -4 -67 -11t-89 -7t-81 6t-60.5 24.5t-37.5 50t-13 82.5v834q23 4 66.5 11t88.5 7t81 -6t60.5 -24.5t38 -50t13.5 -82.5v-834z" />
<glyph unicode="&#xf0;" horiz-adv-x="1198" d="M1133 532q0 -123 -31 -226t-95.5 -178t-166 -118t-240.5 -43q-125 0 -224.5 35t-169 99.5t-106.5 155.5t-37 206q0 119 41 207t109 147.5t154 89t176 29.5q43 0 87 -6t72 -21q-12 35 -26 67t-35 62l-281 -80q-23 18 -40 54.5t-17 77.5q0 76 68 94l102 30q-23 23 -42 39.5 t-42 36.5q23 86 80 126t129 40q70 0 124 -32.5t101 -80.5l211 66q29 -20 53.5 -62t24.5 -83q0 -47 -19.5 -71t-54.5 -36l-61 -22q29 -51 56.5 -117t50 -142.5t36 -164t13.5 -179.5zM610 676q-92 0 -141 -59.5t-49 -153.5q0 -104 45 -162.5t137 -58.5q88 0 130 60t42 165 q0 35 -3 73t-11 76q-60 60 -150 60z" />
<glyph unicode="&#xf1;" horiz-adv-x="1193" d="M737 631q0 63 -35.5 93t-97.5 30q-41 0 -81 -10.5t-68 -30.5v-711q-20 -6 -64.5 -12t-91.5 -6q-45 0 -81 6t-60.5 24.5t-38 50t-13.5 82.5v615q0 55 24 90t65 63q70 49 175 80t234 31q231 0 356 -101.5t125 -281.5v-641q-20 -6 -64 -12t-91 -6q-45 0 -81 6t-60.5 24.5 t-38 50t-13.5 82.5v484zM606 1427q37 -10 61.5 -16t41.5 -6q45 0 69.5 26.5t34.5 45.5q72 0 120 -46.5t48 -117.5q0 -92 -57.5 -135t-143.5 -43q-29 0 -57.5 3t-63.5 13l-81 25q-29 8 -48.5 13t-37.5 5q-45 0 -69 -25.5t-36 -46.5q-72 0 -120 46t-48 118q0 45 17.5 79 t46 56.5t64.5 32.5t73 10q27 0 64.5 -6t121.5 -31z" />
<glyph unicode="&#xf2;" d="M328 1317q-4 20 -4 41q0 78 38.5 125t106.5 47q51 0 86 -20.5t78 -57.5l231 -195q-4 -78 -44 -125t-91 -47q-33 0 -65.5 13.5t-65.5 36.5zM1137 498q0 -127 -39 -226.5t-109.5 -167t-169 -102.5t-219.5 -35t-219 37t-169 105.5t-110 167t-39 221.5q0 121 39 219 t110 166.5t169 105.5t219 37t219.5 -38t169 -106.5t109.5 -166.5t39 -217zM420 498q0 -125 48 -191.5t134 -66.5t132 67.5t46 190.5t-47 189.5t-133 66.5t-133 -66.5t-47 -189.5z" />
<glyph unicode="&#xf3;" d="M664 1524q106 0 154 -41t48 -99q0 -53 -28.5 -88.5t-94.5 -70.5l-264 -140q-61 6 -104 49.5t-43 92.5q0 25 12 49t41 45zM1137 498q0 -127 -39 -226.5t-109.5 -167t-169 -102.5t-219.5 -35t-219 37t-169 105.5t-110 167t-39 221.5q0 121 39 219t110 166.5t169 105.5 t219 37t219.5 -38t169 -106.5t109.5 -166.5t39 -217zM420 498q0 -125 48 -191.5t134 -66.5t132 67.5t46 190.5t-47 189.5t-133 66.5t-133 -66.5t-47 -189.5z" />
<glyph unicode="&#xf4;" d="M594 1274q-70 -59 -109 -96t-77 -72q-80 0 -127.5 38t-47.5 97q0 41 23 74t76 71l100 72q49 35 89 50.5t81 15.5q27 0 48.5 -3t44 -14.5t49 -33t67.5 -56.5l143 -127q2 -10 3 -18t1 -19q0 -63 -33.5 -103t-97.5 -40q-20 0 -36.5 3t-34 13.5t-40 30t-52.5 51.5zM1137 498 q0 -127 -39 -226.5t-109.5 -167t-169 -102.5t-219.5 -35t-219 37t-169 105.5t-110 167t-39 221.5q0 121 39 219t110 166.5t169 105.5t219 37t219.5 -38t169 -106.5t109.5 -166.5t39 -217zM420 498q0 -125 48 -191.5t134 -66.5t132 67.5t46 190.5t-47 189.5t-133 66.5 t-133 -66.5t-47 -189.5z" />
<glyph unicode="&#xf5;" d="M1137 498q0 -127 -39 -226.5t-109.5 -167t-169 -102.5t-219.5 -35t-219 37t-169 105.5t-110 167t-39 221.5q0 121 39 219t110 166.5t169 105.5t219 37t219.5 -38t169 -106.5t109.5 -166.5t39 -217zM420 498q0 -125 48 -191.5t134 -66.5t132 67.5t46 190.5t-47 189.5 t-133 66.5t-133 -66.5t-47 -189.5zM610 1427q37 -10 61.5 -16t41.5 -6q45 0 69.5 26.5t34.5 45.5q72 0 120 -46.5t48 -117.5q0 -92 -57.5 -135t-143.5 -43q-29 0 -57.5 3t-62.5 13l-82 25q-29 8 -48.5 13t-37.5 5q-45 0 -69 -25.5t-36 -46.5q-72 0 -120 46t-48 118 q0 45 17.5 79t46 56.5t64.5 32.5t73 10q27 0 64.5 -6t121.5 -31z" />
<glyph unicode="&#xf6;" d="M188 1305q0 72 51.5 124t127.5 52q86 0 135 -52.5t49 -123.5q0 -72 -49 -124.5t-135 -52.5q-37 0 -70 14.5t-57.5 38t-38 55.5t-13.5 69zM647 1305q0 72 48 124t134 52q39 0 72 -14.5t57.5 -39t38 -56.5t13.5 -66q0 -72 -51.5 -124.5t-129.5 -52.5q-86 0 -134 52.5 t-48 124.5zM1137 498q0 -127 -39 -226.5t-109.5 -167t-169 -102.5t-219.5 -35t-219 37t-169 105.5t-110 167t-39 221.5q0 121 39 219t110 166.5t169 105.5t219 37t219.5 -38t169 -106.5t109.5 -166.5t39 -217zM420 498q0 -125 48 -191.5t134 -66.5t132 67.5t46 190.5 t-47 189.5t-133 66.5t-133 -66.5t-47 -189.5z" />
<glyph unicode="&#xf7;" horiz-adv-x="1075" d="M385 938q0 68 44 116t116 48q74 0 118 -48t44 -116q0 -66 -44.5 -114t-117.5 -48q-72 0 -116 48t-44 114zM385 248q0 66 44 114t116 48q74 0 118 -48.5t44 -113.5q0 -68 -44.5 -116t-117.5 -48q-72 0 -116 48t-44 116zM94 455q-14 23 -23.5 59.5t-9.5 73.5q0 74 33 107.5 t88 33.5h799q10 -25 21.5 -60.5t11.5 -74.5q0 -72 -33 -105.5t-86 -33.5h-801z" />
<glyph unicode="&#xf8;" d="M1137 498q0 -127 -39 -226.5t-109.5 -167t-169 -102.5t-219.5 -35q-61 0 -117.5 10.5t-105.5 26.5l-88 -129q-20 0 -44 8t-44.5 22.5t-33.5 32t-13 35.5q0 16 16 45l53 78q-78 68 -119 170.5t-41 231.5q0 121 39 219t110 166.5t169 105.5t219 37t225 -41l90 135 q18 0 42 -7t44.5 -20.5t35 -32t14.5 -38.5t-15 -43l-59 -86q76 -70 118 -170t42 -225zM395 498q0 -74 19 -125l254 375q-35 10 -68 10q-94 0 -149.5 -68.5t-55.5 -191.5zM602 236q94 0 148.5 69.5t54.5 192.5q0 70 -19 123l-251 -375q16 -6 32.5 -8t34.5 -2z" />
<glyph unicode="&#xf9;" horiz-adv-x="1191" d="M106 981q20 6 64.5 12t91.5 6q45 0 81 -6t60.5 -24.5t38 -50t13.5 -82.5v-441q0 -84 41 -119.5t118 -35.5q47 0 77 8t46 16v717q20 6 64.5 12t91.5 6q45 0 81 -6t60.5 -24.5t37.5 -50t13 -82.5v-623q0 -102 -86 -154q-72 -45 -171 -68.5t-216 -23.5q-111 0 -204 24.5 t-160.5 76t-104.5 132.5t-37 195v586zM322 1317q-4 20 -5 41q0 78 39 125t107 47q51 0 86 -20.5t78 -57.5l231 -195q-4 -78 -44 -125t-91 -47q-33 0 -65.5 13.5t-65.5 36.5z" />
<glyph unicode="&#xfa;" horiz-adv-x="1191" d="M106 981q20 6 64.5 12t91.5 6q45 0 81 -6t60.5 -24.5t38 -50t13.5 -82.5v-441q0 -84 41 -119.5t118 -35.5q47 0 77 8t46 16v717q20 6 64.5 12t91.5 6q45 0 81 -6t60.5 -24.5t37.5 -50t13 -82.5v-623q0 -102 -86 -154q-72 -45 -171 -68.5t-216 -23.5q-111 0 -204 24.5 t-160.5 76t-104.5 132.5t-37 195v586zM662 1524q106 0 154 -41t48 -99q0 -53 -28.5 -88.5t-94.5 -70.5l-264 -140q-61 6 -104 49.5t-43 92.5q0 25 12 49t41 45z" />
<glyph unicode="&#xfb;" horiz-adv-x="1191" d="M106 981q20 6 64.5 12t91.5 6q45 0 81 -6t60.5 -24.5t38 -50t13.5 -82.5v-441q0 -84 41 -119.5t118 -35.5q47 0 77 8t46 16v717q20 6 64.5 12t91.5 6q45 0 81 -6t60.5 -24.5t37.5 -50t13 -82.5v-623q0 -102 -86 -154q-72 -45 -171 -68.5t-216 -23.5q-111 0 -204 24.5 t-160.5 76t-104.5 132.5t-37 195v586zM590 1274q-70 -59 -109 -96t-78 -72q-80 0 -127 38t-47 97q0 41 22.5 74t76.5 71l100 72q49 35 89 50.5t81 15.5q27 0 48.5 -3t44 -14.5t49 -33t67.5 -56.5l143 -127q2 -10 3 -18t1 -19q0 -63 -33.5 -103t-97.5 -40q-20 0 -36.5 3 t-34 13.5t-40 30t-53.5 51.5z" />
<glyph unicode="&#xfc;" horiz-adv-x="1191" d="M106 981q20 6 64.5 12t91.5 6q45 0 81 -6t60.5 -24.5t38 -50t13.5 -82.5v-441q0 -84 41 -119.5t118 -35.5q47 0 77 8t46 16v717q20 6 64.5 12t91.5 6q45 0 81 -6t60.5 -24.5t37.5 -50t13 -82.5v-623q0 -102 -86 -154q-72 -45 -171 -68.5t-216 -23.5q-111 0 -204 24.5 t-160.5 76t-104.5 132.5t-37 195v586zM180 1305q0 72 51.5 124t126.5 52q86 0 135.5 -52.5t49.5 -123.5q0 -72 -49.5 -124.5t-135.5 -52.5q-37 0 -69.5 14.5t-57 38t-38 55.5t-13.5 69zM639 1305q0 72 48 124t134 52q39 0 72 -14.5t57.5 -39t37.5 -56.5t13 -66 q0 -72 -51 -124.5t-129 -52.5q-86 0 -134 52.5t-48 124.5z" />
<glyph unicode="&#xfd;" horiz-adv-x="1126" d="M262 254q-23 51 -48.5 114.5t-53 145.5t-57 187.5t-62.5 242.5q29 29 77 50.5t105 21.5q72 0 119 -30t70 -112l161 -563h9q25 70 48 152t45.5 169t42 174t34.5 171q74 39 161 39q72 0 119 -31t47 -106q0 -55 -14 -128t-37.5 -155t-55.5 -169t-67 -171t-71.5 -158.5 t-71.5 -134.5q-57 -100 -106.5 -163.5t-94.5 -99.5t-90 -49t-94 -13q-86 0 -139.5 51t-63.5 133q66 51 131.5 113.5t118.5 127.5q-35 10 -75 48.5t-87 142.5zM643 1524q106 0 154.5 -41t48.5 -99q0 -53 -29 -88.5t-94 -70.5l-264 -140q-61 6 -104.5 49.5t-43.5 92.5 q0 25 12.5 49t41.5 45z" />
<glyph unicode="&#xfe;" horiz-adv-x="1208" d="M455 272q25 -12 53.5 -20t60.5 -8q211 0 211 254t-211 254q-33 0 -61.5 -8.5t-52.5 -20.5v-451zM457 999q76 27 164 27q117 0 212 -34t162.5 -100.5t104.5 -164.5t37 -229t-37 -229.5t-104.5 -165t-163 -100.5t-211.5 -34q-88 0 -164 27v-340q-20 -6 -65.5 -13.5 t-92.5 -7.5q-45 0 -81 6.5t-60.5 25t-36.5 50t-12 82.5v1534q20 6 65 13.5t92 7.5q45 0 81 -6.5t60.5 -24.5t37 -50t12.5 -83v-191z" />
<glyph unicode="&#xff;" horiz-adv-x="1126" d="M262 254q-23 51 -48.5 114.5t-53 145.5t-57 187.5t-62.5 242.5q29 29 77 50.5t105 21.5q72 0 119 -30t70 -112l161 -563h9q25 70 48 152t45.5 169t42 174t34.5 171q74 39 161 39q72 0 119 -31t47 -106q0 -55 -14 -128t-37.5 -155t-55.5 -169t-67 -171t-71.5 -158.5 t-71.5 -134.5q-57 -100 -106.5 -163.5t-94.5 -99.5t-90 -49t-94 -13q-86 0 -139.5 51t-63.5 133q66 51 131.5 113.5t118.5 127.5q-35 10 -75 48.5t-87 142.5zM145 1305q0 72 51.5 124t127.5 52q86 0 135 -52.5t49 -123.5q0 -72 -49 -124.5t-135 -52.5q-37 0 -70 14.5 t-57.5 38t-38 55.5t-13.5 69zM604 1305q0 72 48 124t134 52q39 0 72 -14.5t57.5 -39t38 -56.5t13.5 -66q0 -72 -51.5 -124.5t-129.5 -52.5q-86 0 -134 52.5t-48 124.5z" />
<glyph unicode="&#x152;" horiz-adv-x="1949" d="M76 623q0 160 49 282.5t136 205.5t205 126t253 43q86 0 166 -22.5t145 -69.5q49 53 141 53h656q14 -23 25.5 -59.5t11.5 -77.5q0 -78 -34 -110.5t-89 -32.5h-432v-191h460q14 -23 25.5 -58.5t11.5 -76.5q0 -78 -32.5 -110.5t-87.5 -32.5h-377v-216h526q14 -23 25.5 -59.5 t11.5 -77.5q0 -78 -34 -111.5t-89 -33.5h-578q-92 0 -143 55q-66 -41 -144.5 -63.5t-164.5 -22.5q-139 0 -257 44t-204 128t-134 207t-48 281zM444 623q0 -186 76 -278.5t203 -92.5q80 0 141.5 29.5t96.5 89.5v501q-72 119 -236 119q-127 0 -204 -91t-77 -277z" />
<glyph unicode="&#x153;" horiz-adv-x="1835" d="M1341 -33q-117 0 -217 37t-172 111q-135 -147 -372 -148q-115 0 -210.5 37t-163 105.5t-105.5 167t-38 221.5q0 121 38 219t105.5 166.5t163 105.5t210.5 37q111 0 202.5 -37t157.5 -104q68 72 158 106.5t186 34.5q109 0 198 -32.5t153.5 -90t100.5 -137.5t36 -174 q0 -70 -39 -106.5t-109 -47.5l-506 -76q23 -68 92.5 -101.5t159.5 -33.5q84 0 159 21.5t122 50.5q33 -20 55.5 -57t22.5 -78q0 -92 -87 -137q-66 -35 -147.5 -47.5t-153.5 -12.5zM420 498q0 -125 48 -191.5t134 -66.5t132 67.5t46 190.5t-47 189.5t-133 66.5t-133 -66.5 t-47 -189.5zM1284 772q-49 0 -85 -16.5t-58.5 -42t-33.5 -57t-13 -64.5l350 57q-6 41 -45 82t-115 41z" />
<glyph unicode="&#x178;" horiz-adv-x="1175" d="M784 8q-23 -6 -69.5 -12t-91.5 -6q-94 0 -141.5 31.5t-47.5 134.5v276q-51 76 -110.5 168t-116.5 188.5t-106.5 189.5t-80.5 171q27 37 73 67.5t114 30.5q80 0 130 -32.5t95 -122.5l170 -342h12q29 63 50.5 115.5t42 104.5t43 108.5t51.5 129.5q37 18 82 28.5t86 10.5 q72 0 122 -38t50 -113q0 -25 -10.5 -60t-47 -105.5t-107.5 -191.5t-192 -315v-416zM184 1546q0 72 51.5 124t126.5 52q86 0 135.5 -52t49.5 -124t-49 -124t-136 -52q-37 0 -69.5 14.5t-57 38t-38 55t-13.5 68.5zM643 1546q0 72 48 124t134 52q39 0 72 -14t57.5 -38.5 t38 -56.5t13.5 -67q0 -72 -51.5 -124t-129.5 -52q-86 0 -134 52t-48 124z" />
<glyph unicode="&#x2c6;" horiz-adv-x="712" d="M350 1274q-70 -59 -108.5 -96t-77.5 -72q-80 0 -127 38t-47 97q0 41 22.5 74t75.5 71l100 72q49 35 89 50.5t81 15.5q27 0 48.5 -3t44 -14.5t49 -33t67.5 -56.5l144 -127q2 -10 3 -18t1 -19q0 -63 -34 -103t-97 -40q-20 0 -37 3t-34 13.5t-39.5 30t-53.5 51.5z" />
<glyph unicode="&#x2dc;" horiz-adv-x="765" d="M389 1427q37 -10 61.5 -16t41.5 -6q45 0 69.5 26.5t34.5 45.5q72 0 120 -46.5t48 -117.5q0 -92 -57.5 -135t-143.5 -43q-29 0 -57.5 3t-63.5 13l-82 25q-29 8 -48 13t-38 5q-45 0 -68.5 -25.5t-35.5 -46.5q-72 0 -120 46t-48 118q0 45 17.5 79t46 56.5t64.5 32.5t73 10 q27 0 64.5 -6t121.5 -31z" />
<glyph unicode="&#x2000;" horiz-adv-x="883" />
<glyph unicode="&#x2001;" horiz-adv-x="1767" />
<glyph unicode="&#x2002;" horiz-adv-x="883" />
<glyph unicode="&#x2003;" horiz-adv-x="1767" />
<glyph unicode="&#x2004;" horiz-adv-x="589" />
<glyph unicode="&#x2005;" horiz-adv-x="441" />
<glyph unicode="&#x2006;" horiz-adv-x="294" />
<glyph unicode="&#x2007;" horiz-adv-x="294" />
<glyph unicode="&#x2008;" horiz-adv-x="220" />
<glyph unicode="&#x2009;" horiz-adv-x="353" />
<glyph unicode="&#x200a;" horiz-adv-x="98" />
<glyph unicode="&#x2010;" horiz-adv-x="724" d="M100 381q-14 23 -26.5 59.5t-12.5 77.5q0 76 35 110t90 34h439q12 -23 25.5 -60t13.5 -78q0 -76 -35 -109.5t-90 -33.5h-439z" />
<glyph unicode="&#x2011;" horiz-adv-x="724" d="M100 381q-14 23 -26.5 59.5t-12.5 77.5q0 76 35 110t90 34h439q12 -23 25.5 -60t13.5 -78q0 -76 -35 -109.5t-90 -33.5h-439z" />
<glyph unicode="&#x2012;" horiz-adv-x="724" d="M100 381q-14 23 -26.5 59.5t-12.5 77.5q0 76 35 110t90 34h439q12 -23 25.5 -60t13.5 -78q0 -76 -35 -109.5t-90 -33.5h-439z" />
<glyph unicode="&#x2013;" horiz-adv-x="1107" d="M100 381q-14 23 -26.5 59.5t-12.5 77.5q0 76 35 110t90 34h822q12 -23 25.5 -60t13.5 -78q0 -76 -35 -109.5t-90 -33.5h-822z" />
<glyph unicode="&#x2014;" horiz-adv-x="1550" d="M100 381q-14 23 -26.5 59.5t-12.5 77.5q0 76 35 110t90 34h1264q12 -23 25.5 -60t13.5 -78q0 -76 -35 -109.5t-90 -33.5h-1264z" />
<glyph unicode="&#x2018;" horiz-adv-x="458" d="M147 1286q23 35 53.5 51.5t78.5 16.5q39 0 71.5 -8.5t63.5 -22.5q-10 -125 -20.5 -250t-14.5 -231q-29 -16 -75 -30.5t-89 -14.5q-33 0 -64.5 6t-56 21.5t-39 41t-14.5 62.5q0 39 8 89t23.5 99t33.5 94t41 76z" />
<glyph unicode="&#x2019;" horiz-adv-x="458" d="M311 864q-23 -35 -53.5 -51t-77.5 -16q-39 0 -71.5 8t-63.5 22q10 125 20.5 250t14.5 232q29 16 75 30.5t89 14.5q33 0 64.5 -6.5t56 -21.5t39 -40.5t14.5 -62.5q0 -41 -8.5 -90.5t-23.5 -98.5t-35 -94t-40 -76z" />
<glyph unicode="&#x201a;" horiz-adv-x="430" d="M356 -248q-23 -12 -55.5 -20t-73.5 -8q-55 0 -94 23.5t-43 74.5l-27 391q29 23 74 40t101 17q78 0 121.5 -30.5t43.5 -100.5q0 -29 -4 -78t-11 -104t-15.5 -109.5t-16.5 -95.5z" />
<glyph unicode="&#x201c;" horiz-adv-x="856" d="M565 1290q23 35 50.5 49.5t70.5 14.5q70 0 125 -27q-10 -125 -20.5 -254t-14.5 -235q-29 -16 -70.5 -28.5t-82.5 -12.5q-31 0 -61 6t-53.5 20.5t-36.5 39t-13 61.5q0 39 8 90t23.5 101t33.5 97t41 78zM147 1290q23 35 50.5 49.5t70.5 14.5q70 0 125 -27 q-10 -125 -20.5 -254t-14.5 -235q-29 -16 -70.5 -28.5t-82.5 -12.5q-31 0 -60.5 6t-53 20.5t-37 39t-13.5 61.5q0 39 8 90t23.5 101t33.5 97t41 78z" />
<glyph unicode="&#x201d;" horiz-adv-x="856" d="M291 860q-23 -35 -50.5 -49t-70.5 -14q-70 0 -125 26q10 125 20.5 254t14.5 236q29 16 71 28.5t82 12.5q31 0 61 -6.5t53.5 -20.5t36.5 -38.5t13 -61.5q0 -41 -8 -91.5t-23.5 -100.5t-35 -97t-39.5 -78zM709 860q-23 -35 -50.5 -49t-70.5 -14q-70 0 -125 26 q10 125 20.5 254t14.5 236q29 16 70.5 28.5t82.5 12.5q31 0 60.5 -6.5t53 -20.5t37 -38.5t13.5 -61.5q0 -41 -8 -91.5t-23.5 -100.5t-35 -97t-39.5 -78z" />
<glyph unicode="&#x201e;" horiz-adv-x="864" d="M334 -180q-23 -12 -53.5 -16.5t-65.5 -4.5q-51 0 -87 19.5t-40 70.5l-27 408q61 49 164 49q72 0 114 -26.5t42 -96.5q0 -29 -4 -80t-11.5 -109.5t-15.5 -115.5t-16 -98zM745 -180q-23 -12 -53 -16.5t-65 -4.5q-51 0 -87 19.5t-40 70.5l-27 408q61 49 164 49 q72 0 114 -26.5t42 -96.5q0 -29 -4.5 -80t-11.5 -109.5t-15.5 -115.5t-16.5 -98z" />
<glyph unicode="&#x2022;" horiz-adv-x="641" d="M72 578q0 106 66.5 178.5t180.5 72.5q117 0 183.5 -72.5t66.5 -178.5t-66.5 -178t-183.5 -72q-115 0 -181 72t-66 178z" />
<glyph unicode="&#x2026;" horiz-adv-x="1454" d="M45 166q0 86 53.5 143.5t145.5 57.5t145 -57.5t53 -143.5t-53 -143.5t-145 -57.5t-145.5 57.5t-53.5 143.5zM528 166q0 86 53.5 143.5t145.5 57.5t145.5 -57.5t53.5 -143.5t-53.5 -143.5t-145.5 -57.5t-145.5 57.5t-53.5 143.5zM1012 166q0 86 53 143.5t145 57.5 t145.5 -57.5t53.5 -143.5t-53 -143.5t-146 -57.5q-92 0 -145 57.5t-53 143.5z" />
<glyph unicode="&#x202f;" horiz-adv-x="353" />
<glyph unicode="&#x2039;" horiz-adv-x="722" d="M649 233q2 -10 2 -21v-22q0 -78 -43 -113.5t-110 -35.5q-35 0 -72 15.5t-70 49.5l-239 230q-25 25 -35 51.5t-10 77.5q0 53 8 74.5t31 40.5l372 317q78 -23 115 -61.5t37 -87.5q0 -43 -20.5 -86.5t-88.5 -92.5l-172 -123z" />
<glyph unicode="&#x203a;" horiz-adv-x="722" d="M72 748q0 78 43 113.5t110 35.5q35 0 72 -15.5t70 -50.5l239 -229q25 -25 35 -51.5t10 -77.5q0 -53 -8 -74.5t-31 -40.5l-372 -317q-78 23 -115 61.5t-37 87.5q0 43 20.5 86t88.5 93l172 120l-295 216q-2 10 -2 21.5v21.5z" />
<glyph unicode="&#x205f;" horiz-adv-x="441" />
<glyph unicode="&#x20ac;" horiz-adv-x="1214" d="M47 371q-10 16 -18.5 42.5t-8.5 55.5q0 57 25 80.5t64 23.5h882q10 -18 18.5 -43.5t8.5 -56.5q0 -55 -24.5 -78.5t-65.5 -23.5h-375q41 -59 107.5 -92t158.5 -33q84 0 145.5 19.5t112.5 47.5q80 -55 80 -155q0 -84 -89 -137.5t-271 -53.5q-229 0 -390 105.5t-227 298.5 h-133zM47 670q-10 16 -18.5 42.5t-8.5 55.5q0 57 25 80.5t64 23.5h69q33 94 92.5 170t136 127.5t169 79t194.5 27.5q84 0 166 -16.5t141 -57.5q35 -23 55.5 -55.5t20.5 -79.5q0 -49 -25.5 -87t-60.5 -60q-53 33 -113.5 55t-140.5 22q-92 0 -156.5 -32.5t-105.5 -92.5h440 q10 -18 18.5 -43.5t8.5 -56.5q0 -55 -24.5 -78.5t-65.5 -23.5h-881z" />
<glyph unicode="&#x2122;" horiz-adv-x="1568" d="M68 1083q-8 14 -17.5 37t-9.5 45q0 47 22.5 69.5t57.5 22.5h493q8 -14 17.5 -38.5t9.5 -49.5q0 -49 -23.5 -67.5t-58.5 -18.5h-113v-522q-12 -4 -42.5 -7t-59.5 -3q-55 0 -84 18.5t-29 81.5v432h-163zM1178 723q-33 -27 -99 -27q-41 0 -70.5 11.5t-37.5 37.5l-74 250 l-14 -434q-16 -4 -40 -8t-52 -4q-53 0 -84 17.5t-31 64.5l33 573q10 16 42.5 36t94.5 20q59 0 95 -19.5t52 -66.5l84 -246l99 309q16 10 45.5 16.5t64.5 6.5q59 0 97 -19.5t44 -54.5q4 -33 13.5 -117t17.5 -181t15.5 -185.5t9.5 -129.5q-23 -14 -43.5 -19t-55.5 -5 q-47 0 -76.5 17.5t-33.5 64.5q-4 66 -8 150.5t-13 213.5z" />
<glyph unicode="&#x25fc;" horiz-adv-x="1013" d="M0 1014h1014v-1014h-1014v1014z" />
</font>
</defs>
</svg>
